<?xml version="1.0" standalone="no"?>
<!DOCTYPE svg PUBLIC "-//W3C//DTD SVG 1.1//EN" "http://www.w3.org/Graphics/SVG/1.1/DTD/svg11.dtd" >
<svg>
<metadata>
Created by FontForge 20090914 at Mon Jun 28 19:46:42 2021
 By www-data
Copyright 2017 The Barlow Project Authors (https://github.com/jpt/barlow)
</metadata>
<defs>
<font id="BarlowCondensed-Medium" horiz-adv-x="432" >
  <font-face 
    font-family="Barlow Condensed Medium"
    font-weight="500"
    font-stretch="condensed"
    units-per-em="1000"
    panose-1="0 0 6 6 0 0 0 0 0 0"
    ascent="800"
    descent="-200"
    x-height="508.999"
    cap-height="700"
    bbox="-600.453 -209.004 988.005 1073"
    underline-thickness="50"
    underline-position="-50"
    unicode-range="U+000D-U+FB02"
  />
<missing-glyph horiz-adv-x="363" 
d="M4 0h355c2.66699 -0 4 1.33301 4 4v692c0 2.66699 -1.33301 4 -4 4h-355c-2.66699 0 -4 -1.33301 -4 -4v-692c-0 -2.66699 1.33301 -4 4 -4zM142 248v32.998c0 22 4.16699 39.5 12.5 52.5s21.166 27.833 38.499 44.5c15.333 15.333 26.833 29 34.5 41s11.5 27 11.5 45
c0 20.667 -4.83301 37.334 -14.5 50.001s-22.167 19 -37.5 19c-16.667 0 -30.167 -6.33301 -40.5 -19s-15.5 -29.667 -15.5 -51v-16c0 -6.66699 -3.33301 -10 -10 -10l-48 2c-2.66699 0 -5 1 -7 3s-3 4.66699 -3 8v13c0 39.333 11.5 71.333 34.5 96s53.167 37 90.5 37
c36.667 0 66 -11.833 88 -35.5s33 -55.167 33 -94.5c0 -30 -5.16699 -53.667 -15.5 -71s-24.833 -34.666 -43.5 -51.999c-13.333 -12.667 -23.166 -23.667 -29.499 -33s-9.5 -20.333 -9.5 -33v-29c0 -6.66699 -3.33301 -10 -10 -10h-49c-6.66699 0 -10 3.33301 -10 10z
M144 102.998c-8.66699 8.66699 -13 19.667 -13 33s4.33301 24.166 13 32.499s19.667 12.5 33 12.5s24.166 -4.16699 32.499 -12.5s12.5 -19.166 12.5 -32.499s-4.16699 -24.333 -12.5 -33s-19.166 -13 -32.499 -13s-24.333 4.33301 -33 13z" />
    <glyph glyph-name="fi" unicode="fi" horiz-adv-x="495" 
d="M171 513c0 -2.66699 1.33301 -4 4 -4h70c6.66699 0 10 -3.33301 10 -10v-50c0 -6.66699 -3.33301 -10 -10 -10h-70c-2.66699 0 -4 -1.33301 -4 -4v-425c0 -6.66699 -3.33301 -10 -10 -10h-75c-6.66699 -0 -10 3.33301 -10 10v425c0 2.66699 -1.33301 4 -4 4h-37
c-6.66699 0 -10 3.33301 -10 10v50c0 6.66699 3.33301 10 10 10h37c2.66699 0 4 1.33301 4 4v26c0 59.333 12.333 101.833 37 127.5s64.667 38.5 120 38.5h13c6.66699 0 10 -3.33301 10 -10l-2 -61c0 -6.66699 -3.33301 -10 -10 -10h-10c-22 0 -38 -7.16699 -48 -21.5
s-15 -36.5 -15 -66.5v-23zM343 607c-12 12 -18 27.333 -18 46s6 34 18 46s27.333 18 46 18c19.333 0 34.833 -5.83301 46.5 -17.5s17.5 -27.167 17.5 -46.5c0 -18.667 -6 -34 -18 -46s-27.333 -18 -46 -18s-34 6 -46 18zM342 10v489c0 6.66699 3.33301 10 10 10h76
c6.66699 0 10 -3.33301 10 -10v-489c0 -6.66699 -3.33301 -10 -10 -10h-76c-6.66699 -0 -10 3.33301 -10 10z" />
    <glyph glyph-name="fl" unicode="fl" horiz-adv-x="475" 
d="M171 513c0 -2.66699 1.33301 -4 4 -4h70c6.66699 0 10 -3.33301 10 -10v-50c0 -6.66699 -3.33301 -10 -10 -10h-70c-2.66699 0 -4 -1.33301 -4 -4v-425c0 -6.66699 -3.33301 -10 -10 -10h-75c-6.66699 -0 -10 3.33301 -10 10v425c0 2.66699 -1.33301 4 -4 4h-37
c-6.66699 0 -10 3.33301 -10 10v50c0 6.66699 3.33301 10 10 10h37c2.66699 0 4 1.33301 4 4v26c0 59.333 12.333 101.833 37 127.5s64.667 38.5 120 38.5h13c6.66699 0 10 -3.33301 10 -10l-2 -61c0 -6.66699 -3.33301 -10 -10 -10h-10c-22 0 -38 -7.16699 -48 -21.5
s-15 -36.5 -15 -66.5v-23zM332 10v680c0 6.66699 3.33301 10 10 10h76c6.66699 0 10 -3.33301 10 -10v-680c0 -6.66699 -3.33301 -10 -10 -10h-76c-6.66699 -0 -10 3.33301 -10 10z" />
    <glyph glyph-name="I_J.liga" unicode="IJ" horiz-adv-x="655" 
d="M62 10v680c0 6.66699 3.33301 10 10 10h76c6.66699 0 10 -3.33301 10 -10v-680c0 -6.66699 -3.33301 -10 -10 -10h-76c-6.66699 -0 -10 3.33301 -10 10zM287.5 40.5c-32.333 32.333 -48.502 74.833 -48.502 127.5v79c0 6.66699 3.33301 10 10 10h76
c6.66699 0 10 -3.33301 10 -10v-81c0 -26.667 7.5 -48.5 22.5 -65.5s34.5 -25.5 58.5 -25.5s43.5 8.5 58.5 25.5s22.5 38.833 22.5 65.5v524c0 6.66699 3.33301 10 10 10h76c6.66699 0 10 -3.33301 10 -10v-522c0 -52.667 -16.167 -95.167 -48.5 -127.5
s-75.166 -48.5 -128.499 -48.5s-96.166 16.167 -128.499 48.5z" />
    <glyph glyph-name="f_f_i.liga" unicode="ffi" horiz-adv-x="759" 
d="M607 607c-12 12 -18 27.333 -18 46c0 19.333 6 34.833 18 46.5s27.333 17.5 46 17.5s34 -6 46 -18s18 -27.333 18 -46s-6.16699 -34 -18.5 -46s-27.5 -18 -45.5 -18c-18.667 0 -34 6 -46 18zM436 513c0 -2.66699 1.33301 -3.99805 4 -3.99805h69
c6.66699 0 10 -3.33301 10 -10v-50c0 -6.66699 -3.33301 -10 -10 -10h-69c-2.66699 0 -4 -1.33301 -4 -4v-425c0 -6.66699 -3.33301 -10 -10 -10h-76c-6.66699 0 -10 3.33301 -10 10v425c0 2.66699 -1.33301 4 -4 4h-160c-2.66699 0 -4 -1.33301 -4 -4v-425
c0 -6.66699 -3.33301 -10 -10 -10h-76c-6.66699 0 -10 3.33301 -10 10v425c0 2.66699 -1.33301 4 -4 4h-38c-6.66699 0 -10 3.33301 -10 10v50c0 6.66699 3.33301 10 10 10h38c2.66699 0 4 1.33301 4 4v40c0 55.333 12.667 95 38 119s65.333 35.333 120 34h7
c6.66699 0 10 -3.33301 10 -10v-48c0 -6.66699 -3.33301 -10 -10 -10h-7c-23.333 -0.666992 -39.5 -8.83398 -48.5 -24.501s-13.5 -38.5 -13.5 -68.5v-32c0 -2.66699 1.33301 -4 4 -4h160c2.66699 0 4 1.33301 4 4v40c0 55.333 12.5 95 37.5 119s64.833 35.333 119.5 34h8
c6.66699 0 10 -3.33301 10 -10v-48c0 -6.66699 -3.33301 -10 -10 -10h-7c-23.333 -0.666992 -39.5 -8.83398 -48.5 -24.501s-13.5 -38.5 -13.5 -68.5v-32zM606 10.002v489c0 6.66699 3.33301 10 10 10h76c6.66699 0 10 -3.33301 10 -10v-489
c0 -6.66699 -3.33301 -10 -10 -10h-76c-6.66699 0 -10 3.33301 -10 10z" />
    <glyph glyph-name="f_f_l.liga" unicode="ffl" horiz-adv-x="742" 
d="M439 513c0 -2.66699 1.33301 -3.99805 4 -3.99805h69c6.66699 0 10 -3.33301 10 -10v-50c0 -6.66699 -3.33301 -10 -10 -10h-69c-2.66699 0 -4 -1.33301 -4 -4v-425c0 -6.66699 -3.33301 -10 -10 -10h-76c-6.66699 0 -10 3.33301 -10 10v425c0 2.66699 -1.33301 4 -4 4
h-163c-2.66699 0 -4 -1.33301 -4 -4v-425c0 -6.66699 -3.33301 -10 -10 -10h-76c-6.66699 0 -10 3.33301 -10 10v425c0 2.66699 -1.33301 4 -4 4h-38c-6.66699 0 -10 3.33301 -10 10v50c0 6.66699 3.33301 10 10 10h38c2.66699 0 4 1.33301 4 4v40
c0 55.333 12.667 95 38 119s65.333 35.333 120 34h7c6.66699 0 10 -3.33301 10 -10v-48c0 -6.66699 -3.33301 -10 -10 -10h-7c-23.333 -0.666992 -39.5 -8.83398 -48.5 -24.501s-13.5 -38.5 -13.5 -68.5v-32c0 -2.66699 1.33301 -4 4 -4h163c2.66699 0 4 1.33301 4 4v40
c0 55.333 12.667 95 38 119s65.333 35.333 120 34h7c6.66699 0 10 -3.33301 10 -10v-48c0 -6.66699 -3.33301 -10 -10 -10h-7c-23.333 -0.666992 -39.5 -8.83398 -48.5 -24.501s-13.5 -38.5 -13.5 -68.5v-32zM608 700.002h76c6.66699 0 10 -3.33301 10 -10v-680
c0 -6.66699 -3.33301 -10 -10 -10h-76c-6.66699 0 -10 3.33301 -10 10v680c0 6.66699 3.33301 10 10 10z" />
    <glyph glyph-name="g_j.liga" unicode="gj" horiz-adv-x="628" 
d="M477 607c-12 12 -18 27.333 -18 46s6 34 18 46s27.333 18 46 18c19.333 0 34.833 -5.83301 46.5 -17.5s17.5 -27.167 17.5 -46.5c0 -18.667 -6 -34 -18 -46s-27.333 -18 -46 -18s-34 6 -46 18zM280.5 470c1 0.666992 1.50098 1.66699 1.50098 3v26
c0 6.66699 3.33301 10 10 10h76c6.66699 0 10 -3.33301 10 -10v-484c0 -70 -16 -124.167 -48 -162.5s-87 -57.5 -165 -57.5l-27 1c-6.66699 0.666992 -10 4.33398 -10 11.001v64c0 6.66699 3.66699 10 11 10c54.667 -2 92.167 8.83301 112.5 32.5s30.5 60.5 30.5 110.5v21
c0 1.33301 -0.5 2.16602 -1.5 2.49902s-2.16699 -0.166992 -3.5 -1.5c-22.667 -30.667 -55 -46 -97 -46c-44 0 -77.833 14.167 -101.5 42.5s-35.5 66.833 -35.5 115.5v200c0 49.333 12 88.166 36 116.499s57.667 42.5 101 42.5s75.666 -15.333 96.999 -46
c1.33301 -1.33301 2.5 -1.66602 3.5 -0.999023zM476.001 499c0 6.66699 3.33301 10 10 10h75c6.66699 0 10 -3.33301 10 -10v-527c0 -60 -11.833 -104.833 -35.5 -134.5s-66.5 -44.167 -128.5 -43.5c-6.66699 0 -10 3.33301 -10 10l2 62c0 6.66699 2.66699 10 8 10
c22 0.666992 39 9.5 51 26.5s18 40.167 18 69.5v527zM262.501 105.5c13 15 19.5 34.5 19.5 58.5v188c0 24 -6.5 43.667 -19.5 59s-30.167 23 -51.5 23s-38.666 -7.66699 -51.999 -23s-20 -35 -20 -59v-188c0 -24 6.66699 -43.5 20 -58.5s30.666 -22.5 51.999 -22.5
s38.5 7.5 51.5 22.5z" />
    <glyph glyph-name="i_j.liga" unicode="ij" horiz-adv-x="413" 
d="M59 607c-12 12 -18 27.333 -18 46s6 34 18 46s27.333 18 46 18c19.333 0 34.833 -5.83301 46.5 -17.5s17.5 -27.167 17.5 -46.5c0 -18.667 -6 -34 -18 -46s-27.333 -18 -46 -18s-34 6 -46 18zM261 607c-12 12 -18 27.333 -18 46s6 34 18 46s27.333 18 46 18
c19.333 0 34.833 -5.83301 46.5 -17.5s17.5 -27.167 17.5 -46.5c0 -18.667 -6 -34 -18 -46s-27.333 -18 -46 -18s-34 6 -46 18zM58 10v489c0 6.66699 3.33301 10 10 10h76c6.66699 0 10 -3.33301 10 -10v-489c0 -6.66699 -3.33301 -10 -10 -10h-76
c-6.66699 -0 -10 3.33301 -10 10zM167 -197v63c0 6.66699 3.33301 10 10 10c54.667 0.666992 82 32.667 82 96v527c0 6.66699 3.33301 10 10 10h76c6.66699 0 10 -3.33301 10 -10v-527c0 -41.333 -4.33301 -74.5 -13 -99.5s-25.667 -44.5 -51 -58.5s-62.333 -21 -111 -21
c-8.66699 0 -13 3.33301 -13 10z" />
    <glyph glyph-name="hyphen_hyphen.liga" unicode="&#x2d;&#x2d;" horiz-adv-x="592" 
d="M29 269v63c0 6.66699 3.33301 10 10 10h514c6.66699 0 10 -3.33301 10 -10v-63c0 -6.66699 -3.33301 -10 -10 -10h-514c-6.66699 0 -10 3.33301 -10 10z" />
    <glyph glyph-name=".notdef" horiz-adv-x="363" 
d="M4 0h355c2.66699 -0 4 1.33301 4 4v692c0 2.66699 -1.33301 4 -4 4h-355c-2.66699 0 -4 -1.33301 -4 -4v-692c-0 -2.66699 1.33301 -4 4 -4zM142 248v32.998c0 22 4.16699 39.5 12.5 52.5s21.166 27.833 38.499 44.5c15.333 15.333 26.833 29 34.5 41s11.5 27 11.5 45
c0 20.667 -4.83301 37.334 -14.5 50.001s-22.167 19 -37.5 19c-16.667 0 -30.167 -6.33301 -40.5 -19s-15.5 -29.667 -15.5 -51v-16c0 -6.66699 -3.33301 -10 -10 -10l-48 2c-2.66699 0 -5 1 -7 3s-3 4.66699 -3 8v13c0 39.333 11.5 71.333 34.5 96s53.167 37 90.5 37
c36.667 0 66 -11.833 88 -35.5s33 -55.167 33 -94.5c0 -30 -5.16699 -53.667 -15.5 -71s-24.833 -34.666 -43.5 -51.999c-13.333 -12.667 -23.166 -23.667 -29.499 -33s-9.5 -20.333 -9.5 -33v-29c0 -6.66699 -3.33301 -10 -10 -10h-49c-6.66699 0 -10 3.33301 -10 10z
M144 102.998c-8.66699 8.66699 -13 19.667 -13 33s4.33301 24.166 13 32.499s19.667 12.5 33 12.5s24.166 -4.16699 32.499 -12.5s12.5 -19.166 12.5 -32.499s-4.16699 -24.333 -12.5 -33s-19.166 -13 -32.499 -13s-24.333 4.33301 -33 13z" />
    <glyph glyph-name="NULL" horiz-adv-x="0" 
 />
    <glyph glyph-name="NULL" horiz-adv-x="0" 
 />
    <glyph glyph-name="nonmarkingreturn" unicode="&#xd;" horiz-adv-x="200" 
 />
    <glyph glyph-name="space" unicode=" " horiz-adv-x="200" 
 />
    <glyph glyph-name="exclam" unicode="!" horiz-adv-x="261" 
d="M92 242l-9 448c0 6.66699 3.33301 10 10 10h76c6.66699 0 10 -3.33301 10 -10l-10 -448c0 -6.66699 -3.33301 -10 -10 -10h-57c-6.66699 0 -10 3.33301 -10 10zM85 21c-12 12 -18 27.333 -18 46c0 19.333 6 34.833 18 46.5s27.333 17.5 46 17.5s34 -6 46 -18
s18 -27.333 18 -46s-6 -34 -18 -46s-27.333 -18 -46 -18s-34 6 -46 18z" />
    <glyph glyph-name="quotedbl" unicode="&#x22;" horiz-adv-x="274" 
d="M29 492l-9 194c0 6.66699 3 10 9 10h73c6.66699 0 10 -3.33301 10 -10l-10 -194c0 -6.66699 -3.33301 -10 -10 -10h-52c-7.33301 0 -11 3.33301 -11 10zM171 492l-9 194c0 6.66699 3 10 9 10h73c6 0 9 -3.33301 9 -10l-10 -194c0 -6.66699 -3.33301 -10 -10 -10h-52
c-6.66699 0 -10 3.33301 -10 10z" />
    <glyph glyph-name="numbersign" unicode="#" horiz-adv-x="599" 
d="M541 420h-64c-3.33301 0 -5 -1.33301 -5 -4l-19 -138c0 -2.66699 1 -4 3 -4h52c6.66699 0 10 -3.33301 10 -10v-63c0 -6.66699 -3.33301 -10 -10 -10h-65c-3.33301 0 -5 -1.33301 -5 -4l-23 -158c-0.666992 -6 -4 -9 -10 -9l-76 1c-2.66699 0 -5 1 -7 3
s-2.66699 4.66699 -2 8l22 155c0 2.66699 -1 4 -3 4h-124c-3.33301 0 -5 -1.33301 -5 -4l-23 -158c-0.666992 -6 -4 -9 -10 -9l-76 1c-2.66699 0 -5 1 -7 3s-2.66699 4.66699 -2 8l22 155c0 2.66699 -1 4 -3 4h-53c-6.66699 0 -10 3.33301 -10 10v63
c0 6.66699 3.33301 10 10 10h66c3.33301 0 5 1.33301 5 4l19 138c0 2.66699 -1 4 -3 4h-54c-6.66699 0 -10 3.33301 -10 10v64c0 6.66699 3.33301 10 10 10h67c3.33301 0 5 1.33301 5 4l23 158c0.666992 6 4 9 10 9l76 -1c2.66699 0 5 -1 7 -3s2.66699 -4.66699 2 -8
l-22 -155c0 -2.66699 1 -4 3 -4h124c3.33301 0 5 1.33301 5 4l23 158c0.666992 6 4 9 10 9l76 -1c2.66699 0 5 -1 7 -3s2.66699 -4.66699 2 -8l-22 -155c0 -2.66699 1 -4 3 -4h51c6.66699 0 10 -3.33301 10 -10v-64c0 -6.66699 -3.33301 -10 -10 -10zM357 278l19 138
c0 2.66699 -1 4 -3 4h-124c-3.33301 0 -5 -1.33301 -5 -4l-19 -138c0 -2.66699 1 -4 3 -4h124c3.33301 0 5 1.33301 5 4z" />
    <glyph glyph-name="dollar" unicode="$" horiz-adv-x="426" 
d="M354.5 57c-24.333 -32 -57.167 -52.3359 -98.5 -61.0029c-2.66699 -0.666992 -4 -2.33398 -4 -5.00098l1 -66c0 -6.66699 -3.33301 -10 -10 -10h-53c-6.66699 0 -10 3.33301 -10 10l1 66c0 2.66699 -1.33301 4.33398 -4 5.00098
c-42.667 7.33301 -76.5 26.666 -101.5 57.999s-37.5 70.333 -37.5 117v26c0 6.66699 3.33301 10 10 10h74c6.66699 0 10 -3.33301 10 -10v-21c0 -30.667 7.66699 -55.167 23 -73.5s35 -27.5 59 -27.5s43.833 8.83301 59.5 26.5s23.5 40.834 23.5 69.501
c0 19.333 -4.16699 36.333 -12.5 51s-19.333 27.834 -33 39.501s-35.834 28.834 -66.501 51.501c-34 25.333 -60.667 47 -80 65s-35.666 39.667 -48.999 65s-20 55 -20 89c0 48 12.5 87.167 37.5 117.5s58.833 48.833 101.5 55.5c2.66699 0.666992 4 2.33398 4 5.00098
l-1 71c0 6.66699 3.33301 10 10 10h52c6.66699 0 10 -3.33301 10 -10l-1 -73c0 -2.66699 1.33301 -4.33398 4 -5.00098c41.333 -8.66699 73.833 -29 97.5 -61s35.5 -71.667 35.5 -119v-25c0 -6.66699 -3.33301 -10 -10 -10h-74c-6.66699 0 -10 3.33301 -10 10v27
c0 30 -7.66699 54.167 -23 72.5s-35.333 27.5 -60 27.5c-23.333 0 -42.333 -8.16699 -57 -24.5s-22 -39.166 -22 -68.499c0 -26.667 7.33301 -49.167 22 -67.5s43 -42.833 85 -73.5c40 -30 70.167 -54.333 90.5 -73s36 -39.167 47 -61.5s16.5 -48.833 16.5 -79.5
c0 -48 -12.167 -88 -36.5 -120z" />
    <glyph glyph-name="percent" unicode="%" horiz-adv-x="776" 
d="M134.5 433c-22.333 13.333 -40 31.3311 -53 53.998s-19.5 47.667 -19.5 75c0 26.667 6.5 51.334 19.5 74.001s30.667 40.5 53 53.5s46.833 19.5 73.5 19.5c26 0 50 -6.66699 72 -20s39.5 -31.166 52.5 -53.499s19.5 -46.833 19.5 -73.5c0 -27.333 -6.5 -52.333 -19.5 -75
s-30.5 -40.667 -52.5 -54s-46 -20 -72 -20c-26.667 0 -51.167 6.66699 -73.5 20zM168.5 3.49805c-1.66699 2.33301 -1.5 5.16602 0.5 8.49902l367 681c2 4.66699 6 7 12 7h49c4 0 6.83301 -1.16699 8.5 -3.5s1.5 -5.16602 -0.5 -8.49902l-367 -681c-2 -4.66699 -6 -7 -12 -7
h-49c-4 0 -6.83301 1.16699 -8.5 3.5zM271 494.498c17.333 18.333 26 40.833 26 67.5c0 26 -8.66699 48.167 -26 66.5s-38.333 27.5 -63 27.5c-25.333 0 -46.833 -9.16699 -64.5 -27.5s-26.5 -40.5 -26.5 -66.5c0 -26.667 8.83301 -49.167 26.5 -67.5
s39.167 -27.5 64.5 -27.5c24.667 0 45.667 9.16699 63 27.5zM496.5 10.998c-22.333 13.333 -40 31.333 -53 54s-19.5 47.334 -19.5 74.001s6.5 51.334 19.5 74.001s30.667 40.667 53 54s46.5 20 72.5 20s50.167 -6.66699 72.5 -20s40 -31.333 53 -54
s19.5 -47.334 19.5 -74.001s-6.5 -51.334 -19.5 -74.001s-30.5 -40.667 -52.5 -54s-46.333 -20 -73 -20c-26 0 -50.167 6.66699 -72.5 20zM633 71.998c17.333 18.667 26.0039 41 26.0039 67s-8.83301 48.167 -26.5 66.5s-38.834 27.5 -63.501 27.5
s-45.834 -9.16699 -63.501 -27.5s-26.5 -40.5 -26.5 -66.5c0 -26.667 8.66699 -49.167 26 -67.5s38.666 -27.5 63.999 -27.5s46.666 9.33301 63.999 28z" />
    <glyph glyph-name="ampersand" unicode="&#x26;" horiz-adv-x="564" 
d="M522 6c0 -1.33301 -0.665039 -2.66992 -1.99805 -4.00293s-3.33301 -2 -6 -2h-82c-4.66699 0 -9 2 -13 6l-34 49c-2 2 -4 2 -6 0c-24.667 -22 -50.5 -38.167 -77.5 -48.5s-56.5 -15.5 -88.5 -15.5c-54.667 0 -97.834 14.5 -129.501 43.5s-47.5 70.833 -47.5 125.5
c0 45.333 10.333 83.833 31 115.5s49 61.834 85 90.501c2 0.666992 2.33301 2.33398 1 5.00098c-23.333 33.333 -40.5 59.5 -51.5 78.5s-18.333 35.333 -22 49s-5.5 29.167 -5.5 46.5c0 49.333 14.667 88.833 44 118.5s67.666 44.5 114.999 44.5c48 0 87.333 -15 118 -45
s46 -69.667 46 -119c0 -40.667 -10.5 -75.834 -31.5 -105.501s-50.167 -59.167 -87.5 -88.5c-2 -0.666992 -2.33301 -2.33398 -1 -5.00098l48 -68l58 -79c1.33301 -2.66699 3.33301 -2.66699 6 0c2 4 5.66699 10 11 18c16 26.667 28 47.334 36 62.001
c1.33301 2.66699 3.33301 4.33398 6 5.00098s5.33398 0.333984 8.00098 -0.999023l56 -32c5.33301 -3.33301 6.66602 -8 3.99902 -14c-20 -37.333 -43 -74.333 -69 -111c-0.666992 -2 -0.666992 -4 0 -6l79 -107c1.33301 -1.33301 2 -3.33301 2 -6zM188.502 599.496
c-12.333 -14.333 -18.502 -33.5 -18.502 -57.5c0 -16.667 3 -32.167 9 -46.5s19.667 -37.833 41 -70.5c2 -2.66699 4 -3 6 -1c24.667 20.667 43.334 40.167 56.001 58.5s19 38.833 19 61.5s-6 41.167 -18 55.5s-27.667 21.5 -47 21.5s-35.166 -7.16699 -47.499 -21.5z
M328 124.996c2 2 2.33301 4.00098 1 6.00098l-119 161c-1.33301 2 -3 2 -5 0c-23.333 -20.667 -41.333 -40.834 -54 -60.501s-19 -41.5 -19 -65.5c0 -27.333 7.83301 -49.5 23.5 -66.5s38.167 -25.5 67.5 -25.5c34.667 0 69.667 17 105 51z" />
    <glyph glyph-name="quotesingle" unicode="'" horiz-adv-x="137" 
d="M29 496l-9 192c0 6.66699 3 10 9 10h78c6 0 9 -3.33301 9 -10l-10 -192c0 -6.66699 -3.33301 -10 -10 -10h-57c-6.66699 0 -10 3.33301 -10 10z" />
    <glyph glyph-name="parenleft" unicode="(" horiz-adv-x="254" 
d="M95 -93c-28.667 50.667 -51.834 112.5 -69.501 185.5s-26.5 151.5 -26.5 235.5c0 85.333 9 165.166 27 239.499s41.667 136.833 71 187.5c2.66699 4.66699 6.66699 7 12 7h73c3.33301 0 5.83301 -1.16699 7.5 -3.5s1.83398 -5.16602 0.500977 -8.49902
c-24 -54.667 -43.833 -118.167 -59.5 -190.5s-23.5 -149.166 -23.5 -230.499c0 -80.667 7.83301 -156.834 23.5 -228.501s35.5 -134.5 59.5 -188.5l1 -4c0 -5.33301 -3 -8 -9 -8h-75c-5.33301 0 -9.33301 2.33301 -12 7z" />
    <glyph glyph-name="parenright" unicode=")" horiz-adv-x="254" 
d="M159 755c28.667 -50.667 51.834 -112.668 69.501 -186.001s26.5 -151.666 26.5 -234.999c0 -85.333 -9 -165.166 -27 -239.499s-41.667 -136.833 -71 -187.5c-2.66699 -4.66699 -6.66699 -7 -12 -7h-74c-3.33301 0 -5.83301 1.16699 -7.5 3.5
s-1.83398 5.16602 -0.500977 8.49902c24 54 44 117.333 60 190s24 149.667 24 231c0 80.667 -8 157 -24 229s-36 134.667 -60 188l-1 4c0 5.33301 3 8 9 8h76c5.33301 0 9.33301 -2.33301 12 -7z" />
    <glyph glyph-name="asterisk" unicode="*" horiz-adv-x="361" 
d="M152 405v107.002c0 1.33301 -0.5 2.33301 -1.5 3s-2.16699 0.666992 -3.5 0l-90 -55l-5 -2c-3.33301 0 -6.33301 2 -9 6l-19 33c-1.33301 2.66699 -2 4.66699 -2 6c0 4 1.66699 6.66699 5 8l94 56c1.33301 0.666992 2 1.66699 2 3s-0.666992 2.33301 -2 3l-94 56
c-5.33301 3.33301 -6.33301 8 -3 14l19 34c4 6.66699 8.66699 8 14 4l90 -56c1.33301 -0.666992 2.5 -0.666992 3.5 0s1.5 1.66699 1.5 3v108c0 6.66699 3.33301 10 10 10h38c6.66699 0 10 -3.33301 10 -10l-1 -108c0 -2 0.5 -3.33301 1.5 -4
s2.16699 -0.333984 3.5 0.999023l90 56l5 2c3.33301 0 6.33301 -2 9 -6l19 -34c1.33301 -2.66699 2 -4.66699 2 -6c0 -3.33301 -1.66699 -6 -5 -8l-94 -56c-0.666992 -0.666992 -1 -1.66699 -1 -3s0.333008 -2.33301 1 -3l94 -56c5.33301 -3.33301 6.33301 -8 3 -14l-19 -34
c-4 -6.66699 -8.66699 -8 -14 -4l-90 56c-1.33301 1.33301 -2.5 1.66602 -3.5 0.999023s-1.5 -2 -1.5 -4l1 -107c0 -6.66699 -3.33301 -10 -10 -10h-38c-6.66699 0 -10 3.33301 -10 10z" />
    <glyph glyph-name="plus" unicode="+" horiz-adv-x="440" 
d="M411 343v-54c0 -6.66699 -3.33301 -10 -10 -10h-140c-2.66699 0 -4 -1.33301 -4 -4v-140c0 -6.66699 -3.33301 -10 -10 -10h-54c-6.66699 0 -10 3.33301 -10 10v140c0 2.66699 -1.33301 4 -4 4h-140c-6.66699 0 -10 3.33301 -10 10v54c0 6.66699 3.33301 10 10 10h140
c2.66699 0 4 1.33301 4 4v140c0 6.66699 3.33301 10 10 10h54c6.66699 0 10 -3.33301 10 -10v-140c0 -2.66699 1.33301 -4 4 -4h140c6.66699 0 10 -3.33301 10 -10z" />
    <glyph glyph-name="comma" unicode="," horiz-adv-x="189" 
d="M37 -82.5c-2 2.33301 -2.66602 4.83301 -1.99902 7.5l29 222c0.666992 6 4 9 10 9h66c7.33301 0 10.333 -3.66699 9 -11l-48 -222c-0.666992 -6 -4.33398 -9 -11.001 -9h-45c-3.33301 0 -6 1.16699 -8 3.5z" />
    <glyph glyph-name="hyphen" unicode="-" horiz-adv-x="320" 
d="M29 274v63c0 6.66699 3.33301 10 10 10h242c6.66699 0 10 -3.33301 10 -10v-63c0 -6.66699 -3.33301 -10 -10 -10h-242c-6.66699 0 -10 3.33301 -10 10z" />
    <glyph glyph-name="period" unicode="." horiz-adv-x="202" 
d="M55 18c-12 12 -18 27.333 -18 46s6 34 18 46s27.333 18 46 18s34 -6 46 -18s18 -27.333 18 -46s-6 -34 -18 -46s-27.333 -18 -46 -18s-34 6 -46 18z" />
    <glyph glyph-name="slash" unicode="/" horiz-adv-x="363" 
d="M23.5 3c-1.66699 2 -2.16699 4.66699 -1.5 8l195 681c2 5.33301 5.66699 8 11 8h75c3.33301 0 5.83301 -1 7.5 -3s2.16699 -4.66699 1.5 -8l-195 -681c-2 -5.33301 -5.66699 -8 -11 -8h-75c-3.33301 0 -5.83301 1 -7.5 3z" />
    <glyph glyph-name="zero" unicode="0" horiz-adv-x="447" 
d="M93 41c-32.667 34 -49 79.333 -49 136v346c0 56.667 16.333 102 49 136s76 51 130 51s97.5 -17 130.5 -51s49.5 -79.333 49.5 -136v-346c0 -56.667 -16.5 -102 -49.5 -136s-76.5 -51 -130.5 -51s-97.333 17 -130 51zM284 100c15.333 18 23 41.667 23 71v358
c0 29.333 -7.66699 53 -23 71s-35.666 27 -60.999 27c-24.667 0 -44.667 -9 -60 -27s-23 -41.667 -23 -71v-358c0 -29.333 7.66699 -53 23 -71s35.333 -27 60 -27c25.333 0 45.666 9 60.999 27z" />
    <glyph glyph-name="one" unicode="1" horiz-adv-x="266" 
d="M125 700h80c6.66699 0 10 -3.33301 10 -10v-680c0 -6.66699 -3.33301 -10 -10 -10h-76c-6.66699 -0 -10 3.33301 -10 10v585c0 1.33301 -0.5 2.5 -1.5 3.5s-1.83301 1.16699 -2.5 0.5l-89 -23l-4 -1c-4 0 -6.66699 3 -8 9l-4 56c0 6 2.33301 10 7 12l96 45c4 2 8 3 12 3z
" />
    <glyph glyph-name="two" unicode="2" horiz-adv-x="415" 
d="M149 84.5c0.666992 -1 1.66602 -1.49707 2.99902 -1.49707h229c6.66699 0 10 -3.33301 10 -10v-63c0 -6.66699 -3.33301 -10 -10 -10h-336c-6.66699 0 -10 3.33301 -10 10v66c0 5.33301 1.33301 9.66602 4 12.999l31 46c63.333 91.333 112.333 165.333 147 222
c40 68 60 124.667 60 170c0 30 -6.83301 53.833 -20.5 71.5s-31.5 26.5 -53.5 26.5s-39.667 -8.66699 -53 -26s-19.666 -40.333 -18.999 -69v-40c0 -6.66699 -3.33301 -10 -10 -10h-78c-6.66699 0 -10 3.33301 -10 10v43c2 52.667 19 95 51 127s73 48 123 48
s90.333 -16.667 121 -50s46 -77.333 46 -132c0 -32.667 -5.83301 -65.834 -17.5 -99.501s-29.5 -69.834 -53.5 -108.501c-16.667 -26.667 -51.667 -79.667 -105 -159l-49 -71c-0.666992 -1.33301 -0.666992 -2.5 0 -3.5z" />
    <glyph glyph-name="three" unicode="3" horiz-adv-x="418" 
d="M373 215c0 -33.333 -2.99902 -63.6689 -8.99902 -91.002c-9.33301 -42.667 -27 -75.334 -53 -98.001s-61.667 -34 -107 -34c-46.667 0 -84.834 12.667 -114.501 38s-47.167 60 -52.5 104c-3.33301 24.667 -5 48.334 -5 71.001c0 6.66699 3.33301 10 10 10h76
c6.66699 0 10 -3.33301 10 -10c1.33301 -27.333 3 -46.666 5 -57.999c4 -22.667 12.167 -40.167 24.5 -52.5s27.833 -18.5 46.5 -18.5c37.333 0 61 21.667 71 65c4 25.333 6 53.333 6 84c0 36 -3 67.333 -9 94c-5.33301 18.667 -13.833 33.167 -25.5 43.5
s-25.834 15.5 -42.501 15.5c-8.66699 0 -17.667 -3 -27 -9c-2 -2 -4.33301 -3 -7 -3s-5 1.33301 -7 4l-38 39c-3.33301 4.66699 -3.66602 9.33398 -0.999023 14.001l130 189c0.666992 0.666992 0.666992 1.66699 0 3s-1.66699 2 -3 2h-202c-6.66699 0 -10 3.33301 -10 10v63
c0 6.66699 3.33301 10 10 10h312c6.66699 0 10 -3.33301 10 -10v-66c0 -5.33301 -1.33301 -9.66602 -4 -12.999l-117 -172c-2 -2 -1.33301 -3.66699 2 -5c26.667 -4 49.5 -16.5 68.5 -37.5s32.833 -47.833 41.5 -80.5c7.33301 -32.667 11 -66.334 11 -101.001z" />
    <glyph glyph-name="four" unicode="4" horiz-adv-x="440" 
d="M421 263v-67c0 -6.66699 -3.33301 -10 -10 -10h-32c-2.66699 0 -4 -1.33301 -4 -4v-172c0 -6.66699 -3.33301 -10 -10 -10h-76c-6.66699 -0 -10 3.33301 -10 10v172c0 2.66699 -1.33301 4 -4 4h-246c-6.66699 0 -10 3.33301 -10 10v56c0 2.66699 0.666992 6.66699 2 12
l144 428c2 5.33301 6 8 12 8h82c7.33301 0 10 -3.66699 8 -11l-136 -411c-0.666992 -1.33301 -0.5 -2.5 0.5 -3.5s2.16699 -1.5 3.5 -1.5h140c2.66699 0 4 1.33301 4 4v137c0 6.66699 3.33301 10 10 10h76c6.66699 0 10 -3.33301 10 -10v-137c0 -2.66699 1.33301 -4 4 -4h32
c6.66699 0 10 -3.33301 10 -10z" />
    <glyph glyph-name="five" unicode="5" horiz-adv-x="420" 
d="M388 215c0 -25.333 -1.66895 -50.6699 -5.00195 -76.0029c-4.66699 -47.333 -21.667 -83.666 -51 -108.999s-68 -38 -116 -38c-46.667 0 -84.334 12.333 -113.001 37s-46.667 61.334 -54 110.001l-3 30c0 6.66699 3.33301 10 10 10h76c6.66699 0 10 -3.33301 10 -10
l3 -22c8.66699 -48 32.334 -72 71.001 -72c18.667 0 34 6 46 18s20 29.333 24 52c4 20 6 43.333 6 70c0 28 -2.66699 52.667 -8 74c-4.66699 20 -12.834 35.333 -24.501 46s-26.167 16 -43.5 16c-39.333 0 -63.666 -19 -72.999 -57c-2 -6 -5.66699 -9 -11 -9h-77
c-6.66699 0 -10 3.33301 -10 10v395c0 6.66699 3.33301 10 10 10h309c6.66699 0 10 -3.33301 10 -10v-63c0 -6.66699 -3.33301 -10 -10 -10h-219c-2.66699 0 -4 -1.33301 -4 -4v-220c0 -1.33301 0.5 -2.16602 1.5 -2.49902s2.16699 0.166992 3.5 1.5
c10.667 13.333 24.334 23.833 41.001 31.5s35.334 11.5 56.001 11.5c38 0 68.833 -11.833 92.5 -35.5s38.5 -57.167 44.5 -100.5c5.33301 -25.333 8 -53.333 8 -84z" />
    <glyph glyph-name="six" unicode="6" horiz-adv-x="420" 
d="M389 215c0 -18 -1.33008 -41 -3.99707 -69c-4 -49.333 -20.667 -87.333 -50 -114s-68.666 -40 -117.999 -40c-45.333 0 -82.5 12.333 -111.5 37s-46.833 61 -53.5 109c-4 20 -6 43.333 -6 70l-1 326c0 52.667 15.667 94.834 47 126.501s72.666 47.5 123.999 47.5
c47.333 0 86.166 -15.833 116.499 -47.5s45.5 -73.834 45.5 -126.501v-22c0 -6.66699 -3.33301 -10 -10 -10h-76c-6.66699 0 -10 3.33301 -10 10v18c0 27.333 -6.33301 49.5 -19 66.5s-28.334 25.5 -47.001 25.5c-22 0 -39.833 -8.5 -53.5 -25.5s-20.5 -39.167 -20.5 -66.5
v-110c0 -3.33301 1.66699 -4 5 -2c19.333 19.333 43.666 29 72.999 29c45.333 0 82.333 -14 111 -42s45.667 -65.333 51 -112c4.66699 -25.333 7 -51.333 7 -78zM292.003 221c0 20.667 -2.33105 46.668 -6.99805 78.001c-9.33301 43.333 -32.333 65 -69 65
s-59.667 -22.667 -69 -68c-3.33301 -21.333 -5 -46.333 -5 -75c0 -26 1.33301 -50 4 -72c9.33301 -49.333 32.666 -74 69.999 -74c19.333 0 35.166 6.66699 47.499 20s20.5 33 24.5 59c2.66699 21.333 4 43.666 4 66.999z" />
    <glyph glyph-name="seven" unicode="7" horiz-adv-x="381" 
d="M96.5 3c-1.66699 2 -2.16699 4.66699 -1.5 8l169 602c0.666992 0.666992 0.5 1.5 -0.5 2.5s-2.16699 1.5 -3.5 1.5h-158c-2.66699 0 -4 -1.33301 -4 -4v-40c0 -6.66699 -3.33301 -10 -10 -10h-59c-6.66699 0 -10 3.33301 -10 10l1 117c0 6.66699 3.33301 10 10 10h326
c6.66699 0 10 -3.33301 10 -10v-67c0 -1.33301 -0.666992 -5.33301 -2 -12l-169 -603c-1.33301 -5.33301 -5 -8 -11 -8h-80c-3.33301 0 -5.83301 1 -7.5 3z" />
    <glyph glyph-name="eight" unicode="8" horiz-adv-x="429" 
d="M311 366c24 -13.333 41.333 -32.334 52 -57.001c14 -31.333 21 -68.333 21 -111c0 -36 -4.66699 -67.333 -14 -94c-12.667 -35.333 -32.5 -62.833 -59.5 -82.5s-59.167 -29.5 -96.5 -29.5c-36.667 0 -68.5 9.66699 -95.5 29s-46.833 46.666 -59.5 81.999
c-10 28 -15 59.667 -15 95c0 40.667 6 75.334 18 104.001c11.333 28.667 30 49.667 56 63c2.66699 2 2.66699 4 0 6c-24 14.667 -41.667 33.667 -53 57c-14 27.333 -21 60 -21 98c0 39.333 7 72.333 21 99c13.333 27.333 33 48.5 59 63.5s56 22.5 90 22.5
c33.333 0 62.833 -7.16699 88.5 -21.5s45.5 -35.166 59.5 -62.499c14.667 -27.333 22 -61 22 -101c0 -38 -6.66699 -70.333 -20 -97c-11.333 -23.333 -29 -42.333 -53 -57c-3.33301 -2 -3.33301 -4 0 -6zM139 517.999c0 -26 4.00195 -47.666 12.002 -64.999
c5.33301 -15.333 13.5 -27 24.5 -35s23.833 -12 38.5 -12c15.333 0 28.666 4.33301 39.999 13s19.666 21 24.999 37c7.33301 18 11 38.667 11 62c0 26 -4.66699 47.667 -14 65c-12 30 -32.667 45 -62 45c-30 0 -51 -16 -63 -48c-8 -16.667 -12 -37.334 -12 -62.001z
M289.002 203c0 28.667 -3.66992 53.335 -11.0029 74.002c-4.66699 17.333 -12.667 30.666 -24 39.999s-24.666 14 -39.999 14c-16 0 -29.667 -4.83301 -41 -14.5s-19.666 -23.834 -24.999 -42.501c-6 -18.667 -9 -42 -9 -70c0 -24.667 2.33301 -46 7 -64
c5.33301 -20.667 13.833 -36.667 25.5 -48s25.834 -17 42.501 -17c17.333 0 32 6 44 18s20.333 28.667 25 50c4 17.333 6 37.333 6 60z" />
    <glyph glyph-name="nine" unicode="9" horiz-adv-x="414" 
d="M369 166c0 -52.667 -15.6709 -94.834 -47.0039 -126.501s-72.666 -47.5 -123.999 -47.5c-47.333 0 -86.166 15.833 -116.499 47.5s-45.5 73.834 -45.5 126.501v22c0 6.66699 3.33301 10 10 10h76c6.66699 0 10 -3.33301 10 -10v-18c0 -26.667 6.33301 -48.667 19 -66
s28.334 -26 47.001 -26c22 0 39.833 8.5 53.5 25.5s20.5 39.167 20.5 66.5v110c0 3.33301 -1.66699 4 -5 2c-19.333 -19.333 -43.666 -29 -72.999 -29c-44.667 0 -81.5 14.167 -110.5 42.5s-46.167 65.5 -51.5 111.5c-4 22 -6 48 -6 78c0 25.333 1 48.333 3 69
c4 49.333 20.667 87.333 50 114s68.666 40 117.999 40c46 0 83.333 -12.333 112 -37s46.334 -61 53.001 -109c4 -20 6 -43.333 6 -70zM271.996 479c0 26 -1.33496 50 -4.00195 72c-9.33301 49.333 -32.666 74 -69.999 74c-19.333 0 -35.166 -6.66699 -47.499 -20
s-20.5 -33 -24.5 -59c-2 -24 -3 -46.333 -3 -67c0 -24.667 2 -50.667 6 -78c9.33301 -43.333 32.333 -65 69 -65s59.667 22.667 69 68c3.33301 22 5 47 5 75z" />
    <glyph glyph-name="colon" unicode=":" horiz-adv-x="234" 
d="M72 355c-12 12 -18 27.333 -18 46s6 34 18 46s27.333 18 46 18s34 -6 46 -18s18 -27.333 18 -46s-6 -34 -18 -46s-27.333 -18 -46 -18s-34 6 -46 18zM72 22c-12 12 -18 27.333 -18 46s6 34 18 46s27.333 18 46 18s34 -6 46 -18s18 -27.333 18 -46s-6 -34 -18 -46
s-27.333 -18 -46 -18s-34 6 -46 18z" />
    <glyph glyph-name="semicolon" unicode=";" horiz-adv-x="207" 
d="M56.5 355c-12.333 13.333 -18.5 29.666 -18.5 48.999c0 18.667 6.66699 34.834 20 48.501s28.666 20.5 45.999 20.5c16.667 0 31.667 -6.83301 45 -20.5s20 -29.834 20 -48.501c0 -19.333 -6.16699 -35.666 -18.5 -48.999s-27.833 -20 -46.5 -20
c-19.333 0 -35.166 6.66699 -47.499 20zM44 -80c-2 2 -2.66699 4.33301 -2 7l20 216c0.666992 6.66699 4.33398 10 11.001 10h66c3.33301 0 5.83301 -1 7.5 -3s2.16699 -4.66699 1.5 -8l-39 -216c-0.666992 -6 -4.33398 -9 -11.001 -9h-46c-3.33301 0 -6 1 -8 3z" />
    <glyph glyph-name="less" unicode="&#x3c;" horiz-adv-x="440" 
d="M407.5 59.5c-2.33301 -1.66699 -5.16699 -1.49805 -8.5 0.501953l-363 174c-4.66699 2.66699 -7 6.66699 -7 12v69c0 5.33301 2.33301 9.33301 7 12l363 174l5 2c2 0 3.66699 -0.833008 5 -2.5s2 -3.83398 2 -6.50098v-73c0 -4.66699 -2.33301 -8.33398 -7 -11.001
l-278 -127c-4 -2 -4 -4 0 -6l278 -127c4.66699 -2 7 -5.66699 7 -11v-72c0 -3.33301 -1.16699 -5.83301 -3.5 -7.5z" />
    <glyph glyph-name="equal" unicode="=" horiz-adv-x="440" 
d="M29 396v54c0 6.66699 3.33301 10 10 10h362c6.66699 0 10 -3.33301 10 -10v-54c0 -6.66699 -3.33301 -10 -10 -10h-362c-6.66699 0 -10 3.33301 -10 10zM29 199v54c0 6.66699 3.33301 10 10 10h362c6.66699 0 10 -3.33301 10 -10v-54c0 -6.66699 -3.33301 -10 -10 -10
h-362c-6.66699 0 -10 3.33301 -10 10z" />
    <glyph glyph-name="greater" unicode="&#x3e;" horiz-adv-x="440" 
d="M36 58c-2 0 -3.66602 0.831055 -4.99902 2.49805s-2 3.83398 -2 6.50098v72c0 5.33301 2.33301 9 7 11l278 127c4 2 4 4 0 6l-278 127c-4.66699 2.66699 -7 6.33398 -7 11.001v73c0 3.33301 1.16699 5.83301 3.5 7.5s5.16602 1.5 8.49902 -0.5l363 -174
c4.66699 -2.66699 7 -6.66699 7 -12v-69c0 -5.33301 -2.33301 -9.33301 -7 -12l-363 -174z" />
    <glyph glyph-name="question" unicode="?" horiz-adv-x="394" 
d="M135 218v49.998c0 30 6 54.667 18 74s29.667 40 53 62c21.333 20 37.5 38.5 48.5 55.5s16.5 38.5 16.5 64.5c0 30 -6.66699 53.833 -20 71.5s-31 26.5 -53 26.5c-24 0 -43 -9.16699 -57 -27.5s-21 -42.5 -21 -72.5v-26c0 -6.66699 -3.33301 -10 -10 -10l-76 4
c-6.66699 0 -10 3.33301 -10 10v22c0 56 16.167 101.167 48.5 135.5s74.833 51.5 127.5 51.5c50.667 0 91.334 -16.5 122.001 -49.5s46 -77.167 46 -132.5c0 -29.333 -4 -54.666 -12 -75.999s-17.5 -38.666 -28.5 -51.999s-25.167 -28.333 -42.5 -45
c-18.667 -17.333 -32.334 -32.333 -41.001 -45s-13 -28 -13 -46v-45c0 -6.66699 -3.33301 -10 -10 -10h-76c-6.66699 0 -10 3.33301 -10 10zM138 18.998c-12 12 -18 27.333 -18 46s6 34 18 46s27.333 18 46 18s34 -6 46 -18s18 -27.333 18 -46s-6.16699 -34 -18.5 -46
s-27.5 -18 -45.5 -18c-18.667 0 -34 6 -46 18z" />
    <glyph glyph-name="at" unicode="@" horiz-adv-x="759" 
d="M575 594.5c44.667 -23.667 79.332 -57.166 103.999 -100.499s37 -93.333 37 -150c0 -16.667 -1 -34 -3 -52c-8.66699 -64 -29.334 -113.833 -62.001 -149.5s-73.334 -53.5 -122.001 -53.5c-42 0 -74 13.667 -96 41c-2 2 -4 2 -6 0
c-9.33301 -14.667 -21.333 -25.334 -36 -32.001s-29.667 -10 -45 -10c-32 0 -58 9 -78 27s-30 43 -30 75c0 11.333 1.66699 28 5 50l4 36c0 -2 3 20.333 9 67c6 35.333 18.5 62.833 37.5 82.5s44.833 29.5 77.5 29.5c9.33301 0 19.333 -2 30 -6s20.334 -10 29.001 -18
c0.666992 -1.33301 1.66699 -1.83301 3 -1.5s2 1.16602 2 2.49902l1 8c0.666992 6 4 9 10 9h47c3.33301 0 6 -1.16699 8 -3.5s2.66699 -4.83301 2 -7.5l-25 -195c-0.666992 -4 -1 -10 -1 -18c0 -23.333 5.66699 -41.166 17 -53.499s26.666 -18.5 45.999 -18.5
c26.667 0 49 12.667 67 38s29.667 59.333 35 102c2 16 3 31.333 3 46c0 46 -9.66699 86.333 -29 121s-46.5 61.334 -81.5 80.001s-75.5 28 -121.5 28c-49.333 0 -95.5 -12.667 -138.5 -38s-78.667 -60.833 -107 -106.5s-46.166 -97.167 -53.499 -154.5
c-2 -16 -3 -31.667 -3 -47c0 -50 10 -93.167 30 -129.5s46.833 -63.833 80.5 -82.5s70.5 -28 110.5 -28c30 0 57.333 4 82 12s45.334 18.333 62.001 31l4 3c0.666992 0.666992 1.66699 1 3 1c4 0 7 -1.66699 9 -5l23 -36c1.33301 -2.66699 2 -4.66699 2 -6
c0 -3.33301 -1.66699 -6 -5 -8c-23.333 -16.667 -51.5 -30.167 -84.5 -40.5s-68.5 -15.5 -106.5 -15.5c-53.333 0 -101 12 -143 36s-75 58.5 -99 103.5s-36 97.5 -36 157.5c0 12 1.33301 31.333 4 58c8.66699 68.667 30.834 130.167 66.501 184.5s80.5 96.666 134.5 126.999
s111.667 45.5 173 45.5c58 0 109.333 -11.833 154 -35.5zM386.498 161.501c10.333 10.333 17.166 24.167 20.499 41.5l2 12v4c0 6 0.333008 10.333 1 13l15 115v4c-1.33301 14 -5.83301 25.167 -13.5 33.5s-17.834 12.5 -30.501 12.5c-14.667 0 -27.5 -5.33301 -38.5 -16
s-17.5 -24.667 -19.5 -42l-3 -21c-3.33301 -25.333 -5.33301 -41 -6 -47l-8 -68c-1.33301 -18 1.83398 -32 9.50098 -42s18.834 -15 33.501 -15s27.167 5.16699 37.5 15.5z" />
    <glyph glyph-name="A" unicode="A" horiz-adv-x="436" 
d="M325 9l-22 115c0 1.33301 -0.5 2.33301 -1.5 3s-2.16699 1 -3.5 1h-163c-1.33301 0 -2.5 -0.333008 -3.5 -1s-1.5 -1.66699 -1.5 -3l-21 -115c-0.666992 -6 -4.33398 -9 -11.001 -9h-76c-3.33301 0 -5.83301 1 -7.5 3s-2.16699 4.66699 -1.5 8l149 680
c1.33301 6 5 9 11 9h89c6.66699 0 10.334 -3 11.001 -9l150 -680v-2c0 -6 -3 -9 -9 -9h-78c-6 0 -9.66699 3 -11 9zM150 204h133.002c2 0 3 1.33301 3 4l-68 355c-0.666992 1.33301 -1.33398 2 -2.00098 2s-1.33398 -0.666992 -2.00098 -2l-67 -355c0 -2.66699 1 -4 3 -4z
" />
    <glyph glyph-name="B" unicode="B" horiz-adv-x="456" 
d="M374.5 50c-34.333 -33.333 -79.501 -49.999 -135.501 -49.999h-167c-6.66699 0 -10 3.33301 -10 10v680c0 6.66699 3.33301 10 10 10h153c60.667 0 108.167 -15.833 142.5 -47.5s51.5 -77.834 51.5 -138.501c0 -72 -25.667 -121.667 -77 -149
c-3.33301 -2 -3.66602 -3.66699 -0.999023 -5c26.667 -16 47.5 -38.333 62.5 -67s22.5 -62.667 22.5 -102c0 -60.667 -17.167 -107.667 -51.5 -141zM157.999 613.001v-212c0 -2.66699 1.33301 -4 4 -4h64c31.333 0 55.666 9.5 72.999 28.5s26 45.5 26 79.5
c0 35.333 -8.66699 62.833 -26 82.5s-41.666 29.5 -72.999 29.5h-64c-2.66699 0 -4 -1.33301 -4 -4zM303.499 115.001c17.667 20.667 26.499 49.999 26.499 87.999c0 38.667 -8.66699 68.834 -26 90.501s-41.333 32.5 -72 32.5h-70c-2.66699 0 -4 -1.33301 -4 -4v-234
c0 -2.66699 1.33301 -4 4 -4h69c30.667 0 54.834 10.333 72.501 31z" />
    <glyph glyph-name="C" unicode="C" horiz-adv-x="452" 
d="M97.5 41.5c-33 33 -49.5 76.833 -49.5 131.5v355c0 54.667 16.5 98.334 49.5 131.001s76.5 49 130.5 49c54.667 0 98.5 -16.333 131.5 -49s49.5 -76.334 49.5 -131.001v-16c0 -6.66699 -3.33301 -10 -10 -10l-76 -4c-6.66699 0 -10 3.33301 -10 10v26
c0 27.333 -7.83301 49.333 -23.5 66s-36.167 25 -61.5 25s-45.666 -8.33301 -60.999 -25s-23 -38.667 -23 -66v-368c0 -27.333 7.66699 -49.333 23 -66s35.666 -25 60.999 -25s45.833 8.33301 61.5 25s23.5 38.667 23.5 66v26c0 6.66699 3.33301 10 10 10l76 -4
c6.66699 0 10 -3.33301 10 -10v-15c0 -54.667 -16.5 -98.5 -49.5 -131.5s-76.833 -49.5 -131.5 -49.5c-54 0 -97.5 16.5 -130.5 49.5z" />
    <glyph glyph-name="D" unicode="D" horiz-adv-x="469" 
d="M62 10v680c0 6.66699 3.33301 10 10 10h164c55.333 0 99.333 -17 132 -51s49 -80 49 -138v-322c0 -58 -16.333 -104 -49 -138s-76.667 -51 -132 -51h-164c-6.66699 -0 -10 3.33301 -10 10zM162 83l73.001 1c25.333 0 45.666 9.83301 60.999 29.5s23.333 46.5 24 80.5v312
c0 34 -7.66699 61 -23 81s-36 30 -62 30h-73c-2.66699 0 -4 -1.33301 -4 -4v-526c0 -2.66699 1.33301 -4 4 -4z" />
    <glyph glyph-name="E" unicode="E" 
d="M387 617h-225c-2.66699 0 -4 -1.33301 -4 -4v-217c0 -2.66699 1.33301 -4 4 -4h138c6.66699 0 10 -3.33301 10 -10v-63c0 -6.66699 -3.33301 -10 -10 -10h-138c-2.66699 0 -4 -1.33301 -4 -4v-218c0 -2.66699 1.33301 -4 4 -4h225c6.66699 0 10 -3.33301 10 -10v-63
c0 -6.66699 -3.33301 -10 -10 -10h-315c-6.66699 -0 -10 3.33301 -10 10v680c0 6.66699 3.33301 10 10 10h315c6.66699 0 10 -3.33301 10 -10v-63c0 -6.66699 -3.33301 -10 -10 -10z" />
    <glyph glyph-name="F" unicode="F" horiz-adv-x="410" 
d="M386 617h-224c-2.66699 0 -4 -1.33301 -4 -4v-217c0 -2.66699 1.33301 -4 4 -4h137c6.66699 0 10 -3.33301 10 -10v-63c0 -6.66699 -3.33301 -10 -10 -10h-137c-2.66699 0 -4 -1.33301 -4 -4v-295c0 -6.66699 -3.33301 -10 -10 -10h-76c-6.66699 -0 -10 3.33301 -10 10
v680c0 6.66699 3.33301 10 10 10h314c6.66699 0 10 -3.33301 10 -10v-63c0 -6.66699 -3.33301 -10 -10 -10z" />
    <glyph glyph-name="G" unicode="G" horiz-adv-x="457" 
d="M97.5 40c-33 32 -49.5 74.333 -49.5 127v366c0 52.667 16.5 95 49.5 127s76.5 48 130.5 48s97.667 -16 131 -48s50 -74.667 50 -128v-42c0 -6.66699 -3.33301 -10 -10 -10h-76c-6.66699 0 -10 3.33301 -10 10v44c0 27.333 -7.83301 49.333 -23.5 66s-36.167 25 -61.5 25
s-45.833 -8.33301 -61.5 -25s-23.5 -38.667 -23.5 -66v-368c0 -27.333 7.83301 -49.333 23.5 -66s36.167 -25 61.5 -25s45.833 8.33301 61.5 25s23.5 38.667 23.5 66v110c0 2.66699 -1.33301 4 -4 4h-76c-6.66699 0 -10 3.33301 -10 10v62c0 6.66699 3.33301 10 10 10h166
c6.66699 0 10 -3.33301 10 -10v-185c0 -52.667 -16.667 -95 -50 -127s-77 -48 -131 -48s-97.5 16 -130.5 48z" />
    <glyph glyph-name="H" unicode="H" horiz-adv-x="475" 
d="M327 700h76c6.66699 0 10 -3.33301 10 -10v-680c0 -6.66699 -3.33301 -10 -10 -10h-76c-6.66699 -0 -10 3.33301 -10 10v295c0 2.66699 -1.33301 4 -4 4h-151c-2.66699 0 -4 -1.33301 -4 -4v-295c0 -6.66699 -3.33301 -10 -10 -10h-76c-6.66699 -0 -10 3.33301 -10 10
v680c0 6.66699 3.33301 10 10 10h76c6.66699 0 10 -3.33301 10 -10v-294c0 -2.66699 1.33301 -4 4 -4h151c2.66699 0 4 1.33301 4 4v294c0 6.66699 3.33301 10 10 10z" />
    <glyph glyph-name="I" unicode="I" horiz-adv-x="220" 
d="M62 10v680c0 6.66699 3.33301 10 10 10h76c6.66699 0 10 -3.33301 10 -10v-680c0 -6.66699 -3.33301 -10 -10 -10h-76c-6.66699 -0 -10 3.33301 -10 10z" />
    <glyph glyph-name="J" unicode="J" horiz-adv-x="435" 
d="M67.5 40.5c-32.333 32.333 -48.502 74.833 -48.502 127.5v79c0 6.66699 3.33301 10 10 10h76c6.66699 0 10 -3.33301 10 -10v-81c0 -26.667 7.5 -48.5 22.5 -65.5s34.5 -25.5 58.5 -25.5s43.5 8.5 58.5 25.5s22.5 38.833 22.5 65.5v524c0 6.66699 3.33301 10 10 10h76
c6.66699 0 10 -3.33301 10 -10v-522c0 -52.667 -16.167 -95.167 -48.5 -127.5s-75.166 -48.5 -128.499 -48.5s-96.166 16.167 -128.499 48.5z" />
    <glyph glyph-name="K" unicode="K" horiz-adv-x="466" 
d="M62 10l0.000976562 680.001c0 6.66699 3.33301 10 10 10h76c6.66699 0 10 -3.33301 10 -10v-300c0 -2 0.666992 -3.16699 2 -3.5s2.33301 0.5 3 2.5l170 304c3.33301 4.66699 7.33301 7 12 7h82c4 0 6.66699 -1.16699 8 -3.5s1 -5.16602 -1 -8.49902l-154 -278
c-0.666992 -2 -0.666992 -4 0 -6l167 -392l1 -4c0 -5.33301 -3 -8 -9 -8h-83c-5.33301 0 -9 2.66699 -11 8l-130 312c-0.666992 3.33301 -2.33398 3.66602 -5.00098 0.999023l-51 -81c-0.666992 -0.666992 -1 -2.33398 -1 -5.00098v-225c0 -6.66699 -3.33301 -10 -10 -10
h-76c-6.66699 -0 -10 3.33301 -10 10z" />
    <glyph glyph-name="L" unicode="L" horiz-adv-x="407" 
d="M62 10v680c0 6.66699 3.33301 10 10 10h76c6.66699 0 10 -3.33301 10 -10v-603c0 -2.66699 1.33301 -4 4 -4h224c6.66699 0 10 -3.33301 10 -10v-63c0 -6.66699 -3.33301 -10 -10 -10h-314c-6.66699 -0 -10 3.33301 -10 10z" />
    <glyph glyph-name="M" unicode="M" horiz-adv-x="530" 
d="M385 700h76c6.66699 0 10 -3.33301 10 -10v-680c0 -6.66699 -3.33301 -10 -10 -10h-76c-6.66699 -0 -10 3.33301 -10 10v496c0 2 -0.5 3 -1.5 3s-2.16699 -0.666992 -3.5 -2l-96 -179c-2 -4.66699 -5 -7 -9 -7s-7 2.33301 -9 7l-95 178c-1.33301 1.33301 -2.5 2 -3.5 2
s-1.5 -1 -1.5 -3v-495c0 -6.66699 -3.33301 -10 -10 -10h-76c-6.66699 -0 -10 3.33301 -10 10v680c0 6.66699 3.33301 10 10 10h76c4.66699 0 8.66699 -2.33301 12 -7l105 -188c0.666992 -0.666992 1.66699 -1 3 -1s2.33301 0.333008 3 1l104 188
c2.66699 4.66699 6.66699 7 12 7z" />
    <glyph glyph-name="N" unicode="N" horiz-adv-x="501" 
d="M354 700l75 -0.000976562c6.66699 0 10 -3.33301 10 -10v-680c0 -6.66699 -3.33301 -10 -10 -10h-86c-5.33301 0 -9 2.66699 -11 8l-170 457c-0.666992 1.33301 -1.66699 1.83301 -3 1.5s-2 -1.16602 -2 -2.49902l1 -454c0 -6.66699 -3.33301 -10 -10 -10h-76
c-6.66699 -0 -10 3.33301 -10 10v680c0 6.66699 3.33301 10 10 10h85c5.33301 0 9 -2.66699 11 -8l171 -457c0.666992 -2 1.66699 -2.83301 3 -2.5s2 1.5 2 3.5v454c0 6.66699 3.33301 10 10 10z" />
    <glyph glyph-name="O" unicode="O" horiz-adv-x="462" 
d="M98 42c-33.333 33.333 -50 77.666 -50 132.999v349c0 55.333 16.667 99.833 50 133.5s77.333 50.5 132 50.5c55.333 0 99.833 -16.833 133.5 -50.5s50.5 -78.167 50.5 -133.5v-349c0 -55.333 -16.833 -99.666 -50.5 -132.999s-78.167 -50 -133.5 -50
c-54.667 0 -98.667 16.667 -132 50zM294 101.5c16 17.667 24 40.834 24 69.501v358c0 28.667 -8 51.834 -24 69.501s-37.333 26.5 -64 26.5c-26 0 -46.833 -8.83301 -62.5 -26.5s-23.5 -40.834 -23.5 -69.501v-358c0 -28.667 7.83301 -51.834 23.5 -69.501
s36.5 -26.5 62.5 -26.5c26.667 0 48 8.83301 64 26.5z" />
    <glyph glyph-name="P" unicode="P" horiz-adv-x="451" 
d="M374.5 645.5c31.667 -37 47.5 -85.5 47.5 -145.5c0 -58.667 -15.333 -106 -46 -142s-71 -54 -121 -54h-94c-2.66699 0 -4 -1.33301 -4 -4v-290c0 -6.66699 -3.33301 -10 -10 -10h-76c-6.66699 -0 -10 3.33301 -10 10v681c0 6.66699 3.33301 10 10 10h179
c51.333 0 92.833 -18.5 124.5 -55.5zM301 412.5c16.667 21 25 49.499 25 85.499c0 36.667 -8.33301 65.834 -25 87.501s-38.667 32.5 -66 32.5h-74c-2.66699 0 -4 -1.33301 -4 -4v-229c0 -2.66699 1.33301 -4 4 -4h74c27.333 0 49.333 10.5 66 31.5z" />
    <glyph glyph-name="Q" unicode="Q" horiz-adv-x="450" 
d="M353 656c32.667 -34.667 48.999 -80 48.999 -136v-340c0 -46 -11.333 -85.167 -34 -117.5s-53.334 -53.5 -92.001 -63.5c-2 -1.33301 -3 -3 -3 -5v-93c0 -6.66699 -3.33301 -10 -10 -10h-77c-6.66699 0 -10 3.33301 -10 10v93c0 2 -1 3.66699 -3 5
c-38.667 10.667 -69.167 32 -91.5 64s-33.5 71 -33.5 117v340c0 56 16.333 101.333 49 136s75.334 52 128.001 52s95.334 -17.333 128.001 -52zM305.999 530c0 28 -7.5 50.833 -22.5 68.5s-34.5 26.5 -58.5 26.5s-43.5 -8.83301 -58.5 -26.5s-22.5 -40.5 -22.5 -68.5v-360
c0 -28 7.5 -50.833 22.5 -68.5s34.5 -26.5 58.5 -26.5s43.5 8.83301 58.5 26.5s22.5 40.5 22.5 68.5v360z" />
    <glyph glyph-name="R" unicode="R" horiz-adv-x="453" 
d="M328 8l-92 298c-0.666992 2 -2 3 -4 3h-70c-2.66699 0 -4 -1.33301 -4 -4v-295c0 -6.66699 -3.33301 -10 -10 -10h-76c-6.66699 -0 -10 3.33301 -10 10v680c0 6.66699 3.33301 10 10 10h179c34 0 64 -8.33301 90 -25s46.167 -40.167 60.5 -70.5s21.5 -64.833 21.5 -103.5
c0 -42 -8.66699 -78.5 -26 -109.5s-41 -53.5 -71 -67.5c-2 -2 -2.66699 -4 -2 -6l102 -307l1 -4c0 -4.66699 -3 -7 -9 -7h-78c-6 0 -10 2.66699 -12 8zM158 613v-224c0 -2.66699 1.33301 -4 4 -4h74c27.333 0 49.333 10.5 66 31.5s25 48.833 25 83.5
c0 36 -8.33301 64.5 -25 85.5s-38.667 31.5 -66 31.5h-74c-2.66699 0 -4 -1.33301 -4 -4z" />
    <glyph glyph-name="S" unicode="S" horiz-adv-x="426" 
d="M86.5 41.5c-32.333 33 -48.498 76.1631 -48.498 129.496v26c0 6.66699 3.33301 10 10 10h74c6.66699 0 10 -3.33301 10 -10v-21c0 -30.667 7.66699 -55.167 23 -73.5s35 -27.5 59 -27.5s43.833 8.83301 59.5 26.5s23.5 40.834 23.5 69.501
c0 19.333 -4.16699 36.333 -12.5 51s-19.333 27.834 -33 39.501s-35.834 28.834 -66.501 51.501c-34 25.333 -60.667 47 -80 65s-35.666 39.667 -48.999 65s-20 55 -20 89c0 54 16 96.833 48 128.5s73.667 47.5 125 47.5c53.333 0 96.166 -17 128.499 -51
s48.5 -78.667 48.5 -134v-25c0 -6.66699 -3.33301 -10 -10 -10h-74c-6.66699 0 -10 3.33301 -10 10v27c0 30 -7.66699 54.167 -23 72.5s-35.333 27.5 -60 27.5c-23.333 0 -42.333 -8.16699 -57 -24.5s-22 -39.166 -22 -68.499c0 -26.667 7.33301 -49.167 22 -67.5
s43 -42.833 85 -73.5c40 -30 70.167 -54.333 90.5 -73s36 -39.167 47 -61.5s16.5 -48.833 16.5 -79.5c0 -56 -16.333 -100.833 -49 -134.5s-75.334 -50.5 -128.001 -50.5s-95.167 16.5 -127.5 49.5z" />
    <glyph glyph-name="T" unicode="T" horiz-adv-x="439" 
d="M409 690v-63c0 -6.66699 -3.33301 -10 -10 -10h-131c-2.66699 0 -4 -1.33301 -4 -4v-603c0 -6.66699 -3.33301 -10 -10 -10h-76c-6.66699 -0 -10 3.33301 -10 10v603c0 2.66699 -1.33301 4 -4 4h-124c-6.66699 0 -10 3.33301 -10 10v63c0 6.66699 3.33301 10 10 10h359
c6.66699 0 10 -3.33301 10 -10z" />
    <glyph glyph-name="U" unicode="U" horiz-adv-x="477" 
d="M106.5 46.5c-33 36.333 -49.5 84.166 -49.5 143.499v500c0 6.66699 3.33301 10 10 10h76c6.66699 0 10 -3.33301 10 -10v-510c0 -31.333 7.83301 -56.666 23.5 -75.999s36.167 -29 61.5 -29c26 0 46.833 9.66699 62.5 29s23.5 44.666 23.5 75.999v510
c0 6.66699 3.33301 10 10 10h76c6.66699 0 10 -3.33301 10 -10v-500c0 -59.333 -16.667 -107.166 -50 -143.499s-77.333 -54.5 -132 -54.5s-98.5 18.167 -131.5 54.5z" />
    <glyph glyph-name="V" unicode="V" horiz-adv-x="457" 
d="M175 9l-144.002 680v2c0 6 3 9 9 9h83c6.66699 0 10.334 -3 11.001 -9l95 -519c0.666992 -1.33301 1.33398 -2 2.00098 -2s1.33398 0.666992 2.00098 2l93 519c1.33301 6 5 9 11 9h80c7.33301 0 10.333 -3.66699 9 -11l-144 -680c-0.666992 -6 -4.33398 -9 -11.001 -9
h-85c-6 0 -9.66699 3 -11 9z" />
    <glyph glyph-name="W" unicode="W" horiz-adv-x="646" 
d="M159 9l-133.004 680v2c0 6 3 9 9 9h79c6.66699 0 10.334 -3 11.001 -9l81 -469c0.666992 -1.33301 1.33398 -2 2.00098 -2s1.33398 0.666992 2.00098 2l72 469c0.666992 6 4 9 10 9h67c6 0 9.33301 -3 10 -9l77 -469c0.666992 -1.33301 1.33398 -2 2.00098 -2
s1.33398 0.666992 2.00098 2l74 469c1.33301 6 4.66602 9 9.99902 9h78c3.33301 0 5.83301 -1 7.5 -3s2.16699 -4.66699 1.5 -8l-126 -680c-0.666992 -6 -4.33398 -9 -11.001 -9h-71c-5.33301 0 -8.66602 3 -9.99902 9l-76 473c-0.666992 1.33301 -1.5 2 -2.5 2
s-1.5 -0.666992 -1.5 -2l-72 -473c-0.666992 -6 -4 -9 -10 -9h-71c-6 0 -9.66699 3 -11 9z" />
    <glyph glyph-name="X" unicode="X" horiz-adv-x="449" 
d="M34.5 3.5c-1.66699 2.33301 -1.83398 5.16602 -0.500977 8.49902l139 335c1.33301 2 1.33301 4 0 6l-139 335l-1 4c0 5.33301 3 8 9 8h78c5.33301 0 9 -2.66699 11 -8l91 -241c0.666992 -2 1.66699 -3 3 -3s2.33301 1 3 3l90 241c2 5.33301 5.66699 8 11 8h78
c3.33301 0 5.83301 -1.16699 7.5 -3.5s1.83398 -5.16602 0.500977 -8.49902l-139 -336c-0.666992 -2 -0.666992 -4 0 -6l139 -334l1 -4c0 -5.33301 -3 -8 -9 -8h-77c-5.33301 0 -9 2.66699 -11 8l-91 240c-0.666992 2 -1.66699 3 -3 3s-2.33301 -1 -3 -3l-91 -240
c-2 -5.33301 -5.66699 -8 -11 -8h-78c-3.33301 0 -5.83301 1.16699 -7.5 3.5z" />
    <glyph glyph-name="Y" unicode="Y" horiz-adv-x="442" 
d="M173 11v286l-1 5l-139 387l-1 4c0 4.66699 3 7 9 7h80c6 0 10 -2.66699 12 -8l85 -276c0.666992 -1.33301 1.66699 -2 3 -2s2.33301 0.666992 3 2l85 276c2 5.33301 6 8 12 8h80c7.33301 0 10 -3.66699 8 -11l-139 -387l-1 -5v-286c0 -6.66699 -3.33301 -10 -10 -10h-76
c-6.66699 0 -10 3.33301 -10 10z" />
    <glyph glyph-name="Z" unicode="Z" horiz-adv-x="401" 
d="M29 10v67c0 3.33301 1 7.33301 3 12l232 523c0.666992 1.33301 0.666992 2.5 0 3.5s-1.66699 1.5 -3 1.5h-222c-6.66699 0 -10 3.33301 -10 10v63c0 6.66699 3.33301 10 10 10h319c6.66699 0 10 -3.33301 10 -10v-67c0 -2.66699 -1 -6.66699 -3 -12l-233 -523
c-0.666992 -1.33301 -0.666992 -2.5 0 -3.5s1.66699 -1.5 3 -1.5h223c6.66699 0 10 -3.33301 10 -10v-63c0 -6.66699 -3.33301 -10 -10 -10h-319c-6.66699 -0 -10 3.33301 -10 10z" />
    <glyph glyph-name="bracketleft" unicode="[" horiz-adv-x="318" 
d="M27 -120v894c0 6.66699 3.33301 10 10 10h174c6.66699 0 10 -3.33301 10 -10v-64c0 -6.66699 -3.33301 -10 -10 -10h-84c-2.66699 0 -4 -1.33301 -4 -4v-739c0 -2.66699 1.33301 -4 4 -4h85c6.66699 0 10 -3.33301 10 -10v-63c0 -6.66699 -3.33301 -10 -10 -10h-175
c-6.66699 0 -10 3.33301 -10 10z" />
    <glyph glyph-name="backslash" unicode="\" horiz-adv-x="363" 
d="M342 8c0 -5.33301 -3.33301 -8 -10 -8h-75c-5.33301 0 -9 2.66699 -11 8l-195 681l-1 3c0 5.33301 3.33301 8 10 8h75c5.33301 0 9 -2.66699 11 -8l195 -681z" />
    <glyph glyph-name="bracketright" unicode="]" horiz-adv-x="318" 
d="M281 -130h-175c-6.66699 0 -10 3.33301 -10 10v63c0 6.66699 3.33301 10 10 10h85c2.66699 0 4 1.33301 4 4v739c0 2.66699 -1.33301 4 -4 4h-84c-6.66699 0 -10 3.33301 -10 10v64c0 6.66699 3.33301 10 10 10h174c6.66699 0 10 -3.33301 10 -10v-894
c0 -6.66699 -3.33301 -10 -10 -10z" />
    <glyph glyph-name="asciicircum" unicode="^" horiz-adv-x="406" 
d="M33 315l125 377c2 5.33301 6 8 12 8h64c6 0 10 -2.66699 12 -8l127 -377l1 -4c0 -4.66699 -3 -7 -9 -7h-62c-6 0 -10 2.66699 -12 8l-85 278c-0.666992 1.33301 -1.66699 2 -3 2s-2.33301 -0.666992 -3 -2l-86 -278c-2 -5.33301 -6 -8 -12 -8h-61
c-7.33301 0 -10 3.66699 -8 11z" />
    <glyph glyph-name="underscore" unicode="_" horiz-adv-x="392" 
d="M19 10v55c0 6.66699 3.33301 10 10 10h334c6.66699 0 10 -3.33301 10 -10v-55c0 -6.66699 -3.33301 -10 -10 -10h-334c-6.66699 -0 -10 3.33301 -10 10z" />
    <glyph glyph-name="grave" unicode="`" horiz-adv-x="194" 
d="M171 579c0 -4 -3 -6 -9 -6h-49c-5.33301 0 -9.33301 2 -12 6l-74 109l-2 5c0 4.66699 3 7 9 7h61c4.66699 0 8.66699 -2.33301 12 -7l62 -108c1.33301 -2.66699 2 -4.66699 2 -6z" />
    <glyph glyph-name="a" unicode="a" horiz-adv-x="425" 
d="M335.5 471c31 -30.667 46.498 -71.002 46.498 -121.002v-340c0 -6.66699 -3.33301 -10 -10 -10h-76c-6.66699 0 -10 3.33301 -10 10v22c0 1.33301 -0.5 2.33301 -1.5 3s-2.16699 0.333984 -3.5 -0.999023c-23.333 -28 -57.666 -42 -102.999 -42
c-38 0 -71.5 10.833 -100.5 32.5s-43.5 60.167 -43.5 115.5c0 58 17.5 100.5 52.5 127.5s80.833 40.5 137.5 40.5h58c2.66699 0 4 1.33301 4 4v29c0 28 -6.66699 50.5 -20 67.5s-30.666 25.5 -51.999 25.5c-16.667 0 -30.667 -5.66699 -42 -17s-18 -26 -20 -44
c0 -6.66699 -3.33301 -10 -10 -10h-81c-6.66699 0 -10 3.33301 -10 10c3.33301 42.667 20.333 77.334 51 104.001s68.667 40 114 40c48.667 0 88.5 -15.333 119.5 -46zM259.998 97.998c17.333 14.667 26.001 35.332 26.001 61.999v68c0 2.66699 -1.33301 4 -4 4h-61
c-26.667 0 -48 -7.16699 -64 -21.5s-24 -35.166 -24 -62.499c0 -24 6 -42 18 -54s28 -18 48 -18c23.333 0 43.666 7.33301 60.999 22z" />
    <glyph glyph-name="b" unicode="b" horiz-adv-x="431" 
d="M349 474.5c25.333 -28.333 38.002 -67.167 38.002 -116.5v-208c0 -47.333 -12.833 -85.5 -38.5 -114.5s-60.167 -43.5 -103.5 -43.5c-16 0 -32.167 3 -48.5 9s-30.833 15 -43.5 27c-1.33301 1.33301 -2.5 1.66602 -3.5 0.999023s-1.5 -1.66699 -1.5 -3v-16
c0 -6.66699 -3.33301 -10 -10 -10h-76c-6.66699 0 -10 3.33301 -10 10v680c0 6.66699 3.33301 10 10 10h76c6.66699 0 10 -3.33301 10 -10v-208c0 -1.33301 0.666992 -2.16602 2 -2.49902s2.66602 0.5 3.99902 2.5c25.333 23.333 55.666 35 90.999 35
c44 0 78.667 -14.167 104 -42.5zM271.502 410.999c-13.667 15.333 -31.167 23 -52.5 23c-20.667 0 -37.667 -7.66699 -51 -23s-20 -35 -20 -59v-195c0 -24 6.66699 -43.667 20 -59s30.333 -23 51 -23c21.333 0 38.833 7.66699 52.5 23s20.5 35 20.5 59v195
c0 24 -6.83301 43.667 -20.5 59z" />
    <glyph glyph-name="c" unicode="c" horiz-adv-x="413" 
d="M88.5 35c-30.333 28.667 -45.501 67.334 -45.501 116.001v207c0 47.333 15.167 85.666 45.5 114.999s71.166 44 122.499 44c34 0 63.833 -6.5 89.5 -19.5s45.334 -30.667 59.001 -53s20.5 -47.5 20.5 -75.5v-13c0 -6.66699 -3.33301 -10 -10 -10l-76 -3
c-6.66699 0 -10 3.33301 -10 10v10c0 19.333 -7 36 -21 50s-31.333 21 -52 21c-21.333 0 -38.666 -7.66699 -51.999 -23s-20 -35 -20 -59v-195c0 -24 6.66699 -43.667 20 -59s30.666 -23 51.999 -23c20.667 0 38 7 52 21s21 30.667 21 50v10c0 6.66699 3.33301 10 10 10
l76 -1c6.66699 0 10 -3.33301 10 -10v-15c0 -43.333 -15.333 -78.833 -46 -106.5s-71.667 -41.5 -123 -41.5s-92.166 14.333 -122.499 43z" />
    <glyph glyph-name="d" unicode="d" horiz-adv-x="431" 
d="M292 700l76 -0.000976562c6.66699 0 10 -3.33301 10 -10v-680c0 -6.66699 -3.33301 -10 -10 -10h-76c-6.66699 0 -10 3.33301 -10 10v16c0 1.33301 -0.5 2.33301 -1.5 3s-2.16699 0.333984 -3.5 -0.999023c-12.667 -12 -27 -21 -43 -27s-32 -9 -48 -9
c-44 0 -78.833 14.5 -104.5 43.5s-38.5 67.167 -38.5 114.5v208c0 49.333 12.833 88.166 38.5 116.499s60.5 42.5 104.5 42.5c16 0 32 -3 48 -9s30.333 -15 43 -27c1.33301 -1.33301 2.5 -1.66602 3.5 -0.999023s1.5 1.66699 1.5 3v207c0 6.66699 3.33301 10 10 10z
M258.5 93.499c13 12.333 20.833 28.5 23.5 48.5v225c-2.66699 20 -10.5 36.167 -23.5 48.5s-28.833 18.5 -47.5 18.5c-21.333 0 -38.833 -7.66699 -52.5 -23s-20.5 -35 -20.5 -59v-195c0 -24 6.83301 -43.667 20.5 -59s31.167 -23 52.5 -23c18.667 0 34.5 6.16699 47.5 18.5
z" />
    <glyph glyph-name="e" unicode="e" horiz-adv-x="417" 
d="M369 215l-226 -0.000976562c-2.66699 0 -4 -1.33301 -4 -4v-54c0 -24 6.66699 -43.667 20 -59s30.666 -23 51.999 -23c18.667 0 34.334 5.66699 47.001 17s20.667 26 24 44c2 5.33301 5.66699 8 11 8l74 -4c3.33301 0 5.83301 -1 7.5 -3s2.16699 -4.33301 1.5 -7
c-4.66699 -43.333 -21.167 -77.166 -49.5 -101.499s-66.833 -36.5 -115.5 -36.5c-51.333 0 -92.166 14.333 -122.499 43s-45.5 67 -45.5 115v208c0 47.333 15.167 85.666 45.5 114.999s71.166 44 122.499 44c52 0 93 -14.667 123 -44s45 -67.666 45 -114.999v-133
c0 -6.66699 -3.33301 -10 -10 -10zM159 410.999c-13.333 -15.333 -20.001 -35 -20.001 -59v-53c0 -2.66699 1.33301 -4 4 -4h137c2.66699 0 4 1.33301 4 4v53c0 24 -6.66699 43.667 -20 59s-31 23 -53 23c-21.333 0 -38.666 -7.66699 -51.999 -23z" />
    <glyph glyph-name="f" unicode="f" horiz-adv-x="285" 
d="M171 513c0 -2.66699 1.33301 -4 4 -4h70c6.66699 0 10 -3.33301 10 -10v-50c0 -6.66699 -3.33301 -10 -10 -10h-70c-2.66699 0 -4 -1.33301 -4 -4v-425c0 -6.66699 -3.33301 -10 -10 -10h-75c-6.66699 -0 -10 3.33301 -10 10v425c0 2.66699 -1.33301 4 -4 4h-37
c-6.66699 0 -10 3.33301 -10 10v50c0 6.66699 3.33301 10 10 10h37c2.66699 0 4 1.33301 4 4v26c0 59.333 12.333 101.833 37 127.5s64.667 38.5 120 38.5h13c6.66699 0 10 -3.33301 10 -10l-2 -61c0 -6.66699 -3.33301 -10 -10 -10h-10c-22 0 -38 -7.16699 -48 -21.5
s-15 -36.5 -15 -66.5v-23z" />
    <glyph glyph-name="g" unicode="g" horiz-adv-x="423" 
d="M292 509h76.001c6.66699 0 10 -3.33301 10 -10v-484c0 -70 -16 -124.167 -48 -162.5s-87 -57.5 -165 -57.5l-27 1c-6.66699 0.666992 -10 4.33398 -10 11.001v64c0 6.66699 3.66699 10 11 10c54.667 -2 92.167 8.83301 112.5 32.5s30.5 60.5 30.5 110.5v21
c0 1.33301 -0.5 2.16602 -1.5 2.49902s-2.16699 -0.166992 -3.5 -1.5c-22.667 -30.667 -55 -46 -97 -46c-44 0 -77.833 14.167 -101.5 42.5s-35.5 66.833 -35.5 115.5v200c0 49.333 12 88.166 36 116.499s57.667 42.5 101 42.5s75.666 -15.333 96.999 -46
c1.33301 -1.33301 2.5 -1.66602 3.5 -0.999023s1.5 1.66699 1.5 3v26c0 6.66699 3.33301 10 10 10zM262.501 105.5c13 15 19.5 34.5 19.5 58.5v188c0 24 -6.5 43.667 -19.5 59s-30.167 23 -51.5 23s-38.666 -7.66699 -51.999 -23s-20 -35 -20 -59v-188
c0 -24 6.66699 -43.5 20 -58.5s30.666 -22.5 51.999 -22.5s38.5 7.5 51.5 22.5z" />
    <glyph glyph-name="h" unicode="h" 
d="M351.5 473.5c22.333 -28.333 33.5 -68.501 33.5 -120.501v-343c0 -6.66699 -3.33301 -10 -10 -10h-76c-6.66699 0 -10 3.33301 -10 10v335c0 28 -6 49.667 -18 65s-28.667 23 -50 23c-22 0 -39.167 -7.5 -51.5 -22.5s-19.166 -36.167 -20.499 -63.5
c0 -4 -0.333008 -6 -1 -6v-331c0 -6.66699 -3.33301 -10 -10 -10h-76c-6.66699 0 -10 3.33301 -10 10v680c0 6.66699 3.33301 10 10 10h76c6.66699 0 10 -3.33301 10 -10v-218c0 -1.33301 0.666992 -2.16602 2 -2.49902s2.66602 0.5 3.99902 2.5c24 29.333 57.667 44 101 44
c42 0 74.167 -14.167 96.5 -42.5z" />
    <glyph glyph-name="i" unicode="i" horiz-adv-x="212" 
d="M59 607c-12 12 -18 27.333 -18 46s6 34 18 46s27.333 18 46 18c19.333 0 34.833 -5.83301 46.5 -17.5s17.5 -27.167 17.5 -46.5c0 -18.667 -6 -34 -18 -46s-27.333 -18 -46 -18s-34 6 -46 18zM58 10v489c0 6.66699 3.33301 10 10 10h76c6.66699 0 10 -3.33301 10 -10
v-489c0 -6.66699 -3.33301 -10 -10 -10h-76c-6.66699 -0 -10 3.33301 -10 10z" />
    <glyph glyph-name="j" unicode="j" horiz-adv-x="206" 
d="M54 607c-12 12 -18 27.333 -18 46s6 34 18 46s27.333 18 46 18c19.333 0 35 -6 47 -18s18 -27.333 18 -46s-6.16699 -34 -18.5 -46s-27.833 -18 -46.5 -18s-34 6 -46 18zM-39 -197l-0.000976562 63c0 6.66699 3.33301 10 10 10c54 0.666992 81 32.667 81 96v527
c0 6.66699 3.33301 10 10 10h76c6.66699 0 10 -3.33301 10 -10v-527c0 -41.333 -4.16699 -74.5 -12.5 -99.5s-25.166 -44.5 -50.499 -58.5s-62.333 -21 -111 -21c-8.66699 0 -13 3.33301 -13 10z" />
    <glyph glyph-name="k" unicode="k" horiz-adv-x="421" 
d="M52 10v679.999c0 6.66699 3.33301 10 10 10h76c6.66699 0 10 -3.33301 10 -10v-379c0 -2 0.666992 -3.33301 2 -4s2.33301 0 3 2l129 194c3.33301 4 7.33301 6 12 6h78c4 0 6.66699 -1.16699 8 -3.5s1 -5.16602 -1 -8.49902l-103 -152c-2 -2 -2.33301 -4 -1 -6l120 -328
l1 -4c0 -4.66699 -3 -7 -9 -7h-79c-6 0 -10 2.66699 -12 8l-80 251c-0.666992 4 -2.66699 4.33301 -6 1l-60 -87c-1.33301 -1.33301 -2 -3 -2 -5v-158c0 -6.66699 -3.33301 -10 -10 -10h-76c-6.66699 -0 -10 3.33301 -10 10z" />
    <glyph glyph-name="l" unicode="l" horiz-adv-x="191" 
d="M48 10v680c0 6.66699 3.33301 10 10 10h76c6.66699 0 10 -3.33301 10 -10v-680c0 -6.66699 -3.33301 -10 -10 -10h-76c-6.66699 -0 -10 3.33301 -10 10z" />
    <glyph glyph-name="m" unicode="m" horiz-adv-x="657" 
d="M575.5 471.5c22.333 -29.667 33.5029 -71.1641 33.5029 -124.497v-337c0 -6.66699 -3.33301 -10 -10 -10h-75c-6.66699 0 -10 3.33301 -10 10v330c0 29.333 -6 52.166 -18 68.499s-28 24.5 -48 24.5c-21.333 0 -38.333 -8.16699 -51 -24.5s-19 -38.833 -19 -67.5v-331
c0 -6.66699 -3.33301 -10 -10 -10h-75c-6.66699 0 -10 3.33301 -10 10v330c0 29.333 -6 52.166 -18 68.499s-28 24.5 -48 24.5c-21.333 0 -38.333 -8.16699 -51 -24.5s-19 -38.833 -19 -67.5v-331c0 -6.66699 -3.33301 -10 -10 -10h-75c-6.66699 0 -10 3.33301 -10 10v489
c0 6.66699 3.33301 10 10 10h75c6.66699 0 10 -3.33301 10 -10v-25c0 -1.33301 0.5 -2.33301 1.5 -3s2.16699 -0.333984 3.5 0.999023c13.333 14.667 28.666 25.667 45.999 33s34.666 11 51.999 11c50.667 0 87 -22.333 109 -67c0.666992 -1.33301 1.66699 -1.83301 3 -1.5
s2.33301 1.83301 3 4.5c13.333 22.667 30.333 39 51 49s42 15 64 15c41.333 0 73.166 -14.833 95.499 -44.5z" />
    <glyph glyph-name="n" unicode="n" 
d="M351.5 473.5c22.333 -28.333 33.5 -68.501 33.5 -120.501v-343c0 -6.66699 -3.33301 -10 -10 -10h-76c-6.66699 0 -10 3.33301 -10 10v335c0 28 -6 49.667 -18 65s-28.667 23 -50 23c-22 0 -39.167 -7.5 -51.5 -22.5s-19.166 -36.167 -20.499 -63.5
c0 -4 -0.333008 -6 -1 -6v-331c0 -6.66699 -3.33301 -10 -10 -10h-76c-6.66699 0 -10 3.33301 -10 10v489c0 6.66699 3.33301 10 10 10h76c6.66699 0 10 -3.33301 10 -10v-27c0 -1.33301 0.666992 -2.16602 2 -2.49902s2.66602 0.5 3.99902 2.5c24 29.333 57.667 44 101 44
c42 0 74.167 -14.167 96.5 -42.5z" />
    <glyph glyph-name="o" unicode="o" horiz-adv-x="424" 
d="M88.5 35.5c-30.333 29 -45.5 67.5 -45.5 115.5v207c0 47.333 15.333 85.666 46 114.999s71.667 44 123 44c52 0 93.333 -14.667 124 -44s46 -67.666 46 -114.999v-207c0 -48 -15.333 -86.5 -46 -115.5s-72 -43.5 -124 -43.5s-93.167 14.5 -123.5 43.5zM265 98.5
c14 15 21 34.833 21 59.5v194c0 24 -7 43.667 -21 59s-31.667 23 -53 23s-38.833 -7.66699 -52.5 -23s-20.5 -35 -20.5 -59v-194c0 -24.667 6.83301 -44.5 20.5 -59.5s31.167 -22.5 52.5 -22.5s39 7.5 53 22.5z" />
    <glyph glyph-name="p" unicode="p" horiz-adv-x="435" 
d="M353.5 473.5c25.667 -29 38.501 -67.1689 38.501 -114.502v-208c0 -49.333 -12.833 -88.166 -38.5 -116.499s-60.167 -42.5 -103.5 -42.5c-16 0 -32.167 3 -48.5 9s-30.833 15.333 -43.5 28c-3.33301 2 -5 1.33301 -5 -2v-208c0 -6.66699 -3.33301 -10 -10 -10h-76
c-6.66699 0 -10 3.33301 -10 10v680c0 6.66699 3.33301 10 10 10h76c6.66699 0 10 -3.33301 10 -10v-16c0 -1.33301 0.666992 -2.16602 2 -2.49902s2.66602 0.166992 3.99902 1.5c12.667 12 27 20.833 43 26.5s32 8.5 48 8.5c43.333 0 77.833 -14.5 103.5 -43.5z
M276.501 410.998c-13.667 15.333 -31.167 23 -52.5 23c-20.667 0 -37.667 -7.66699 -51 -23s-20 -35 -20 -59v-195c0 -24 6.66699 -43.667 20 -59s30.333 -23 51 -23c21.333 0 38.833 7.66699 52.5 23s20.5 35 20.5 59v195c0 24 -6.83301 43.667 -20.5 59z" />
    <glyph glyph-name="q" unicode="q" horiz-adv-x="435" 
d="M292 509l76 -0.000976562c6.66699 0 10 -3.33301 10 -10v-680c0 -6.66699 -3.33301 -10 -10 -10h-76c-6.66699 0 -10 3.33301 -10 10v207c0 1.33301 -0.5 2.33301 -1.5 3s-2.16699 0.333984 -3.5 -0.999023c-12.667 -12 -27 -21 -43 -27s-32 -9 -48 -9
c-44 0 -78.833 14.167 -104.5 42.5s-38.5 67.166 -38.5 116.499v208c0 47.333 12.833 85.5 38.5 114.5s60.5 43.5 104.5 43.5c16 0 32 -3 48 -9s30.333 -15 43 -27c1.33301 -1.33301 2.5 -1.66602 3.5 -0.999023s1.5 1.66699 1.5 3v16c0 6.66699 3.33301 10 10 10z
M258.5 93.499c13 12.333 20.833 28.5 23.5 48.5v225c-2.66699 20 -10.5 36.167 -23.5 48.5s-28.833 18.5 -47.5 18.5c-21.333 0 -38.833 -7.66699 -52.5 -23s-20.5 -35 -20.5 -59v-195c0 -24 6.83301 -43.667 20.5 -59s31.167 -23 52.5 -23c18.667 0 34.5 6.16699 47.5 18.5
z" />
    <glyph glyph-name="r" unicode="r" horiz-adv-x="304" 
d="M288 503c4.66699 -2.66699 6.33398 -7 5.00098 -13l-15 -76c-0.666992 -6 -4.66699 -8 -12 -6c-8.66699 3.33301 -18 5 -28 5c-4 0 -10 -0.666992 -18 -2c-20.667 -2 -37.834 -13.333 -51.501 -34s-20.5 -45.667 -20.5 -75v-292c0 -6.66699 -3.33301 -10 -10 -10h-76
c-6.66699 -0 -10 3.33301 -10 10v489c0 6.66699 3.33301 10 10 10h76c6.66699 0 10 -3.33301 10 -10v-58c0 -2 0.5 -3.16699 1.5 -3.5s1.83301 0.5 2.5 2.5c19.333 49.333 50.333 74 93 74c16.667 0 31 -3.66699 43 -11z" />
    <glyph glyph-name="s" unicode="s" horiz-adv-x="387" 
d="M78.5 30.5c-29 24.333 -43.4971 57.168 -43.4971 98.501v9c0 6.66699 3.33301 10 10 10h71c6.66699 0 10 -3.33301 10 -10v-7c0 -18 7 -33.167 21 -45.5s31.333 -18.5 52 -18.5c20 0 36.167 6 48.5 18s18.5 27.333 18.5 46c0 14.667 -4.33301 27 -13 37
s-18.834 17.833 -30.501 23.5s-29.5 13.5 -53.5 23.5c-26 11.333 -47.5 22.333 -64.5 33s-32.167 26 -45.5 46s-20 45.333 -20 76c0 45.333 14.167 80.666 42.5 105.999s66.5 38 114.5 38c49.333 0 88.166 -13 116.499 -39s42.5 -61.333 42.5 -106v-3
c0 -6.66699 -3.33301 -10 -10 -10h-69c-6.66699 0 -10 3.33301 -10 10v7c0 18 -6.33301 33.333 -19 46s-29 19 -49 19c-20.667 0 -37 -6.33301 -49 -19s-18 -28 -18 -46c0 -14 4 -25.667 12 -35s17.667 -16.833 29 -22.5s29.333 -13.834 54 -24.501
c27.333 -12 50 -23.5 68 -34.5s33.833 -26.5 47.5 -46.5s20.5 -45 20.5 -75c0 -43.333 -14.833 -77.666 -44.5 -102.999s-69.834 -38 -120.501 -38c-50 0 -89.5 12.167 -118.5 36.5z" />
    <glyph glyph-name="t" unicode="t" horiz-adv-x="275" 
d="M241 439l-69.999 -0.00195312c-2.66699 0 -4 -1.33301 -4 -4v-281c0 -26.667 4.66699 -45.167 14 -55.5s24 -15.166 44 -14.499h9c6.66699 0 10 -3.33301 10 -10v-64c0 -6.66699 -3.33301 -10 -10 -10h-31c-42.667 0 -74.834 8.33301 -96.501 25
s-32.5 48.334 -32.5 95.001v315c0 2.66699 -1.33301 4 -4 4h-39c-6.66699 0 -10 3.33301 -10 10v50c0 6.66699 3.33301 10 10 10h39c2.66699 0 4 1.33301 4 4v113c0 6.66699 3.33301 10 10 10h73c6.66699 0 10 -3.33301 10 -10v-113c0 -2.66699 1.33301 -4 4 -4h70
c6.66699 0 10 -3.33301 10 -10v-50c0 -6.66699 -3.33301 -10 -10 -10z" />
    <glyph glyph-name="u" unicode="u" 
d="M293 509h76c6.66699 0 10 -3.33301 10 -10v-489c0 -6.66699 -3.33301 -10 -10 -10h-76c-6.66699 -0 -10 3.33301 -10 10v29c0 2 -0.5 3 -1.5 3s-2.16699 -0.666992 -3.5 -2c-20 -31.333 -52 -47 -96 -47c-40 0 -72.333 12.167 -97 36.5s-37 61.5 -37 111.5v358
c0 6.66699 3.33301 10 10 10h76c6.66699 0 10 -3.33301 10 -10v-337c0 -57.333 22.667 -86 68 -86c22.667 0 40.167 8.16699 52.5 24.5s18.5 38.833 18.5 67.5v331c0 6.66699 3.33301 10 10 10z" />
    <glyph glyph-name="v" unicode="v" horiz-adv-x="399" 
d="M145 9l-123.003 489l-1 4c0 4.66699 3 7 9 7h85c6.66699 0 10.334 -3 11.001 -9l72 -343c0.666992 -2 1.33398 -3 2.00098 -3s1.33398 1 2.00098 3l71 343c1.33301 6 5 9 11 9l85 -1c3.33301 0 5.83301 -1 7.5 -3s1.83398 -4.66699 0.500977 -8l-122 -488
c-0.666992 -6 -4.33398 -9 -11.001 -9h-88c-6 0 -9.66699 3 -11 9z" />
    <glyph glyph-name="w" unicode="w" horiz-adv-x="575" 
d="M128 9l-107.002 489v2c0 6 3 9 9 9h73c6.66699 0 10.334 -3 11.001 -9l62 -345c0.666992 -1.33301 1.33398 -2 2.00098 -2s1.33398 0.666992 2.00098 2l63 345c1.33301 6 5 9 11 9h66c6.66699 0 10.334 -3 11.001 -9l65 -345c0.666992 -1.33301 1.33398 -2 2.00098 -2
s1.33398 0.666992 2.00098 2l63 345c1.33301 6 5 9 11 9l72 -1c3.33301 0 5.83301 -1 7.5 -3s2.16699 -4.66699 1.5 -8l-108 -488c-0.666992 -6 -4.33398 -9 -11.001 -9h-75c-6 0 -9.66699 3 -11 9l-63 328c-0.666992 1.33301 -1.33398 2 -2.00098 2
s-1.33398 -0.666992 -2.00098 -2l-61 -328c-0.666992 -6 -4.33398 -9 -11.001 -9h-72c-6 0 -9.66699 3 -11 9z" />
    <glyph glyph-name="x" unicode="x" horiz-adv-x="398" 
d="M20 3.5c-1.33301 2.33301 -1.33301 5.16602 0 8.49902l121 239c1.33301 2 1.33301 4 0 6l-121 240c-0.666992 1.33301 -1 3 -1 5c0 4.66699 2.66699 7 8 7h84c6 0 10 -2.33301 12 -7l73 -156c0.666992 -1.33301 1.66699 -2 3 -2s2.33301 0.666992 3 2l74 156
c2 4.66699 6 7 12 7h83c3.33301 0 5.66602 -1.16699 6.99902 -3.5s1.33301 -5.16602 0 -8.49902l-120 -240c-0.666992 -2 -0.666992 -4 0 -6l120 -239c0.666992 -1.33301 1 -3 1 -5c0 -4.66699 -2.66699 -7 -8 -7h-83c-6 -0 -10 2.33301 -12 7l-74 158
c-0.666992 1.33301 -1.66699 2 -3 2s-2.33301 -0.666992 -3 -2l-74 -158c-2 -4.66699 -5.66699 -7 -11 -7h-84c-3.33301 0 -5.66602 1.16699 -6.99902 3.5z" />
    <glyph glyph-name="y" unicode="y" horiz-adv-x="387" 
d="M38 -196c-1.33301 2 -2.00391 4.33203 -2.00391 6.99902v59c0 6.66699 3.33301 10 10 10c21.333 0.666992 38.166 4 50.499 10s22.333 17.333 30 34s14.167 41 19.5 73l-1 5l-128 496l-1 3c0 5.33301 3.33301 8 10 8h82c6.66699 0 10.334 -3 11.001 -9l73 -361
c0.666992 -2 1.33398 -3 2.00098 -3s1.33398 1 2.00098 3l72 361c1.33301 6 5 9 11 9l83 -1c3.33301 0 5.83301 -1 7.5 -3s1.83398 -4.66699 0.500977 -8l-137 -532c-12.667 -46 -25.334 -80.167 -38.001 -102.5s-30.167 -38.166 -52.5 -47.499s-54.166 -14 -95.499 -14h-5
c-1.33301 0 -2.66602 1 -3.99902 3z" />
    <glyph glyph-name="z" unicode="z" horiz-adv-x="365" 
d="M28 10v70c0 4.66699 1 9 3 13l187 323c0.666992 1.33301 0.666992 2.5 0 3.5s-1.66699 1.5 -3 1.5h-173c-6.66699 0 -10 3.33301 -10 10v68c0 6.66699 3.33301 10 10 10h283c6.66699 0 10 -3.33301 10 -10v-71c0 -4.66699 -1 -9 -3 -13l-192 -323
c-0.666992 -1.33301 -0.666992 -2.5 0 -3.5s1.66699 -1.5 3 -1.5h185c6.66699 0 10 -3.33301 10 -10v-67c0 -6.66699 -3.33301 -10 -10 -10h-290c-6.66699 -0 -10 3.33301 -10 10z" />
    <glyph glyph-name="braceleft" unicode="{" horiz-adv-x="298" 
d="M90 -13l-0.000976562 213.001c0 28 -4.5 49.167 -13.5 63.5s-22.5 23.166 -40.5 26.499c-6 1.33301 -9 5 -9 11v57c0 6.66699 3 10.334 9 11.001c36 6 54 35.667 54 89v208c0 78.667 36 118 108 118h64c6.66699 0 10 -3.33301 10 -10v-64
c0 -6.66699 -3.33301 -10 -10 -10h-24c-16.667 0 -29.5 -6 -38.5 -18s-13.5 -29.333 -13.5 -52v-182c0 -30.667 -4.16699 -55.334 -12.5 -74.001s-21.166 -32.667 -38.499 -42c-3.33301 -1.33301 -3.33301 -3 0 -5c34 -18 51 -56.667 51 -116v-187
c0 -22.667 4.5 -40.167 13.5 -52.5s21.833 -18.5 38.5 -18.5h24c6.66699 0 10 -3.33301 10 -10v-63c0 -6.66699 -3.33301 -10 -10 -10h-64c-72 0 -108 39 -108 117z" />
    <glyph glyph-name="bar" unicode="|" horiz-adv-x="159" 
d="M31 -70v820c0 6.66699 3.33301 10 10 10h76c6.66699 0 10 -3.33301 10 -10v-820c0 -6.66699 -3.33301 -10 -10 -10h-76c-6.66699 0 -10 3.33301 -10 10z" />
    <glyph glyph-name="braceright" unicode="}" horiz-adv-x="298" 
d="M37 -130c-6.66699 0 -10 3.33496 -10 10.002v63c0 6.66699 3.33301 10 10 10h23c17.333 0 30.5 6.16699 39.5 18.5s13.5 29.833 13.5 52.5v187c0 30.667 4.16699 55.5 12.5 74.5s21.166 32.833 38.499 41.5c3.33301 2 3.33301 3.66699 0 5
c-17.333 9.33301 -30.166 23.333 -38.499 42s-12.5 43.334 -12.5 74.001v182c0 22.667 -4.5 40 -13.5 52s-22.167 18 -39.5 18h-23c-6.66699 0 -10 3.33301 -10 10v64c0 6.66699 3.33301 10 10 10h63c72.667 0 109 -39.333 109 -118v-208c0 -27.333 4.33301 -48.333 13 -63
s22.334 -23.334 41.001 -26.001c6 -0.666992 9 -4.33398 9 -11.001v-57c0 -6 -3 -9.66699 -9 -11c-18.667 -2.66699 -32.334 -11.334 -41.001 -26.001s-13 -36 -13 -64v-213c0 -78 -36.333 -117 -109 -117h-63z" />
    <glyph glyph-name="asciitilde" unicode="~" horiz-adv-x="471" 
d="M277.5 229c-12.333 5.33301 -27.5 13.3311 -45.5 23.998c-3.33301 2 -9.83301 5.66699 -19.5 11s-18.667 9.33301 -27 12s-16.5 4 -24.5 4c-28 0 -51 -13 -69 -39c-3.33301 -6.66699 -8 -8 -14 -4l-41 25c-5.33301 3.33301 -7 8 -5 14c10.667 26 26.667 47.167 48 63.5
s45.666 24.5 72.999 24.5c15.333 0 29.333 -2.33301 42 -7s25.334 -11 38.001 -19c18.667 -11.333 33.667 -19.666 45 -24.999s24.333 -8 39 -8c12.667 0 23.5 3.33301 32.5 10s17.833 16.334 26.5 29.001c4 5.33301 8.66699 6.33301 14 3l44 -27
c5.33301 -3.33301 6.66602 -7 3.99902 -11l-2 -4c-32 -56 -70 -84 -114 -84c-17.333 0 -32.166 2.66699 -44.499 8z" />
    <glyph glyph-name="uni00A0" unicode="&#xa0;" horiz-adv-x="200" 
 />
    <glyph glyph-name="exclamdown" unicode="&#xa1;" horiz-adv-x="261" 
d="M177 690c12 -12 18 -27.333 18 -46s-6 -34 -18 -46s-27.333 -18 -46 -18s-34 6 -46 18s-18 27.333 -18 46s6 34 18 46s27.333 18 46 18s34 -6 46 -18zM102 478h57c6.66699 0 10 -3.33301 10 -10l10 -447c0 -6.66699 -3.33301 -10 -10 -10h-76
c-6.66699 0 -10 3.33301 -10 10l9 447c0 6.66699 3.33301 10 10 10z" />
    <glyph glyph-name="cent" unicode="&#xa2;" horiz-adv-x="413" 
d="M370 436l-76 -2.99902c-6.66699 0 -10 3.33301 -10 10v10c0 19.333 -7 36 -21 50s-31.333 21 -52 21c-21.333 0 -38.666 -7.66699 -51.999 -23s-20 -35 -20 -59v-195c0 -24 6.66699 -43.667 20 -59s30.666 -23 51.999 -23c20.667 0 38 7 52 21s21 30.667 21 50v10
c0 6.66699 3.33301 10 10 10l76 -1c6.66699 0 10 -3.33301 10 -10v-15c0 -37.333 -11.333 -68.833 -34 -94.5s-53.334 -42.167 -92.001 -49.5c-2.66699 -0.666992 -4 -2.33398 -4 -5.00098l2 -70c0 -6.66699 -3.33301 -10 -10 -10h-62c-6.66699 0 -10 3.33301 -10 10l2 70
c0 2.66699 -1.33301 4.33398 -4 5.00098c-38.667 7.33301 -69.167 24.666 -91.5 51.999s-33.5 61.666 -33.5 102.999v207c0 40 11.167 73.833 33.5 101.5s52.833 45.5 91.5 53.5c2.66699 0.666992 4 2.33398 4 5.00098l-2 70c0 6.66699 3.33301 10 10 10h62
c6.66699 0 10 -3.33301 10 -10l-2 -70c0 -2.66699 1.33301 -4.33398 4 -5.00098c38.667 -7.33301 69.334 -24.166 92.001 -50.499s34 -57.5 34 -93.5v-13c0 -6.66699 -3.33301 -10 -10 -10z" />
    <glyph glyph-name="sterling" unicode="&#xa3;" horiz-adv-x="508" 
d="M200 83h269.001c6.66699 0 10 -3.33301 10 -10v-63c0 -6.66699 -3.33301 -10 -10 -10h-368c-6.66699 -0 -10 3.33301 -10 10v65c0 4.66699 2 9 6 13c11.333 10.667 20.166 25.5 26.499 44.5s9.5 41.167 9.5 66.5v98c0 2.66699 -1.33301 4 -4 4h-57
c-6.66699 0 -10 3.33301 -10 10v58c0 6.66699 3.33301 10 10 10h57c2.66699 0 4 1.33301 4 4v121c0 64 15.667 114 47 150s74 54 128 54c42.667 0 77.667 -12.5 105 -37.5s46.333 -61.5 57 -109.5v-2c0 -4.66699 -2.66699 -7.66699 -8 -9l-72 -10h-2
c-5.33301 0 -8.66602 3 -9.99902 9c-6.66699 26 -15.834 45.167 -27.501 57.5s-26.5 18.5 -44.5 18.5c-26 0 -45.667 -10 -59 -30s-20 -49 -20 -87v-125c0 -2.66699 1.33301 -4 4 -4h141c6.66699 0 10 -3.33301 10 -10v-58c0 -6.66699 -3.33301 -10 -10 -10h-141
c-2.66699 0 -4 -1.33301 -4 -4v-96c0 -24.667 -2.66699 -46.667 -8 -66s-12.333 -35 -21 -47c-2 -3.33301 -1.33301 -5 2 -5z" />
    <glyph glyph-name="currency" unicode="&#xa4;" horiz-adv-x="531" 
d="M436 192c-1.33301 -2 -0.998047 -3.99707 1.00195 -5.99707l66 -66c2 -2 3 -4 3 -6c0 -2.66699 -1.33301 -5.33398 -4 -8.00098l-47 -41c-2 -2 -4 -3 -6 -3c-2.66699 0 -5.33398 1.33301 -8.00098 4l-63 62c-2 2 -4 2.33301 -6 1c-31.333 -21.333 -68 -32 -110 -32
c-40 0 -75.333 9.66699 -106 29c-2 1.33301 -4 1 -6 -1l-60 -59c-4.66699 -4.66699 -9.33398 -5 -14.001 -1l-47 41c-4.66699 5.33301 -5 10 -1 14l62 61c2 2 2.33301 4 1 6c-24 34.667 -36 73 -36 115c0 40 10.667 76.667 32 110c1.33301 2 1 4 -1 6l-65 65c-2 2 -3 4 -3 6
c0 2.66699 1.33301 5.33398 4 8.00098l48 42c2 2 4 3 6 3c2.66699 0 5.33398 -1.33301 8.00098 -4l61 -61c2 -2 4 -2.33301 6 -1c34 21.333 71 32 111 32c42 0 80 -11.667 114 -35c2 -1.33301 4 -1 6 1l65 64c5.33301 5.33301 10 5.66602 14 0.999023l48 -42
c5.33301 -4.66699 5.66602 -9.33398 0.999023 -14.001l-70 -69c-2 -2 -2.33301 -4 -1 -6c20 -32.667 30 -68 30 -106c0 -40.667 -11 -77.334 -33 -110.001zM174.502 215.003c24.333 -24 53.499 -36.001 87.499 -36.001s63 11.833 87 35.5s36.333 52.834 37 87.501
c-0.666992 34 -13.167 63 -37.5 87s-53.166 36 -86.499 36c-34 0 -63.167 -12 -87.5 -36s-36.5 -53 -36.5 -87s12.167 -63 36.5 -87z" />
    <glyph glyph-name="yen" unicode="&#xa5;" horiz-adv-x="526" 
d="M449 689l-125 -345c-0.666992 -1.33301 -0.666992 -2.5 0 -3.5s1.66699 -1.5 3 -1.5h115c6.66699 0 10 -3.33301 10 -10v-36c0 -6.66699 -3.33301 -10 -10 -10h-130c-2.66699 0 -4 -1.33301 -4 -4v-58c0 -2.66699 1.33301 -4 4 -4h130c6.66699 0 10 -3.33301 10 -10v-36
c0 -6.66699 -3.33301 -10 -10 -10h-130c-2.66699 0 -4 -1.33301 -4 -4v-146c0 -6.66699 -3.33301 -10 -10 -10h-76c-6.66699 0 -10 3.33301 -10 10v146c0 2.66699 -1.33301 4 -4 4h-127c-6.66699 0 -10 3.33301 -10 10v36c0 6.66699 3.33301 10 10 10h127
c2.66699 0 4 1.33301 4 4v58c0 2.66699 -1.33301 4 -4 4h-127c-6.66699 0 -10 3.33301 -10 10v36c0 6.66699 3.33301 10 10 10h112c1.33301 0 2.33301 0.5 3 1.5s0.666992 2.16699 0 3.5l-124 345l-1 4c0 4.66699 3 7 9 7h80c6 0 10 -2.66699 12 -8l86 -276
c0.666992 -1.33301 1.66699 -2 3 -2s2.33301 0.666992 3 2l85 276c2 5.33301 6 8 12 8h80c7.33301 0 10 -3.66699 8 -11z" />
    <glyph glyph-name="brokenbar" unicode="&#xa6;" horiz-adv-x="159" 
d="M31 395v355c0 6.66699 3.33301 10 10 10h76c6.66699 0 10 -3.33301 10 -10v-355c0 -6.66699 -3.33301 -10 -10 -10h-76c-6.66699 0 -10 3.33301 -10 10zM31 -70v349c0 6.66699 3.33301 10 10 10h76c6.66699 0 10 -3.33301 10 -10v-349c0 -6.66699 -3.33301 -10 -10 -10
h-76c-6.66699 0 -10 3.33301 -10 10z" />
    <glyph glyph-name="section" unicode="&#xa7;" horiz-adv-x="405" 
d="M86.5 -161c-29.667 29.333 -44.4971 67.9971 -44.4971 115.997v16c0 6.66699 3.33301 10 10 10h76c6.66699 0 10 -3.33301 10 -10v-10c0.666992 -24.667 7 -44.667 19 -60s27.333 -23 46 -23c19.333 0 35.166 7.83301 47.499 23.5s18.5 34.834 18.5 57.501
c0 19.333 -5.33301 36 -16 50s-23.167 25.333 -37.5 34s-32.833 18.667 -55.5 30c-28 13.333 -50.5 26.833 -67.5 40.5s-30.167 31.5 -39.5 53.5c-10 23.333 -15 49.666 -15 78.999c0 34 8.66699 65 26 93c15.333 26 34.666 44 57.999 54c3.33301 1.33301 3.33301 3 0 5
c-25.333 16.667 -45.5 37.5 -60.5 62.5s-22.5 54.167 -22.5 87.5c0 46.667 15 85 45 115s69.333 45 118 45c47.333 0 85.833 -15.167 115.5 -45.5s44.834 -69.833 45.501 -118.5v-13c0 -6.66699 -3.33301 -10 -10 -10h-77c-6.66699 0 -10 3.33301 -10 10v9
c0 24.667 -6 45 -18 61s-27.667 24 -47 24s-35 -8 -47 -24s-18 -36 -18 -60c0 -26.667 7.66699 -48.167 23 -64.5s40 -32.166 74 -47.499c30 -15.333 52.833 -27.833 68.5 -37.5s29.5 -23.167 41.5 -40.5c18 -26 27 -57 27 -93c0 -35.333 -6.66699 -65.666 -20 -90.999
c-14.667 -30.667 -36.334 -51.667 -65.001 -63c-4 -1.33301 -4.33301 -3 -1 -5c25.333 -16 45.166 -35.667 59.499 -59s21.5 -51.666 21.5 -84.999c0 -47.333 -15 -85.833 -45 -115.5s-69 -44.5 -117 -44.5s-86.833 14.667 -116.5 44zM263.003 194.997
c8 17.333 12.002 35.999 12.002 55.999c0 23.333 -6 44 -18 62c-14.667 19.333 -33 29 -55 29c-13.333 0 -24.833 -3.66699 -34.5 -11s-16.834 -16.666 -21.501 -27.999c-7.33301 -14.667 -11 -32.667 -11 -54c0 -20 3.66699 -38.333 11 -55
c11.333 -24.667 30.666 -37 57.999 -37s47 12.667 59 38z" />
    <glyph glyph-name="dieresis" unicode="&#xa8;" horiz-adv-x="328" 
d="M199 607c-12 12 -18 27.333 -18 46s6 34 18 46s27.333 18 46 18s34 -6 46 -18s18 -27.333 18 -46s-6 -34 -18 -46s-27.333 -18 -46 -18s-34 6 -46 18zM37 607c-12 12 -18 27.333 -18 46s6 34 18 46s27.333 18 46 18s34 -6 46 -18s18 -27.333 18 -46s-6 -34 -18 -46
s-27.333 -18 -46 -18s-34 6 -46 18z" />
    <glyph glyph-name="copyright" unicode="&#xa9;" horiz-adv-x="819" 
d="M225 39.5c-55.333 31.667 -98.666 74.834 -129.999 129.501s-47 115.334 -47 182.001s15.667 127.167 47 181.5s74.666 97.166 129.999 128.499s116.666 47 183.999 47c68 0 129.5 -15.667 184.5 -47s98.333 -74.166 130 -128.499s47.5 -114.833 47.5 -181.5
s-15.833 -127.334 -47.5 -182.001s-75 -97.834 -130 -129.501s-116.5 -47.5 -184.5 -47.5c-67.333 0 -128.666 15.833 -183.999 47.5zM564.5 88c46.333 26.667 82.666 63.167 108.999 109.5s39.5 97.5 39.5 153.5s-13.167 107 -39.5 153s-62.666 82.167 -108.999 108.5
s-98.166 39.5 -155.499 39.5s-109.166 -13.167 -155.499 -39.5s-82.666 -62.5 -108.999 -108.5s-39.5 -97 -39.5 -153s13.167 -107.167 39.5 -153.5s62.666 -82.833 108.999 -109.5s98.166 -40 155.499 -40s109.166 13.333 155.499 40zM344 204
c-16.667 15.333 -25 36.333 -25 63v162c0 26 8.16699 46.667 24.5 62s38.5 23 66.5 23s50.333 -7.66699 67 -23s25 -36 25 -62v-4c0 -6.66699 -3.33301 -10 -10 -10l-34 -2c-6.66699 0 -10 3.33301 -10 10v10c0 10 -3.5 18.333 -10.5 25s-16.167 10 -27.5 10
c-10.667 0 -19.5 -3.33301 -26.5 -10s-10.5 -15 -10.5 -25v-170c0 -10.667 3.33301 -19.167 10 -25.5s15.667 -9.5 27 -9.5s20.5 3.16699 27.5 9.5s10.5 14.833 10.5 25.5v10c0 6.66699 3.33301 10 10 10l34 -2c6.66699 0 10 -3.33301 10 -10v-4
c0 -26 -8.33301 -46.833 -25 -62.5s-39 -23.5 -67 -23.5c-27.333 0 -49.333 7.66699 -66 23z" />
    <glyph glyph-name="ordfeminine" unicode="&#xaa;" horiz-adv-x="281" 
d="M179 564c2.66699 0 4.00098 1.33203 4.00098 3.99902v24c0 18.667 -4 33.334 -12 44.001s-19.333 16 -34 16c-10.667 0 -20.167 -3.16699 -28.5 -9.5s-13.833 -14.5 -16.5 -24.5c-0.666992 -6 -4.33398 -9 -11.001 -9l-45 2c-3.33301 0 -5.83301 1 -7.5 3
s-2.16699 4.66699 -1.5 8c2.66699 25.333 14.167 46 34.5 62s45.166 24 74.499 24c34.667 0 62.167 -9.83301 82.5 -29.5s30.5 -46.167 30.5 -79.5v-222c0 -6.66699 -3.33301 -10 -10 -10h-46c-6.66699 0 -10 3.33301 -10 10v8c0 1.33301 -0.5 2.33301 -1.5 3
s-2.16699 0.333984 -3.5 -0.999023c-14 -16.667 -34.667 -25 -62 -25c-26 0 -48.833 7.16699 -68.5 21.5s-29.5 40.166 -29.5 77.499c0 38 10.833 64.667 32.5 80s51.834 23 90.501 23h38zM167.001 428.999c10.667 9.33301 15.999 22.332 15.999 38.999v40
c0 2.66699 -1.33301 4 -4 4h-38c-17.333 0 -31.166 -4.5 -41.499 -13.5s-15.5 -21.833 -15.5 -38.5c0 -15.333 4 -26.666 12 -33.999s18.667 -11 32 -11c15.333 0 28.333 4.66699 39 14zM28 317.998h221c6.66699 0 10 -3.33301 10 -10v-37c0 -6.66699 -3.33301 -10 -10 -10
h-221c-6.66699 0 -10 3.33301 -10 10v37c0 6.66699 3.33301 10 10 10z" />
    <glyph glyph-name="guillemotleft" unicode="&#xab;" horiz-adv-x="467" 
d="M247 113c0 -4 -3 -6.00098 -9 -6.00098h-70c-4.66699 0 -8.66699 2.33301 -12 7l-96 160c-1.33301 2 -2 4.33301 -2 7s0.666992 5 2 7l96 160c3.33301 4.66699 7.33301 7 12 7h70c4 0 6.66699 -1.16699 8 -3.5s1 -5.16602 -1 -8.49902l-96 -159
c-0.666992 -2 -0.666992 -4 0 -6l96 -159c1.33301 -2.66699 2 -4.66699 2 -6zM401 112.999c0 -4 -3 -6.00098 -9 -6.00098h-71c-4.66699 0 -8.66699 2.33301 -12 7l-95 160c-1.33301 2 -2 4.33301 -2 7s0.666992 5 2 7l95 160c3.33301 4.66699 7.33301 7 12 7h71
c4 0 6.66699 -1.16699 8 -3.5s1 -5.16602 -1 -8.49902l-97 -159c-0.666992 -2 -0.666992 -4 0 -6l97 -159c1.33301 -2.66699 2 -4.66699 2 -6z" />
    <glyph glyph-name="logicalnot" unicode="&#xac;" horiz-adv-x="440" 
d="M411 341v-58v-6l-1 -2v-93c0 -6.66699 -3.33301 -10 -10 -10h-54c-6.66699 0 -10 3.33301 -10 10v91c0 2.66699 -1.33301 4 -4 4h-293c-6.66699 0 -10 3.33301 -10 10v54c0 6.66699 3.33301 10 10 10h362c6.66699 0 10 -3.33301 10 -10z" />
    <glyph glyph-name="uni00AD" unicode="&#xad;" horiz-adv-x="320" 
d="M29 274v63c0 6.66699 3.33301 10 10 10h242c6.66699 0 10 -3.33301 10 -10v-63c0 -6.66699 -3.33301 -10 -10 -10h-242c-6.66699 0 -10 3.33301 -10 10z" />
    <glyph glyph-name="registered" unicode="&#xae;" horiz-adv-x="436" 
d="M318.5 686.5c30.333 -17 54.333 -40.333 72 -70s26.5 -62.5 26.5 -98.5c0 -37.333 -8.83301 -71.333 -26.5 -102s-41.667 -54.667 -72 -72s-63.833 -26 -100.5 -26s-70.167 8.66699 -100.5 26s-54.333 41.333 -72 72s-26.5 64.667 -26.5 102
c0 36 8.83301 68.833 26.5 98.5s41.667 53 72 70s63.833 25.5 100.5 25.5s70.167 -8.5 100.5 -25.5zM296 382.5c23.333 13.667 41.833 32.334 55.5 56.001s20.5 50.167 20.5 79.5c0 27.333 -6.83301 52.5 -20.5 75.5s-32.167 41.167 -55.5 54.5s-49.333 20 -78 20
c-28 0 -53.667 -6.66699 -77 -20s-41.833 -31.5 -55.5 -54.5s-20.5 -48.167 -20.5 -75.5c0 -29.333 6.66699 -55.833 20 -79.5s31.833 -42.334 55.5 -56.001s49.5 -20.5 77.5 -20.5c28.667 0 54.667 6.83301 78 20.5zM258 505c-2 -2 -2.66699 -4 -2 -6l25 -62
c0.666992 -1.33301 1 -3 1 -5c0 -4.66699 -2.66699 -7 -8 -7h-19c-6 0 -10 2.66699 -12 8l-23 63c-0.666992 2 -2 3 -4 3h-12c-2.66699 0 -4 -1.33301 -4 -4v-60c0 -6.66699 -3.33301 -10 -10 -10h-16c-6.66699 0 -10 3.33301 -10 10v161c0 6.66699 3.33301 10 10 10h56
c16 0 29 -5.16699 39 -15.5s15 -23.5 15 -39.5c0 -22 -8.66699 -37.333 -26 -46zM200 571v-41.001c0 -2.66699 1.33301 -4 4 -4h20c7.33301 0 13.166 2.33301 17.499 7s6.5 10.334 6.5 17.001c0 8 -2.16699 14.167 -6.5 18.5s-10.166 6.5 -17.499 6.5h-20
c-2.66699 0 -4 -1.33301 -4 -4z" />
    <glyph glyph-name="macron" unicode="&#xaf;" horiz-adv-x="436" 
d="M113 600v48c0 6.66699 3.33301 10 10 10h188c6.66699 0 10 -3.33301 10 -10v-48c0 -6.66699 -3.33301 -10 -10 -10h-188c-6.66699 0 -10 3.33301 -10 10z" />
    <glyph glyph-name="degree" unicode="&#xb0;" horiz-adv-x="358" 
d="M98.5 504.5c-24.333 14.333 -43.666 34 -57.999 59s-21.5 52.5 -21.5 82.5s7.16699 57.333 21.5 82s33.666 44.167 57.999 58.5s51.166 21.5 80.499 21.5s56.166 -7.16699 80.499 -21.5s43.666 -33.833 57.999 -58.5s21.5 -52 21.5 -82s-7.16699 -57.5 -21.5 -82.5
s-33.666 -44.667 -57.999 -59s-51.166 -21.5 -80.499 -21.5s-56.166 7.16699 -80.499 21.5zM246.5 576.5c18.333 19 27.5 42.167 27.5 69.5s-9.16699 50.666 -27.5 69.999s-40.833 29 -67.5 29s-49.167 -9.66699 -67.5 -29s-27.5 -42.666 -27.5 -69.999
s9.16699 -50.5 27.5 -69.5s40.833 -28.5 67.5 -28.5s49.167 9.5 67.5 28.5z" />
    <glyph glyph-name="plusminus" unicode="&#xb1;" horiz-adv-x="440" 
d="M411 391v-54c0 -6.66699 -3.33301 -10 -10 -10h-140c-2.66699 0 -4 -1.33301 -4 -4v-140c0 -6.66699 -3.33301 -10 -10 -10h-54c-6.66699 0 -10 3.33301 -10 10v140c0 2.66699 -1.33301 4 -4 4h-140c-6.66699 0 -10 3.33301 -10 10v54c0 6.66699 3.33301 10 10 10h140
c2.66699 0 4 1.33301 4 4v140c0 6.66699 3.33301 10 10 10h54c6.66699 0 10 -3.33301 10 -10v-140c0 -2.66699 1.33301 -4 4 -4h140c6.66699 0 10 -3.33301 10 -10zM29 32v54c0 6.66699 3.33301 10 10 10h362c6.66699 0 10 -3.33301 10 -10v-54
c0 -6.66699 -3.33301 -10 -10 -10h-362c-6.66699 0 -10 3.33301 -10 10z" />
    <glyph glyph-name="uni00B2" unicode="&#xb2;" horiz-adv-x="252" 
d="M19 443l-0.000976562 38.999c0 5.33301 1.33301 9.66602 4 12.999c48 66.667 83.667 118.334 107 155.001c22.667 38 34 70.333 34 97c0 17.333 -3.66699 30.666 -11 39.999s-17.333 14 -30 14c-11.333 0 -20.666 -4.66699 -27.999 -14s-11 -21.666 -11 -36.999v-21
c0 -6.66699 -3.33301 -10 -10 -10h-46c-6.66699 0 -10 3.33301 -10 10v23c0.666992 32.667 10.667 58.5 30 77.5s45 28.5 77 28.5s57.5 -9.66699 76.5 -29s28.5 -47.666 28.5 -84.999c0 -36 -11.333 -74.667 -34 -116c-14 -24.667 -38.333 -63 -73 -115l-5.5 -8l-7.5 -11
c-0.666992 -1.33301 -0.666992 -2.5 0 -3.5s1.66699 -1.5 3 -1.5h116c6.66699 0 10 -3.33301 10 -10v-36c0 -6.66699 -3.33301 -10 -10 -10h-200c-6.66699 0 -10 3.33301 -10 10z" />
    <glyph glyph-name="uni00B3" unicode="&#xb3;" horiz-adv-x="270" 
d="M240 563c0 -20.667 -1.99414 -38.667 -5.99414 -54c-0.666992 -0.666992 -1 -2 -1 -4c-4 -24 -14.833 -43 -32.5 -57s-39.834 -21 -66.501 -21c-30 0 -54.5 8.83301 -73.5 26.5s-29.833 40.5 -32.5 68.5c-1.33301 13.333 -2 23.666 -2 30.999c0 6.66699 3.33301 10 10 10
h44c6.66699 0 10 -3.33301 10 -10c0 -4 0.666992 -10.667 2 -20c1.33301 -15.333 5.66602 -27.333 12.999 -36s17 -13 29 -13c19.333 0 32.333 11.667 39 35c4 16 6 32.667 6 50c0 18 -1.33301 33.333 -4 46c-5.33301 26.667 -19 40 -41 40
c-2.66699 0 -6.66699 -0.666992 -12 -2l-4 -2c-4.66699 -2 -8.33398 -1.33301 -11.001 2l-22 22c-4 4 -4.33301 8.66699 -1 14l75 103c1.33301 1.33301 1.66602 2.5 0.999023 3.5s-1.66699 1.5 -3 1.5h-116c-6.66699 0 -10 3.33301 -10 10v35c0 6.66699 3.33301 10 10 10
h186c6.66699 0 10 -3.33301 10 -10v-38c0 -5.33301 -1.33301 -9.66602 -4 -12.999l-64 -89c-1.33301 -2 -1 -3.66699 1 -5c17.333 -3.33301 31.666 -12.833 42.999 -28.5s18.666 -34.5 21.999 -56.5c3.33301 -16.667 5 -33 5 -49z" />
    <glyph glyph-name="acute" unicode="&#xb4;" horiz-adv-x="194" 
d="M25 576.5c-1.33301 2.33301 -1 5.16602 1 8.49902l62 108c3.33301 4.66699 7.33301 7 12 7h61c4 0 6.66699 -1.16699 8 -3.5s1 -5.16602 -1 -8.49902l-74 -109c-2.66699 -4 -6.66699 -6 -12 -6h-49c-4 0 -6.66699 1.16699 -8 3.5z" />
    <glyph glyph-name="uni00B5" unicode="&#xb5;" horiz-adv-x="437" 
d="M298 509h76c6.66699 0 10 -3.33301 10 -10v-489c0 -6.66699 -3.33301 -10 -10 -10h-76c-6.66699 -0 -10 3.33301 -10 10v29c0 2 -0.5 3 -1.5 3s-2.16699 -0.666992 -3.5 -2c-20 -31.333 -52 -47 -96 -47c-12 0 -23.667 1 -35 3c-0.666992 0.666992 -1.5 0.5 -2.5 -0.5
s-1.5 -2.16699 -1.5 -3.5v-182c0 -6.66699 -3.33301 -10 -10 -10h-76c-6.66699 0 -10 3.33301 -10 10v689c0 6.66699 3.33301 10 10 10h77c6.66699 0 10 -3.33301 10 -10v-337c0 -57.333 22.667 -86 68 -86c22 0 39.333 8.16699 52 24.5s19 38.833 19 67.5v331
c0 6.66699 3.33301 10 10 10z" />
    <glyph glyph-name="paragraph" unicode="&#xb6;" horiz-adv-x="486" 
d="M414 700c6.66699 0 10.001 -3.33398 10.001 -10.001v-880c0 -6.66699 -3.33301 -10 -10 -10h-61c-6.66699 0 -10 3.33301 -10 10v807c0 2.66699 -1.33301 4 -4 4h-68c-2.66699 0 -4 -1.33301 -4 -4v-807c0 -6.66699 -3.33301 -10 -10 -10h-61
c-6.66699 0 -10 3.33301 -10 10v437c0 2.66699 -1.33301 4.33398 -4 5.00098c-46.667 6.66699 -83.834 30.5 -111.501 71.5s-41.5 91.5 -41.5 151.5c0 42.667 7.33301 81 22 115s35.667 60.833 63 80.5s59 29.5 95 29.5h205z" />
    <glyph glyph-name="periodcentered" unicode="&#xb7;" horiz-adv-x="206" 
d="M57 237c-12 12 -18 27.333 -18 46s6 34 18 46s27.333 18 46 18s34 -6 46 -18s18 -27.333 18 -46s-6 -34 -18 -46s-27.333 -18 -46 -18s-34 6 -46 18z" />
    <glyph glyph-name="cedilla" unicode="&#xb8;" horiz-adv-x="132" 
d="M5 -171l3.99805 30.998c0.666992 2.66699 2 4.83398 4 6.50098s4.66699 2.16699 8 1.5c2 -0.666992 5.33301 -1 10 -1c9.33301 0 17.166 2.66699 23.499 8s10.5 13.333 12.5 24c4 28 -9.66699 57.667 -41 89c-2 2 -3 4.33301 -3 7c0 3.33301 2.66699 5 8 5h42
c4.66699 0 8 -1 10 -3l4 -4c30 -28 45 -60.333 45 -97c0 -10 -0.666992 -17.667 -2 -23c-5.33301 -21.333 -15.166 -36.666 -29.499 -45.999s-31.166 -14 -50.499 -14c-13.333 0 -25.666 1.66699 -36.999 5c-6 1.33301 -8.66699 5 -8 11z" />
    <glyph glyph-name="uni00B9" unicode="&#xb9;" horiz-adv-x="149" 
d="M65 853h48c6.66699 0 10 -3.33301 10 -10v-400c0 -6.66699 -3.33301 -10 -10 -10h-45c-6.66699 0 -10 3.33301 -10 10v346c0 1.33301 -0.5 2.5 -1.5 3.5s-1.83301 1.16699 -2.5 0.5l-25 -6h-2c-6 0 -9 3 -9 9v29c0 6 2.33301 10 7 12l27 13c4 2 8.33301 3 13 3z" />
    <glyph glyph-name="ordmasculine" unicode="&#xba;" horiz-adv-x="285" 
d="M59 389.5c-20 19 -30 44.833 -30 77.5v136c0 31.333 10.167 56.666 30.5 75.999s47.833 29 82.5 29s62.167 -9.66699 82.5 -29s30.5 -44.666 30.5 -75.999v-136c0 -32.667 -10.167 -58.5 -30.5 -77.5s-47.833 -28.5 -82.5 -28.5c-35.333 0 -63 9.5 -83 28.5zM176 432.5
c9.33301 10.333 14 23.166 14 38.499v127c0 15.333 -4.66699 28.166 -14 38.499s-20.666 15.5 -33.999 15.5c-14 0 -25.667 -5.16699 -35 -15.5s-14 -23.166 -14 -38.499v-127c0 -15.333 4.66699 -28.166 14 -38.499s21 -15.5 35 -15.5c13.333 0 24.666 5.16699 33.999 15.5
zM22 271v37c0 6.66699 3.33301 10 10 10h221c6.66699 0 10 -3.33301 10 -10v-37c0 -6.66699 -3.33301 -10 -10 -10h-221c-6.66699 0 -10 3.33301 -10 10z" />
    <glyph glyph-name="guillemotright" unicode="&#xbb;" horiz-adv-x="467" 
d="M68 110.5c-1.33301 2.33301 -1 5.16699 1 8.5l96 159c1.33301 2 1.33301 4 0 6l-96 159c-1.33301 2.66699 -2 4.66699 -2 6c0 4 3 6 9 6h70c4.66699 0 8.66699 -2.33301 12 -7l96 -160c1.33301 -2 2 -4.33301 2 -7s-0.666992 -5 -2 -7l-96 -160
c-3.33301 -4.66699 -7.33301 -7 -12 -7h-70c-4 0 -6.66699 1.16699 -8 3.5zM221 110.501c-1.33301 2.33301 -1 5.16699 1 8.5l96 159c1.33301 2 1.33301 4 0 6l-96 159c-1.33301 2.66699 -2 4.66699 -2 6c0 4 3 6 9 6h70c4.66699 0 8.66699 -2.33301 12 -7l96 -160
c1.33301 -2 2 -4.33301 2 -7s-0.666992 -5 -2 -7l-96 -160c-3.33301 -4.66699 -7.33301 -7 -12 -7h-70c-4 0 -6.66699 1.16699 -8 3.5z" />
    <glyph glyph-name="onequarter" unicode="&#xbc;" horiz-adv-x="682" 
d="M65 700h48c6.66699 0 10 -3.33301 10 -10v-400c0 -6.66699 -3.33301 -10 -10 -10h-45c-6.66699 0 -10 3.33301 -10 10v346c0 1.33301 -0.5 2.5 -1.5 3.5s-1.83301 1.16699 -2.5 0.5l-25 -6h-2c-6 0 -9 3 -9 9v29c0 6 2.33301 10 7 12l27 13c4 2 8.33301 3 13 3zM65 3.5
c-1.33301 2.33301 -1 5.16602 1 8.49902l424 681c3.33301 4.66699 7.33301 7 12 7h49c4 0 6.66699 -1.16699 8 -3.5s1 -5.16602 -1 -8.49902l-424 -681c-3.33301 -4.66699 -7.33301 -7 -12 -7h-49c-4 0 -6.66699 1.16699 -8 3.5zM671 159v-39
c0 -6.66699 -3.33301 -10 -10 -10h-14c-2.66699 0 -4 -1.33301 -4 -4v-96c0 -6.66699 -3.33301 -10 -10 -10h-45c-6.66699 -0 -10 3.33301 -10 10v96c0 2.66699 -1.33301 4 -4 4h-137c-6.66699 0 -10 3.33301 -10 10v33c0 2.66699 0.666992 6.66699 2 12l82 247
c2 5.33301 6 8 12 8h48c7.33301 0 10 -3.66699 8 -11l-76 -235c-0.666992 -1.33301 -0.5 -2.5 0.5 -3.5s2.16699 -1.5 3.5 -1.5h67c2.66699 0 4 1.33301 4 4v71c0 6.66699 3.33301 10 10 10h45c6.66699 0 10 -3.33301 10 -10v-71c0 -2.66699 1.33301 -4 4 -4h14
c6.66699 0 10 -3.33301 10 -10z" />
    <glyph glyph-name="onehalf" unicode="&#xbd;" horiz-adv-x="674" 
d="M65 700h48c6.66699 0 10 -3.33301 10 -10v-400c0 -6.66699 -3.33301 -10 -10 -10h-45c-6.66699 0 -10 3.33301 -10 10v346c0 1.33301 -0.5 2.5 -1.5 3.5s-1.83301 1.16699 -2.5 0.5l-25 -6h-2c-6 0 -9 3 -9 9v29c0 6 2.33301 10 7 12l27 13c4 2 8.33301 3 13 3zM65 3.5
c-1.33301 2.33301 -1 5.16602 1 8.49902l424 681c3.33301 4.66699 7.33301 7 12 7h49c4 0 6.66699 -1.16699 8 -3.5s1 -5.16602 -1 -8.49902l-424 -681c-3.33301 -4.66699 -7.33301 -7 -12 -7h-49c-4 0 -6.66699 1.16699 -8 3.5zM441 10l-0.000976562 38.999
c0 5.33301 1.33301 9.66602 4 12.999c48 66.667 83.667 118.334 107 155.001c22.667 38 34 70.333 34 97c0 17.333 -3.66699 30.666 -11 39.999s-17.333 14 -30 14c-11.333 0 -20.666 -4.66699 -27.999 -14s-11 -21.666 -11 -36.999v-21c0 -6.66699 -3.33301 -10 -10 -10
h-46c-6.66699 0 -10 3.33301 -10 10v23c0.666992 32.667 10.667 58.5 30 77.5s45 28.5 77 28.5s57.5 -9.66699 76.5 -29s28.5 -47.666 28.5 -84.999c0 -36 -11.333 -74.667 -34 -116c-14 -24.667 -38.333 -63 -73 -115l-5.5 -8l-7.5 -11
c-0.666992 -1.33301 -0.666992 -2.5 0 -3.5s1.66699 -1.5 3 -1.5h116c6.66699 0 10 -3.33301 10 -10v-36c0 -6.66699 -3.33301 -10 -10 -10h-200c-6.66699 -0 -10 3.33301 -10 10z" />
    <glyph glyph-name="threequarters" unicode="&#xbe;" horiz-adv-x="754" 
d="M240 409c0 -20.667 -1.99414 -38.667 -5.99414 -54c-0.666992 -0.666992 -1 -2 -1 -4c-4 -24 -14.833 -43 -32.5 -57s-39.834 -21 -66.501 -21c-30 0 -54.5 8.83301 -73.5 26.5s-29.833 40.5 -32.5 68.5c-1.33301 13.333 -2 23.666 -2 30.999c0 6.66699 3.33301 10 10 10
h44c6.66699 0 10 -3.33301 10 -10c0 -4 0.666992 -10.667 2 -20c1.33301 -15.333 5.66602 -27.333 12.999 -36s17 -13 29 -13c19.333 0 32.333 11.667 39 35c4 16 6 32.667 6 50c0 18 -1.33301 33.333 -4 46c-5.33301 26.667 -19 40 -41 40
c-2.66699 0 -6.66699 -0.666992 -12 -2l-4 -2c-4.66699 -2 -8.33398 -1.33301 -11.001 2l-22 22c-4 4 -4.33301 8.66699 -1 14l75 103c1.33301 1.33301 1.66602 2.5 0.999023 3.5s-1.66699 1.5 -3 1.5h-116c-6.66699 0 -10 3.33301 -10 10v35c0 6.66699 3.33301 10 10 10
h186c6.66699 0 10 -3.33301 10 -10v-38c0 -5.33301 -1.33301 -9.66602 -4 -12.999l-64 -89c-1.33301 -2 -1 -3.66699 1 -5c17.333 -3.33301 31.666 -12.833 42.999 -28.5s18.666 -34.5 21.999 -56.5c3.33301 -16.667 5 -33 5 -49zM137.006 3.5
c-1.33301 2.33301 -1 5.16602 1 8.49902l424 681c3.33301 4.66699 7.33301 7 12 7h49c4 0 6.66699 -1.16699 8 -3.5s1 -5.16602 -1 -8.49902l-424 -681c-3.33301 -4.66699 -7.33301 -7 -12 -7h-49c-4 0 -6.66699 1.16699 -8 3.5zM743.006 159v-39
c0 -6.66699 -3.33301 -10 -10 -10h-14c-2.66699 0 -4 -1.33301 -4 -4v-96c0 -6.66699 -3.33301 -10 -10 -10h-45c-6.66699 -0 -10 3.33301 -10 10v96c0 2.66699 -1.33301 4 -4 4h-137c-6.66699 0 -10 3.33301 -10 10v33c0 2.66699 0.666992 6.66699 2 12l82 247
c2 5.33301 6 8 12 8h48c7.33301 0 10 -3.66699 8 -11l-76 -235c-0.666992 -1.33301 -0.5 -2.5 0.5 -3.5s2.16699 -1.5 3.5 -1.5h67c2.66699 0 4 1.33301 4 4v71c0 6.66699 3.33301 10 10 10h45c6.66699 0 10 -3.33301 10 -10v-71c0 -2.66699 1.33301 -4 4 -4h14
c6.66699 0 10 -3.33301 10 -10z" />
    <glyph glyph-name="questiondown" unicode="&#xbf;" horiz-adv-x="394" 
d="M256 481c12 -12 18 -27.333 18 -46s-6 -34 -18 -46s-27.333 -18 -46 -18s-34 6 -46 18s-18 27.333 -18 46s6 34 18 46s27.333 18 46 18s34 -6 46 -18zM259 282l-0.00195312 -49.998c0 -30 -6 -54.667 -18 -74s-29.667 -40 -53 -62c-22 -20 -38.5 -38.5 -49.5 -55.5
s-16.5 -38.5 -16.5 -64.5c0 -30 6.83301 -53.833 20.5 -71.5s31.5 -26.5 53.5 -26.5c24 0 43 9.16699 57 27.5s21 42.5 21 72.5v26c0 6.66699 3.33301 10 10 10l76 -4c6.66699 0 10 -3.33301 10 -10v-22c0 -56 -16.333 -101.167 -49 -135.5s-75 -51.5 -127 -51.5
c-51.333 0 -92.166 16.5 -122.499 49.5s-45.5 77.167 -45.5 132.5c0 29.333 4 54.666 12 75.999s17.5 38.666 28.5 51.999s25.167 28.333 42.5 45c18.667 17.333 32.334 32.333 41.001 45s13 28 13 46v45c0 6.66699 3.33301 10 10 10h76c6.66699 0 10 -3.33301 10 -10z" />
    <glyph glyph-name="Agrave" unicode="&#xc0;" horiz-adv-x="436" 
d="M325 9l-22 115c0 1.33301 -0.5 2.33301 -1.5 3s-2.16699 1 -3.5 1h-163c-1.33301 0 -2.5 -0.333008 -3.5 -1s-1.5 -1.66699 -1.5 -3l-21 -115c-0.666992 -6 -4.33398 -9 -11.001 -9h-76c-3.33301 0 -5.83301 1 -7.5 3s-2.16699 4.66699 -1.5 8l149 680
c1.33301 6 5 9 11 9h89c6.66699 0 10.334 -3 11.001 -9l150 -680v-2c0 -6 -3 -9 -9 -9h-78c-6 0 -9.66699 3 -11 9zM150 204h133.002c2 0 3 1.33301 3 4l-68 355c-0.666992 1.33301 -1.33398 2 -2.00098 2s-1.33398 -0.666992 -2.00098 -2l-67 -355c0 -2.66699 1 -4 3 -4z
M250.002 770c0 -4 -3 -6 -9 -6h-49c-5.33301 0 -9.33301 2 -12 6l-74 109l-2 5c0 4.66699 3 7 9 7h61c4.66699 0 8.66699 -2.33301 12 -7l62 -108c1.33301 -2.66699 2 -4.66699 2 -6z" />
    <glyph glyph-name="Aacute" unicode="&#xc1;" horiz-adv-x="436" 
d="M325 9l-22 115c0 1.33301 -0.5 2.33301 -1.5 3s-2.16699 1 -3.5 1h-163c-1.33301 0 -2.5 -0.333008 -3.5 -1s-1.5 -1.66699 -1.5 -3l-21 -115c-0.666992 -6 -4.33398 -9 -11.001 -9h-76c-3.33301 0 -5.83301 1 -7.5 3s-2.16699 4.66699 -1.5 8l149 680
c1.33301 6 5 9 11 9h89c6.66699 0 10.334 -3 11.001 -9l150 -680v-2c0 -6 -3 -9 -9 -9h-78c-6 0 -9.66699 3 -11 9zM150 204h133.002c2 0 3 1.33301 3 4l-68 355c-0.666992 1.33301 -1.33398 2 -2.00098 2s-1.33398 -0.666992 -2.00098 -2l-67 -355c0 -2.66699 1 -4 3 -4z
M167.002 767.5c-1.33301 2.33301 -1 5.16602 1 8.49902l62 108c3.33301 4.66699 7.33301 7 12 7h61c4 0 6.66699 -1.16699 8 -3.5s1 -5.16602 -1 -8.49902l-74 -109c-2.66699 -4 -6.66699 -6 -12 -6h-49c-4 0 -6.66699 1.16699 -8 3.5z" />
    <glyph glyph-name="Acircumflex" unicode="&#xc2;" horiz-adv-x="436" 
d="M325 9l-22 115c0 1.33301 -0.5 2.33301 -1.5 3s-2.16699 1 -3.5 1h-163c-1.33301 0 -2.5 -0.333008 -3.5 -1s-1.5 -1.66699 -1.5 -3l-21 -115c-0.666992 -6 -4.33398 -9 -11.001 -9h-76c-3.33301 0 -5.83301 1 -7.5 3s-2.16699 4.66699 -1.5 8l149 680
c1.33301 6 5 9 11 9h89c6.66699 0 10.334 -3 11.001 -9l150 -680v-2c0 -6 -3 -9 -9 -9h-78c-6 0 -9.66699 3 -11 9zM150 204h133.002c2 0 3 1.33301 3 4l-68 355c-0.666992 1.33301 -1.33398 2 -2.00098 2s-1.33398 -0.666992 -2.00098 -2l-67 -355c0 -2.66699 1 -4 3 -4z
M94.502 771.5c-1 2.33301 -0.5 5.16699 1.5 8.5l65 104c3.33301 4.66699 7.33301 7 12 7h85c4.66699 0 8.66699 -2.33301 12 -7l68 -104c1.33301 -2.66699 2 -4.66699 2 -6c0 -4 -2.66699 -6 -8 -6h-61c-4.66699 0 -8.66699 2.33301 -12 7l-39 68
c-0.666992 1.33301 -1.66699 2 -3 2s-2.33301 -0.666992 -3 -2l-39 -68c-3.33301 -4.66699 -7.33301 -7 -12 -7h-61c-4 0 -6.5 1.16699 -7.5 3.5z" />
    <glyph glyph-name="Atilde" unicode="&#xc3;" horiz-adv-x="436" 
d="M325 9l-22 115c0 1.33301 -0.5 2.33301 -1.5 3s-2.16699 1 -3.5 1h-163c-1.33301 0 -2.5 -0.333008 -3.5 -1s-1.5 -1.66699 -1.5 -3l-21 -115c-0.666992 -6 -4.33398 -9 -11.001 -9h-76c-3.33301 0 -5.83301 1 -7.5 3s-2.16699 4.66699 -1.5 8l149 680
c1.33301 6 5 9 11 9h89c6.66699 0 10.334 -3 11.001 -9l150 -680v-2c0 -6 -3 -9 -9 -9h-78c-6 0 -9.66699 3 -11 9zM150 204h133.002c2 0 3 1.33301 3 4l-68 355c-0.666992 1.33301 -1.33398 2 -2.00098 2s-1.33398 -0.666992 -2.00098 -2l-67 -355c0 -2.66699 1 -4 3 -4z
M256.502 796c-7.66699 3.33301 -17.498 8.33398 -29.498 15.001c-3.33301 2 -7.83301 5 -13.5 9s-10.667 6.83301 -15 8.5s-9.16602 2.5 -14.499 2.5c-8.66699 0 -16.167 -1.83301 -22.5 -5.5s-12.833 -10.5 -19.5 -20.5c-1.33301 -2.66699 -3.33301 -4.33398 -6 -5.00098
s-5.33398 0 -8.00098 2l-28 20c-4.66699 4 -5.66699 8.33301 -3 13c8.66699 20 20 35 34 45s29.333 15 46 15c10.667 0 20.667 -2 30 -6s19.333 -9.66699 30 -17c2.66699 -1.33301 6.66699 -4 12 -8s10.666 -7 15.999 -9s10.666 -3 15.999 -3c8 0 15.333 1.83301 22 5.5
s13 10.5 19 20.5c2.66699 6 7.33398 7 14.001 3l27 -18c2.66699 -2 4 -5 4 -9c0 -2.66699 -1 -6 -3 -10c-10 -18.667 -22.667 -32.167 -38 -40.5s-30.333 -12.5 -45 -12.5c-8.66699 0 -16.834 1.66699 -24.501 5z" />
    <glyph glyph-name="Adieresis" unicode="&#xc4;" horiz-adv-x="436" 
d="M325 9l-22 115c0 1.33301 -0.5 2.33301 -1.5 3s-2.16699 1 -3.5 1h-163c-1.33301 0 -2.5 -0.333008 -3.5 -1s-1.5 -1.66699 -1.5 -3l-21 -115c-0.666992 -6 -4.33398 -9 -11.001 -9h-76c-3.33301 0 -5.83301 1 -7.5 3s-2.16699 4.66699 -1.5 8l149 680
c1.33301 6 5 9 11 9h89c6.66699 0 10.334 -3 11.001 -9l150 -680v-2c0 -6 -3 -9 -9 -9h-78c-6 0 -9.66699 3 -11 9zM150 204h133.002c2 0 3 1.33301 3 4l-68 355c-0.666992 1.33301 -1.33398 2 -2.00098 2s-1.33398 -0.666992 -2.00098 -2l-67 -355c0 -2.66699 1 -4 3 -4z
M253.002 798c-12 12 -18 27.333 -18 46s6 34 18 46s27.333 18 46 18s34 -6 46 -18s18 -27.333 18 -46s-6 -34 -18 -46s-27.333 -18 -46 -18s-34 6 -46 18zM91.002 798c-12 12 -18 27.333 -18 46s6 34 18 46s27.333 18 46 18s34 -6 46 -18s18 -27.333 18 -46s-6 -34 -18 -46
s-27.333 -18 -46 -18s-34 6 -46 18z" />
    <glyph glyph-name="Aring" unicode="&#xc5;" horiz-adv-x="436" 
d="M325 9l-22 115c0 1.33301 -0.5 2.33301 -1.5 3s-2.16699 1 -3.5 1h-163c-1.33301 0 -2.5 -0.333008 -3.5 -1s-1.5 -1.66699 -1.5 -3l-21 -115c-0.666992 -6 -4.33398 -9 -11.001 -9h-76c-3.33301 0 -5.83301 1 -7.5 3s-2.16699 4.66699 -1.5 8l149 680
c1.33301 6 5 9 11 9h89c6.66699 0 10.334 -3 11.001 -9l150 -680v-2c0 -6 -3 -9 -9 -9h-78c-6 0 -9.66699 3 -11 9zM150 204h133.002c2 0 3 1.33301 3 4l-68 355c-0.666992 1.33301 -1.33398 2 -2.00098 2s-1.33398 -0.666992 -2.00098 -2l-67 -355c0 -2.66699 1 -4 3 -4z
M137.502 797c-21.667 22 -32.5 49 -32.5 81s10.833 58.833 32.5 80.5s48.5 32.5 80.5 32.5c31.333 0 57.833 -10.833 79.5 -32.5s32.5 -48.5 32.5 -80.5s-10.833 -59 -32.5 -81s-48.167 -33 -79.5 -33c-32 0 -58.833 11 -80.5 33zM259.002 835.5
c11.333 11.667 17 25.834 17 42.501s-5.66699 30.834 -17 42.501s-25 17.5 -41 17.5s-29.833 -5.83301 -41.5 -17.5s-17.5 -25.834 -17.5 -42.501s5.83301 -30.834 17.5 -42.501s25.5 -17.5 41.5 -17.5s29.667 5.83301 41 17.5z" />
    <glyph glyph-name="AE" unicode="&#xc6;" horiz-adv-x="719" 
d="M674 617l-225 0.000976562c-2.66699 0 -4 -1.33301 -4 -4v-217c0 -2.66699 1.33301 -4 4 -4h138c6.66699 0 10 -3.33301 10 -10v-63c0 -6.66699 -3.33301 -10 -10 -10h-138c-2.66699 0 -4 -1.33301 -4 -4v-218c0 -2.66699 1.33301 -4 4 -4h225
c6.66699 0 10 -3.33301 10 -10v-63c0 -6.66699 -3.33301 -10 -10 -10h-316c-6.66699 0 -10 3.33301 -10 10v114c0 2.66699 -1.33301 4 -4 4h-177c-1.33301 0 -2.66602 -1 -3.99902 -3l-49 -117c-2 -5.33301 -5.66699 -8 -11 -8h-79c-3.33301 0 -5.83301 1.16699 -7.5 3.5
s-1.83398 5.16602 -0.500977 8.49902l292 680c2 5.33301 5.66699 8 11 8h355c6.66699 0 10 -3.33301 10 -10v-63c0 -6.66699 -3.33301 -10 -10 -10zM198 205.501c0.666992 -1 1.66699 -1.5 3 -1.5h143c2.66699 0 4 1.33301 4 4l1 354c0 2 -0.666992 3 -2 3
s-2.33301 -0.666992 -3 -2l-146 -354c-0.666992 -1.33301 -0.666992 -2.5 0 -3.5z" />
    <glyph glyph-name="Ccedilla" unicode="&#xc7;" horiz-adv-x="452" 
d="M399 502l-76 -3.99902c-6.66699 0 -10 3.33301 -10 10v26c0 27.333 -7.83301 49.333 -23.5 66s-36.167 25 -61.5 25s-45.666 -8.33301 -60.999 -25s-23 -38.667 -23 -66v-368c0 -27.333 7.66699 -49.333 23 -66s35.666 -25 60.999 -25s45.833 8.33301 61.5 25
s23.5 38.667 23.5 66v26c0 6.66699 3.33301 10 10 10l76 -4c6.66699 0 10 -3.33301 10 -10v-15c0 -48 -12.833 -87.833 -38.5 -119.5s-60.5 -51.167 -104.5 -58.5c-3.33301 -1.33301 -4 -3 -2 -5c26.667 -26.667 40 -57.334 40 -92.001
c0 -4.66699 -0.666992 -12.334 -2 -23.001c-5.33301 -21.333 -15.333 -36.666 -30 -45.999s-31.667 -14 -51 -14c-13.333 0 -25.666 1.66699 -36.999 5c-6 2 -8.66699 6 -8 12l5 32c0.666992 6 4.66699 8.33301 12 7c2.66699 -0.666992 6 -1 10 -1
c10.667 0 19.5 3.5 26.5 10.5s10.5 17.5 10.5 31.5c0 26 -15 53 -45 81c-0.666992 1.33301 -2.33398 2 -5.00098 2c-43.333 7.33301 -77.833 26.833 -103.5 58.5s-38.5 71.5 -38.5 119.5v355c0 54.667 16.5 98.334 49.5 131.001s76.5 49 130.5 49
c54.667 0 98.5 -16.333 131.5 -49s49.5 -76.334 49.5 -131.001v-16c0 -6.66699 -3.33301 -10 -10 -10z" />
    <glyph glyph-name="Egrave" unicode="&#xc8;" 
d="M387 617h-225c-2.66699 0 -4 -1.33301 -4 -4v-217c0 -2.66699 1.33301 -4 4 -4h138c6.66699 0 10 -3.33301 10 -10v-63c0 -6.66699 -3.33301 -10 -10 -10h-138c-2.66699 0 -4 -1.33301 -4 -4v-218c0 -2.66699 1.33301 -4 4 -4h225c6.66699 0 10 -3.33301 10 -10v-63
c0 -6.66699 -3.33301 -10 -10 -10h-315c-6.66699 -0 -10 3.33301 -10 10v680c0 6.66699 3.33301 10 10 10h315c6.66699 0 10 -3.33301 10 -10v-63c0 -6.66699 -3.33301 -10 -10 -10zM262 770c0 -4 -3 -6 -9 -6h-49c-5.33301 0 -9.33301 2 -12 6l-74 109l-2 5
c0 4.66699 3 7 9 7h61c4.66699 0 8.66699 -2.33301 12 -7l62 -108c1.33301 -2.66699 2 -4.66699 2 -6z" />
    <glyph glyph-name="Eacute" unicode="&#xc9;" 
d="M387 617h-225c-2.66699 0 -4 -1.33301 -4 -4v-217c0 -2.66699 1.33301 -4 4 -4h138c6.66699 0 10 -3.33301 10 -10v-63c0 -6.66699 -3.33301 -10 -10 -10h-138c-2.66699 0 -4 -1.33301 -4 -4v-218c0 -2.66699 1.33301 -4 4 -4h225c6.66699 0 10 -3.33301 10 -10v-63
c0 -6.66699 -3.33301 -10 -10 -10h-315c-6.66699 -0 -10 3.33301 -10 10v680c0 6.66699 3.33301 10 10 10h315c6.66699 0 10 -3.33301 10 -10v-63c0 -6.66699 -3.33301 -10 -10 -10zM179 767.5c-1.33301 2.33301 -1 5.16602 1 8.49902l62 108
c3.33301 4.66699 7.33301 7 12 7h61c4 0 6.66699 -1.16699 8 -3.5s1 -5.16602 -1 -8.49902l-74 -109c-2.66699 -4 -6.66699 -6 -12 -6h-49c-4 0 -6.66699 1.16699 -8 3.5z" />
    <glyph glyph-name="Ecircumflex" unicode="&#xca;" 
d="M387 617h-225c-2.66699 0 -4 -1.33301 -4 -4v-217c0 -2.66699 1.33301 -4 4 -4h138c6.66699 0 10 -3.33301 10 -10v-63c0 -6.66699 -3.33301 -10 -10 -10h-138c-2.66699 0 -4 -1.33301 -4 -4v-218c0 -2.66699 1.33301 -4 4 -4h225c6.66699 0 10 -3.33301 10 -10v-63
c0 -6.66699 -3.33301 -10 -10 -10h-315c-6.66699 -0 -10 3.33301 -10 10v680c0 6.66699 3.33301 10 10 10h315c6.66699 0 10 -3.33301 10 -10v-63c0 -6.66699 -3.33301 -10 -10 -10zM106.5 771.5c-1 2.33301 -0.5 5.16699 1.5 8.5l65 104c3.33301 4.66699 7.33301 7 12 7h85
c4.66699 0 8.66699 -2.33301 12 -7l68 -104c1.33301 -2.66699 2 -4.66699 2 -6c0 -4 -2.66699 -6 -8 -6h-61c-4.66699 0 -8.66699 2.33301 -12 7l-39 68c-0.666992 1.33301 -1.66699 2 -3 2s-2.33301 -0.666992 -3 -2l-39 -68c-3.33301 -4.66699 -7.33301 -7 -12 -7h-61
c-4 0 -6.5 1.16699 -7.5 3.5z" />
    <glyph glyph-name="Edieresis" unicode="&#xcb;" 
d="M387 617h-225c-2.66699 0 -4 -1.33301 -4 -4v-217c0 -2.66699 1.33301 -4 4 -4h138c6.66699 0 10 -3.33301 10 -10v-63c0 -6.66699 -3.33301 -10 -10 -10h-138c-2.66699 0 -4 -1.33301 -4 -4v-218c0 -2.66699 1.33301 -4 4 -4h225c6.66699 0 10 -3.33301 10 -10v-63
c0 -6.66699 -3.33301 -10 -10 -10h-315c-6.66699 -0 -10 3.33301 -10 10v680c0 6.66699 3.33301 10 10 10h315c6.66699 0 10 -3.33301 10 -10v-63c0 -6.66699 -3.33301 -10 -10 -10zM265 798c-12 12 -18 27.333 -18 46s6 34 18 46s27.333 18 46 18s34 -6 46 -18
s18 -27.333 18 -46s-6 -34 -18 -46s-27.333 -18 -46 -18s-34 6 -46 18zM103 798c-12 12 -18 27.333 -18 46s6 34 18 46s27.333 18 46 18s34 -6 46 -18s18 -27.333 18 -46s-6 -34 -18 -46s-27.333 -18 -46 -18s-34 6 -46 18z" />
    <glyph glyph-name="Igrave" unicode="&#xcc;" horiz-adv-x="220" 
d="M62 10v680c0 6.66699 3.33301 10 10 10h76c6.66699 0 10 -3.33301 10 -10v-680c0 -6.66699 -3.33301 -10 -10 -10h-76c-6.66699 -0 -10 3.33301 -10 10zM142 770c0 -4 -3 -6 -9 -6h-49c-5.33301 0 -9.33301 2 -12 6l-74 109l-2 5c0 4.66699 3 7 9 7h61
c4.66699 0 8.66699 -2.33301 12 -7l62 -108c1.33301 -2.66699 2 -4.66699 2 -6z" />
    <glyph glyph-name="Iacute" unicode="&#xcd;" horiz-adv-x="220" 
d="M62 10v680c0 6.66699 3.33301 10 10 10h76c6.66699 0 10 -3.33301 10 -10v-680c0 -6.66699 -3.33301 -10 -10 -10h-76c-6.66699 -0 -10 3.33301 -10 10zM59 767.5c-1.33301 2.33301 -1 5.16602 1 8.49902l62 108c3.33301 4.66699 7.33301 7 12 7h61
c4 0 6.66699 -1.16699 8 -3.5s1 -5.16602 -1 -8.49902l-74 -109c-2.66699 -4 -6.66699 -6 -12 -6h-49c-4 0 -6.66699 1.16699 -8 3.5z" />
    <glyph glyph-name="Icircumflex" unicode="&#xce;" horiz-adv-x="220" 
d="M62 10v680c0 6.66699 3.33301 10 10 10h76c6.66699 0 10 -3.33301 10 -10v-680c0 -6.66699 -3.33301 -10 -10 -10h-76c-6.66699 -0 -10 3.33301 -10 10zM-13.5 771.5c-1 2.33301 -0.5 5.16699 1.5 8.5l65 104c3.33301 4.66699 7.33301 7 12 7h85
c4.66699 0 8.66699 -2.33301 12 -7l68 -104c1.33301 -2.66699 2 -4.66699 2 -6c0 -4 -2.66699 -6 -8 -6h-61c-4.66699 0 -8.66699 2.33301 -12 7l-39 68c-0.666992 1.33301 -1.66699 2 -3 2s-2.33301 -0.666992 -3 -2l-39 -68c-3.33301 -4.66699 -7.33301 -7 -12 -7h-61
c-4 0 -6.5 1.16699 -7.5 3.5z" />
    <glyph glyph-name="Idieresis" unicode="&#xcf;" horiz-adv-x="220" 
d="M62 10v680c0 6.66699 3.33301 10 10 10h76c6.66699 0 10 -3.33301 10 -10v-680c0 -6.66699 -3.33301 -10 -10 -10h-76c-6.66699 -0 -10 3.33301 -10 10zM145 798c-12 12 -18 27.333 -18 46s6 34 18 46s27.333 18 46 18s34 -6 46 -18s18 -27.333 18 -46s-6 -34 -18 -46
s-27.333 -18 -46 -18s-34 6 -46 18zM-17 798c-12 12 -18 27.333 -18 46s6 34 18 46s27.333 18 46 18s34 -6 46 -18s18 -27.333 18 -46s-6 -34 -18 -46s-27.333 -18 -46 -18s-34 6 -46 18z" />
    <glyph glyph-name="Eth" unicode="&#xd0;" horiz-adv-x="508" 
d="M406.5 649c32.333 -34 48.5 -80 48.5 -138v-322c0 -58 -16.167 -104 -48.5 -138s-76.166 -51 -131.499 -51h-164c-6.66699 -0 -10 3.33301 -10 10v323c0 2.66699 -1.33301 4 -4 4h-25c-6.66699 0 -10 3.33301 -10 10v38c0 6.66699 3.33301 10 10 10h25
c2.66699 0 4 1.33301 4 4v291c0 6.66699 3.33301 10 10 10h164c55.333 0 99.166 -17 131.499 -51zM359 506c0 34 -7.66602 61 -22.999 81s-36.333 30 -63 30h-72c-2.66699 0 -4 -1.33301 -4 -4v-214c0 -2.66699 1.33301 -4 4 -4h63c6.66699 0 10 -3.33301 10 -10v-38
c0 -6.66699 -3.33301 -10 -10 -10h-63c-2.66699 0 -4 -1.33301 -4 -4v-246c0 -2.66699 1.33301 -4 4 -4l73 1c25.333 0 45.666 9.83301 60.999 29.5s23.333 46.5 24 80.5v312z" />
    <glyph glyph-name="Ntilde" unicode="&#xd1;" horiz-adv-x="501" 
d="M354 700l75 -0.000976562c6.66699 0 10 -3.33301 10 -10v-680c0 -6.66699 -3.33301 -10 -10 -10h-86c-5.33301 0 -9 2.66699 -11 8l-170 457c-0.666992 1.33301 -1.66699 1.83301 -3 1.5s-2 -1.16602 -2 -2.49902l1 -454c0 -6.66699 -3.33301 -10 -10 -10h-76
c-6.66699 -0 -10 3.33301 -10 10v680c0 6.66699 3.33301 10 10 10h85c5.33301 0 9 -2.66699 11 -8l171 -457c0.666992 -2 1.66699 -2.83301 3 -2.5s2 1.5 2 3.5v454c0 6.66699 3.33301 10 10 10zM288.5 801.999c-7.66699 3.33301 -17.498 8.33398 -29.498 15.001
c-3.33301 2 -7.83301 5 -13.5 9s-10.667 6.83301 -15 8.5s-9.16602 2.5 -14.499 2.5c-8.66699 0 -16.167 -1.83301 -22.5 -5.5s-12.833 -10.5 -19.5 -20.5c-1.33301 -2.66699 -3.33301 -4.33398 -6 -5.00098s-5.33398 0 -8.00098 2l-28 20
c-4.66699 4 -5.66699 8.33301 -3 13c8.66699 20 20 35 34 45s29.333 15 46 15c10.667 0 20.667 -2 30 -6s19.333 -9.66699 30 -17c2.66699 -1.33301 6.66699 -4 12 -8s10.666 -7 15.999 -9s10.666 -3 15.999 -3c8 0 15.333 1.83301 22 5.5s13 10.5 19 20.5
c2.66699 6 7.33398 7 14.001 3l27 -18c2.66699 -2 4 -5 4 -9c0 -2.66699 -1 -6 -3 -10c-10 -18.667 -22.667 -32.167 -38 -40.5s-30.333 -12.5 -45 -12.5c-8.66699 0 -16.834 1.66699 -24.501 5z" />
    <glyph glyph-name="Ograve" unicode="&#xd2;" horiz-adv-x="462" 
d="M98 42c-33.333 33.333 -50 77.666 -50 132.999v349c0 55.333 16.667 99.833 50 133.5s77.333 50.5 132 50.5c55.333 0 99.833 -16.833 133.5 -50.5s50.5 -78.167 50.5 -133.5v-349c0 -55.333 -16.833 -99.666 -50.5 -132.999s-78.167 -50 -133.5 -50
c-54.667 0 -98.667 16.667 -132 50zM294 101.5c16 17.667 24 40.834 24 69.501v358c0 28.667 -8 51.834 -24 69.501s-37.333 26.5 -64 26.5c-26 0 -46.833 -8.83301 -62.5 -26.5s-23.5 -40.834 -23.5 -69.501v-358c0 -28.667 7.83301 -51.834 23.5 -69.501
s36.5 -26.5 62.5 -26.5c26.667 0 48 8.83301 64 26.5zM262 770c0 -4 -3 -6 -9 -6h-49c-5.33301 0 -9.33301 2 -12 6l-74 109l-2 5c0 4.66699 3 7 9 7h61c4.66699 0 8.66699 -2.33301 12 -7l62 -108c1.33301 -2.66699 2 -4.66699 2 -6z" />
    <glyph glyph-name="Oacute" unicode="&#xd3;" horiz-adv-x="462" 
d="M98 42c-33.333 33.333 -50 77.666 -50 132.999v349c0 55.333 16.667 99.833 50 133.5s77.333 50.5 132 50.5c55.333 0 99.833 -16.833 133.5 -50.5s50.5 -78.167 50.5 -133.5v-349c0 -55.333 -16.833 -99.666 -50.5 -132.999s-78.167 -50 -133.5 -50
c-54.667 0 -98.667 16.667 -132 50zM294 101.5c16 17.667 24 40.834 24 69.501v358c0 28.667 -8 51.834 -24 69.501s-37.333 26.5 -64 26.5c-26 0 -46.833 -8.83301 -62.5 -26.5s-23.5 -40.834 -23.5 -69.501v-358c0 -28.667 7.83301 -51.834 23.5 -69.501
s36.5 -26.5 62.5 -26.5c26.667 0 48 8.83301 64 26.5zM179 767.5c-1.33301 2.33301 -1 5.16602 1 8.49902l62 108c3.33301 4.66699 7.33301 7 12 7h61c4 0 6.66699 -1.16699 8 -3.5s1 -5.16602 -1 -8.49902l-74 -109c-2.66699 -4 -6.66699 -6 -12 -6h-49
c-4 0 -6.66699 1.16699 -8 3.5z" />
    <glyph glyph-name="Ocircumflex" unicode="&#xd4;" horiz-adv-x="462" 
d="M98 42c-33.333 33.333 -50 77.666 -50 132.999v349c0 55.333 16.667 99.833 50 133.5s77.333 50.5 132 50.5c55.333 0 99.833 -16.833 133.5 -50.5s50.5 -78.167 50.5 -133.5v-349c0 -55.333 -16.833 -99.666 -50.5 -132.999s-78.167 -50 -133.5 -50
c-54.667 0 -98.667 16.667 -132 50zM294 101.5c16 17.667 24 40.834 24 69.501v358c0 28.667 -8 51.834 -24 69.501s-37.333 26.5 -64 26.5c-26 0 -46.833 -8.83301 -62.5 -26.5s-23.5 -40.834 -23.5 -69.501v-358c0 -28.667 7.83301 -51.834 23.5 -69.501
s36.5 -26.5 62.5 -26.5c26.667 0 48 8.83301 64 26.5zM106.5 771.5c-1 2.33301 -0.5 5.16699 1.5 8.5l65 104c3.33301 4.66699 7.33301 7 12 7h85c4.66699 0 8.66699 -2.33301 12 -7l68 -104c1.33301 -2.66699 2 -4.66699 2 -6c0 -4 -2.66699 -6 -8 -6h-61
c-4.66699 0 -8.66699 2.33301 -12 7l-39 68c-0.666992 1.33301 -1.66699 2 -3 2s-2.33301 -0.666992 -3 -2l-39 -68c-3.33301 -4.66699 -7.33301 -7 -12 -7h-61c-4 0 -6.5 1.16699 -7.5 3.5z" />
    <glyph glyph-name="Otilde" unicode="&#xd5;" horiz-adv-x="462" 
d="M98 42c-33.333 33.333 -50 77.666 -50 132.999v349c0 55.333 16.667 99.833 50 133.5s77.333 50.5 132 50.5c55.333 0 99.833 -16.833 133.5 -50.5s50.5 -78.167 50.5 -133.5v-349c0 -55.333 -16.833 -99.666 -50.5 -132.999s-78.167 -50 -133.5 -50
c-54.667 0 -98.667 16.667 -132 50zM294 101.5c16 17.667 24 40.834 24 69.501v358c0 28.667 -8 51.834 -24 69.501s-37.333 26.5 -64 26.5c-26 0 -46.833 -8.83301 -62.5 -26.5s-23.5 -40.834 -23.5 -69.501v-358c0 -28.667 7.83301 -51.834 23.5 -69.501
s36.5 -26.5 62.5 -26.5c26.667 0 48 8.83301 64 26.5zM268.5 796c-7.66699 3.33301 -17.498 8.33398 -29.498 15.001c-3.33301 2 -7.83301 5 -13.5 9s-10.667 6.83301 -15 8.5s-9.16602 2.5 -14.499 2.5c-8.66699 0 -16.167 -1.83301 -22.5 -5.5s-12.833 -10.5 -19.5 -20.5
c-1.33301 -2.66699 -3.33301 -4.33398 -6 -5.00098s-5.33398 0 -8.00098 2l-28 20c-4.66699 4 -5.66699 8.33301 -3 13c8.66699 20 20 35 34 45s29.333 15 46 15c10.667 0 20.667 -2 30 -6s19.333 -9.66699 30 -17c2.66699 -1.33301 6.66699 -4 12 -8s10.666 -7 15.999 -9
s10.666 -3 15.999 -3c8 0 15.333 1.83301 22 5.5s13 10.5 19 20.5c2.66699 6 7.33398 7 14.001 3l27 -18c2.66699 -2 4 -5 4 -9c0 -2.66699 -1 -6 -3 -10c-10 -18.667 -22.667 -32.167 -38 -40.5s-30.333 -12.5 -45 -12.5c-8.66699 0 -16.834 1.66699 -24.501 5z" />
    <glyph glyph-name="Odieresis" unicode="&#xd6;" horiz-adv-x="462" 
d="M98 42c-33.333 33.333 -50 77.666 -50 132.999v349c0 55.333 16.667 99.833 50 133.5s77.333 50.5 132 50.5c55.333 0 99.833 -16.833 133.5 -50.5s50.5 -78.167 50.5 -133.5v-349c0 -55.333 -16.833 -99.666 -50.5 -132.999s-78.167 -50 -133.5 -50
c-54.667 0 -98.667 16.667 -132 50zM294 101.5c16 17.667 24 40.834 24 69.501v358c0 28.667 -8 51.834 -24 69.501s-37.333 26.5 -64 26.5c-26 0 -46.833 -8.83301 -62.5 -26.5s-23.5 -40.834 -23.5 -69.501v-358c0 -28.667 7.83301 -51.834 23.5 -69.501
s36.5 -26.5 62.5 -26.5c26.667 0 48 8.83301 64 26.5zM265 798c-12 12 -18 27.333 -18 46s6 34 18 46s27.333 18 46 18s34 -6 46 -18s18 -27.333 18 -46s-6 -34 -18 -46s-27.333 -18 -46 -18s-34 6 -46 18zM103 798c-12 12 -18 27.333 -18 46s6 34 18 46s27.333 18 46 18
s34 -6 46 -18s18 -27.333 18 -46s-6 -34 -18 -46s-27.333 -18 -46 -18s-34 6 -46 18z" />
    <glyph glyph-name="multiply" unicode="&#xd7;" horiz-adv-x="380" 
d="M347 420c0 -2.66699 -1 -5 -3 -7l-99 -99c-2 -2 -2 -4 0 -6l99 -99c2 -2 3 -4.33301 3 -7s-1 -5 -3 -7l-38 -38c-2 -2 -4.33301 -3 -7 -3s-5 1 -7 3l-99 99c-2 2 -4 2 -6 0l-99 -99c-2 -2 -4.33301 -3 -7 -3s-5 1 -7 3l-38 38c-2 2 -3 4.33301 -3 7s1 5 3 7l99 99
c2 2 2 4 0 6l-99 99c-2 2 -3 4.33301 -3 7s1 5 3 7l38 38c2 2 4.33301 3 7 3s5 -1 7 -3l99 -99c2 -2 4 -2 6 0l99 99c2 2 4.33301 3 7 3s5 -1 7 -3l38 -38c2 -2 3 -4.33301 3 -7z" />
    <glyph glyph-name="Oslash" unicode="&#xd8;" horiz-adv-x="564" 
d="M423 698l-31 -69.999c-0.666992 -2 -0.666992 -4 0 -6c16 -26.667 24 -59.334 24 -98.001v-349c0 -55.333 -16.833 -99.666 -50.5 -132.999s-78.167 -50 -133.5 -50c-40 0 -74 9 -102 27c-2.66699 0.666992 -4.66699 0 -6 -2l-23 -52
c-2.66699 -5.33301 -7 -6.66602 -13 -3.99902l-43 23c-5.33301 3.33301 -7 7.66602 -5 12.999l33 76c1.33301 2 1.33301 4 0 6c-15.333 26.667 -23 58.667 -23 96v349c0 55.333 16.667 99.833 50 133.5s77.333 50.5 132 50.5c39.333 0 74 -9.33301 104 -28
c2.66699 -0.666992 4.66699 0 6 2l22 51c2.66699 6 7 7.33301 13 4l42 -25c4.66699 -2.66699 6 -7.33398 4 -14.001zM146 250.001c0 -2 0.666016 -2.99902 1.99902 -2.99902s2.33301 0.666992 3 2l149 340c0.666992 1.33301 0.333984 3.33301 -0.999023 6
c-16 20 -38.333 30 -67 30c-26 0 -46.833 -8.83301 -62.5 -26.5s-23.5 -40.834 -23.5 -69.501v-279zM319.999 451.002c0 2 -0.666016 2.99902 -1.99902 2.99902s-2.33301 -0.666992 -3 -2l-150 -340c-0.666992 -1.33301 -0.333984 -3.33301 0.999023 -6
c15.333 -20.667 37.333 -31 66 -31c26.667 0 48 8.83301 64 26.5s24 40.834 24 69.501v280z" />
    <glyph glyph-name="Ugrave" unicode="&#xd9;" horiz-adv-x="477" 
d="M106.5 46.5c-33 36.333 -49.5 84.166 -49.5 143.499v500c0 6.66699 3.33301 10 10 10h76c6.66699 0 10 -3.33301 10 -10v-510c0 -31.333 7.83301 -56.666 23.5 -75.999s36.167 -29 61.5 -29c26 0 46.833 9.66699 62.5 29s23.5 44.666 23.5 75.999v510
c0 6.66699 3.33301 10 10 10h76c6.66699 0 10 -3.33301 10 -10v-500c0 -59.333 -16.667 -107.166 -50 -143.499s-77.333 -54.5 -132 -54.5s-98.5 18.167 -131.5 54.5zM270 770c0 -4 -3 -6 -9 -6h-49c-5.33301 0 -9.33301 2 -12 6l-74 109l-2 5c0 4.66699 3 7 9 7h61
c4.66699 0 8.66699 -2.33301 12 -7l62 -108c1.33301 -2.66699 2 -4.66699 2 -6z" />
    <glyph glyph-name="Uacute" unicode="&#xda;" horiz-adv-x="477" 
d="M106.5 46.5c-33 36.333 -49.5 84.166 -49.5 143.499v500c0 6.66699 3.33301 10 10 10h76c6.66699 0 10 -3.33301 10 -10v-510c0 -31.333 7.83301 -56.666 23.5 -75.999s36.167 -29 61.5 -29c26 0 46.833 9.66699 62.5 29s23.5 44.666 23.5 75.999v510
c0 6.66699 3.33301 10 10 10h76c6.66699 0 10 -3.33301 10 -10v-500c0 -59.333 -16.667 -107.166 -50 -143.499s-77.333 -54.5 -132 -54.5s-98.5 18.167 -131.5 54.5zM187 767.5c-1.33301 2.33301 -1 5.16602 1 8.49902l62 108c3.33301 4.66699 7.33301 7 12 7h61
c4 0 6.66699 -1.16699 8 -3.5s1 -5.16602 -1 -8.49902l-74 -109c-2.66699 -4 -6.66699 -6 -12 -6h-49c-4 0 -6.66699 1.16699 -8 3.5z" />
    <glyph glyph-name="Ucircumflex" unicode="&#xdb;" horiz-adv-x="477" 
d="M106.5 46.5c-33 36.333 -49.5 84.166 -49.5 143.499v500c0 6.66699 3.33301 10 10 10h76c6.66699 0 10 -3.33301 10 -10v-510c0 -31.333 7.83301 -56.666 23.5 -75.999s36.167 -29 61.5 -29c26 0 46.833 9.66699 62.5 29s23.5 44.666 23.5 75.999v510
c0 6.66699 3.33301 10 10 10h76c6.66699 0 10 -3.33301 10 -10v-500c0 -59.333 -16.667 -107.166 -50 -143.499s-77.333 -54.5 -132 -54.5s-98.5 18.167 -131.5 54.5zM114.5 771.5c-1 2.33301 -0.5 5.16699 1.5 8.5l65 104c3.33301 4.66699 7.33301 7 12 7h85
c4.66699 0 8.66699 -2.33301 12 -7l68 -104c1.33301 -2.66699 2 -4.66699 2 -6c0 -4 -2.66699 -6 -8 -6h-61c-4.66699 0 -8.66699 2.33301 -12 7l-39 68c-0.666992 1.33301 -1.66699 2 -3 2s-2.33301 -0.666992 -3 -2l-39 -68c-3.33301 -4.66699 -7.33301 -7 -12 -7h-61
c-4 0 -6.5 1.16699 -7.5 3.5z" />
    <glyph glyph-name="Udieresis" unicode="&#xdc;" horiz-adv-x="477" 
d="M106.5 46.5c-33 36.333 -49.5 84.166 -49.5 143.499v500c0 6.66699 3.33301 10 10 10h76c6.66699 0 10 -3.33301 10 -10v-510c0 -31.333 7.83301 -56.666 23.5 -75.999s36.167 -29 61.5 -29c26 0 46.833 9.66699 62.5 29s23.5 44.666 23.5 75.999v510
c0 6.66699 3.33301 10 10 10h76c6.66699 0 10 -3.33301 10 -10v-500c0 -59.333 -16.667 -107.166 -50 -143.499s-77.333 -54.5 -132 -54.5s-98.5 18.167 -131.5 54.5zM273 798c-12 12 -18 27.333 -18 46s6 34 18 46s27.333 18 46 18s34 -6 46 -18s18 -27.333 18 -46
s-6 -34 -18 -46s-27.333 -18 -46 -18s-34 6 -46 18zM111 798c-12 12 -18 27.333 -18 46s6 34 18 46s27.333 18 46 18s34 -6 46 -18s18 -27.333 18 -46s-6 -34 -18 -46s-27.333 -18 -46 -18s-34 6 -46 18z" />
    <glyph glyph-name="Yacute" unicode="&#xdd;" horiz-adv-x="442" 
d="M173 11v286l-1 5l-139 387l-1 4c0 4.66699 3 7 9 7h80c6 0 10 -2.66699 12 -8l85 -276c0.666992 -1.33301 1.66699 -2 3 -2s2.33301 0.666992 3 2l85 276c2 5.33301 6 8 12 8h80c7.33301 0 10 -3.66699 8 -11l-139 -387l-1 -5v-286c0 -6.66699 -3.33301 -10 -10 -10h-76
c-6.66699 0 -10 3.33301 -10 10zM170 767.5c-1.33301 2.33301 -1 5.16602 1 8.49902l62 108c3.33301 4.66699 7.33301 7 12 7h61c4 0 6.66699 -1.16699 8 -3.5s1 -5.16602 -1 -8.49902l-74 -109c-2.66699 -4 -6.66699 -6 -12 -6h-49c-4 0 -6.66699 1.16699 -8 3.5z" />
    <glyph glyph-name="Thorn" unicode="&#xde;" horiz-adv-x="450" 
d="M339 524.5c26 -17 46.167 -40.668 60.5 -71.001s21.5 -65.166 21.5 -104.499c0 -58.667 -15.333 -106.167 -46 -142.5s-71 -54.5 -121 -54.5h-93c-2.66699 0 -4 -1.33301 -4 -4v-138c0 -6.66699 -3.33301 -10 -10 -10h-76c-6.66699 -0 -10 3.33301 -10 10v680
c0 6.66699 3.33301 10 10 10h76c6.66699 0 10 -3.33301 10 -10v-136c0 -2.66699 1.33301 -4 4 -4h89c33.333 0 63 -8.5 89 -25.5zM300.5 260.999c16.333 21.333 24.5 49.999 24.5 85.999c0 36.667 -8.16699 65.834 -24.5 87.501s-38.166 32.5 -65.499 32.5h-74
c-2.66699 0 -4 -1.33301 -4 -4v-230c0 -2.66699 1.33301 -4 4 -4h74c27.333 0 49.166 10.667 65.499 32z" />
    <glyph glyph-name="germandbls" unicode="&#xdf;" horiz-adv-x="441" 
d="M52 10l0.00195312 491.001c0 65.333 14.5 116.333 43.5 153s69.5 55 121.5 55c53.333 0 95.5 -17.167 126.5 -51.5s46.5 -80.833 46.5 -139.5c0 -34.667 -5.83301 -63.834 -17.5 -87.501s-28.167 -41.834 -49.5 -54.501c-3.33301 -2 -3.33301 -4 0 -6
c23.333 -13.333 41.666 -35 54.999 -65s20 -65.667 20 -107c0 -62 -16 -110.5 -48 -145.5s-77.333 -52.5 -136 -52.5h-20c-6.66699 0 -10 3.33301 -10 10v62c0 6.66699 3.33301 10 10 10l21 1c28.667 0.666992 50.667 11.667 66 33s23 52 23 92
c0 39.333 -6.83301 69.833 -20.5 91.5s-32.834 33.167 -57.501 34.5h-22c-6.66699 0 -10 3.33301 -10 10v56c0 6.66699 3.33301 10 10 10h21c22 0 39.167 8.66699 51.5 26s18.5 41.666 18.5 72.999c0 36.667 -6.66699 65.334 -20 86.001s-32.333 31 -57 31
c-22 0 -39.167 -9.66699 -51.5 -29s-18.5 -46.666 -18.5 -81.999v-505c0 -6.66699 -3.33301 -10 -10 -10h-76c-6.66699 -0 -10 3.33301 -10 10z" />
    <glyph glyph-name="agrave" unicode="&#xe0;" horiz-adv-x="423" 
d="M335.5 471c31 -30.667 46.498 -71.002 46.498 -121.002v-340c0 -6.66699 -3.33301 -10 -10 -10h-76c-6.66699 0 -10 3.33301 -10 10v22c0 1.33301 -0.5 2.33301 -1.5 3s-2.16699 0.333984 -3.5 -0.999023c-23.333 -28 -57.666 -42 -102.999 -42
c-38 0 -71.5 10.833 -100.5 32.5s-43.5 60.167 -43.5 115.5c0 58 17.5 100.5 52.5 127.5s80.833 40.5 137.5 40.5h58c2.66699 0 4 1.33301 4 4v29c0 28 -6.66699 50.5 -20 67.5s-30.666 25.5 -51.999 25.5c-16.667 0 -30.667 -5.66699 -42 -17s-18 -26 -20 -44
c0 -6.66699 -3.33301 -10 -10 -10h-81c-6.66699 0 -10 3.33301 -10 10c3.33301 42.667 20.333 77.334 51 104.001s68.667 40 114 40c48.667 0 88.5 -15.333 119.5 -46zM259.998 97.998c17.333 14.667 26.001 35.332 26.001 61.999v68c0 2.66699 -1.33301 4 -4 4h-61
c-26.667 0 -48 -7.16699 -64 -21.5s-24 -35.166 -24 -62.499c0 -24 6 -42 18 -54s28 -18 48 -18c23.333 0 43.666 7.33301 60.999 22zM243.999 578.996c0 -4 -3 -6 -9 -6h-49c-5.33301 0 -9.33301 2 -12 6l-74 109l-2 5c0 4.66699 3 7 9 7h61
c4.66699 0 8.66699 -2.33301 12 -7l62 -108c1.33301 -2.66699 2 -4.66699 2 -6z" />
    <glyph glyph-name="aacute" unicode="&#xe1;" horiz-adv-x="423" 
d="M335.5 471c31 -30.667 46.498 -71.002 46.498 -121.002v-340c0 -6.66699 -3.33301 -10 -10 -10h-76c-6.66699 0 -10 3.33301 -10 10v22c0 1.33301 -0.5 2.33301 -1.5 3s-2.16699 0.333984 -3.5 -0.999023c-23.333 -28 -57.666 -42 -102.999 -42
c-38 0 -71.5 10.833 -100.5 32.5s-43.5 60.167 -43.5 115.5c0 58 17.5 100.5 52.5 127.5s80.833 40.5 137.5 40.5h58c2.66699 0 4 1.33301 4 4v29c0 28 -6.66699 50.5 -20 67.5s-30.666 25.5 -51.999 25.5c-16.667 0 -30.667 -5.66699 -42 -17s-18 -26 -20 -44
c0 -6.66699 -3.33301 -10 -10 -10h-81c-6.66699 0 -10 3.33301 -10 10c3.33301 42.667 20.333 77.334 51 104.001s68.667 40 114 40c48.667 0 88.5 -15.333 119.5 -46zM259.998 97.998c17.333 14.667 26.001 35.332 26.001 61.999v68c0 2.66699 -1.33301 4 -4 4h-61
c-26.667 0 -48 -7.16699 -64 -21.5s-24 -35.166 -24 -62.499c0 -24 6 -42 18 -54s28 -18 48 -18c23.333 0 43.666 7.33301 60.999 22zM160.999 576.496c-1.33301 2.33301 -1 5.16602 1 8.49902l62 108c3.33301 4.66699 7.33301 7 12 7h61c4 0 6.66699 -1.16699 8 -3.5
s1 -5.16602 -1 -8.49902l-74 -109c-2.66699 -4 -6.66699 -6 -12 -6h-49c-4 0 -6.66699 1.16699 -8 3.5z" />
    <glyph glyph-name="acircumflex" unicode="&#xe2;" horiz-adv-x="423" 
d="M335.5 471c31 -30.667 46.498 -71.002 46.498 -121.002v-340c0 -6.66699 -3.33301 -10 -10 -10h-76c-6.66699 0 -10 3.33301 -10 10v22c0 1.33301 -0.5 2.33301 -1.5 3s-2.16699 0.333984 -3.5 -0.999023c-23.333 -28 -57.666 -42 -102.999 -42
c-38 0 -71.5 10.833 -100.5 32.5s-43.5 60.167 -43.5 115.5c0 58 17.5 100.5 52.5 127.5s80.833 40.5 137.5 40.5h58c2.66699 0 4 1.33301 4 4v29c0 28 -6.66699 50.5 -20 67.5s-30.666 25.5 -51.999 25.5c-16.667 0 -30.667 -5.66699 -42 -17s-18 -26 -20 -44
c0 -6.66699 -3.33301 -10 -10 -10h-81c-6.66699 0 -10 3.33301 -10 10c3.33301 42.667 20.333 77.334 51 104.001s68.667 40 114 40c48.667 0 88.5 -15.333 119.5 -46zM259.998 97.998c17.333 14.667 26.001 35.332 26.001 61.999v68c0 2.66699 -1.33301 4 -4 4h-61
c-26.667 0 -48 -7.16699 -64 -21.5s-24 -35.166 -24 -62.499c0 -24 6 -42 18 -54s28 -18 48 -18c23.333 0 43.666 7.33301 60.999 22zM88.499 580.496c-1 2.33301 -0.5 5.16699 1.5 8.5l65 104c3.33301 4.66699 7.33301 7 12 7h85c4.66699 0 8.66699 -2.33301 12 -7l68 -104
c1.33301 -2.66699 2 -4.66699 2 -6c0 -4 -2.66699 -6 -8 -6h-61c-4.66699 0 -8.66699 2.33301 -12 7l-39 68c-0.666992 1.33301 -1.66699 2 -3 2s-2.33301 -0.666992 -3 -2l-39 -68c-3.33301 -4.66699 -7.33301 -7 -12 -7h-61c-4 0 -6.5 1.16699 -7.5 3.5z" />
    <glyph glyph-name="atilde" unicode="&#xe3;" horiz-adv-x="423" 
d="M335.5 471c31 -30.667 46.498 -71.002 46.498 -121.002v-340c0 -6.66699 -3.33301 -10 -10 -10h-76c-6.66699 0 -10 3.33301 -10 10v22c0 1.33301 -0.5 2.33301 -1.5 3s-2.16699 0.333984 -3.5 -0.999023c-23.333 -28 -57.666 -42 -102.999 -42
c-38 0 -71.5 10.833 -100.5 32.5s-43.5 60.167 -43.5 115.5c0 58 17.5 100.5 52.5 127.5s80.833 40.5 137.5 40.5h58c2.66699 0 4 1.33301 4 4v29c0 28 -6.66699 50.5 -20 67.5s-30.666 25.5 -51.999 25.5c-16.667 0 -30.667 -5.66699 -42 -17s-18 -26 -20 -44
c0 -6.66699 -3.33301 -10 -10 -10h-81c-6.66699 0 -10 3.33301 -10 10c3.33301 42.667 20.333 77.334 51 104.001s68.667 40 114 40c48.667 0 88.5 -15.333 119.5 -46zM259.998 97.998c17.333 14.667 26.001 35.332 26.001 61.999v68c0 2.66699 -1.33301 4 -4 4h-61
c-26.667 0 -48 -7.16699 -64 -21.5s-24 -35.166 -24 -62.499c0 -24 6 -42 18 -54s28 -18 48 -18c23.333 0 43.666 7.33301 60.999 22zM250.499 604.996c-7.66699 3.33301 -17.498 8.33398 -29.498 15.001c-3.33301 2 -7.83301 5 -13.5 9s-10.667 6.83301 -15 8.5
s-9.16602 2.5 -14.499 2.5c-8.66699 0 -16.167 -1.83301 -22.5 -5.5s-12.833 -10.5 -19.5 -20.5c-1.33301 -2.66699 -3.33301 -4.33398 -6 -5.00098s-5.33398 0 -8.00098 2l-28 20c-4.66699 4 -5.66699 8.33301 -3 13c8.66699 20 20 35 34 45s29.333 15 46 15
c10.667 0 20.667 -2 30 -6s19.333 -9.66699 30 -17c2.66699 -1.33301 6.66699 -4 12 -8s10.666 -7 15.999 -9s10.666 -3 15.999 -3c8 0 15.333 1.83301 22 5.5s13 10.5 19 20.5c2.66699 6 7.33398 7 14.001 3l27 -18c2.66699 -2 4 -5 4 -9c0 -2.66699 -1 -6 -3 -10
c-10 -18.667 -22.667 -32.167 -38 -40.5s-30.333 -12.5 -45 -12.5c-8.66699 0 -16.834 1.66699 -24.501 5z" />
    <glyph glyph-name="adieresis" unicode="&#xe4;" horiz-adv-x="423" 
d="M335.5 471c31 -30.667 46.498 -71.002 46.498 -121.002v-340c0 -6.66699 -3.33301 -10 -10 -10h-76c-6.66699 0 -10 3.33301 -10 10v22c0 1.33301 -0.5 2.33301 -1.5 3s-2.16699 0.333984 -3.5 -0.999023c-23.333 -28 -57.666 -42 -102.999 -42
c-38 0 -71.5 10.833 -100.5 32.5s-43.5 60.167 -43.5 115.5c0 58 17.5 100.5 52.5 127.5s80.833 40.5 137.5 40.5h58c2.66699 0 4 1.33301 4 4v29c0 28 -6.66699 50.5 -20 67.5s-30.666 25.5 -51.999 25.5c-16.667 0 -30.667 -5.66699 -42 -17s-18 -26 -20 -44
c0 -6.66699 -3.33301 -10 -10 -10h-81c-6.66699 0 -10 3.33301 -10 10c3.33301 42.667 20.333 77.334 51 104.001s68.667 40 114 40c48.667 0 88.5 -15.333 119.5 -46zM259.998 97.998c17.333 14.667 26.001 35.332 26.001 61.999v68c0 2.66699 -1.33301 4 -4 4h-61
c-26.667 0 -48 -7.16699 -64 -21.5s-24 -35.166 -24 -62.499c0 -24 6 -42 18 -54s28 -18 48 -18c23.333 0 43.666 7.33301 60.999 22zM246.999 606.996c-12 12 -18 27.333 -18 46s6 34 18 46s27.333 18 46 18s34 -6 46 -18s18 -27.333 18 -46s-6 -34 -18 -46
s-27.333 -18 -46 -18s-34 6 -46 18zM84.999 606.996c-12 12 -18 27.333 -18 46s6 34 18 46s27.333 18 46 18s34 -6 46 -18s18 -27.333 18 -46s-6 -34 -18 -46s-27.333 -18 -46 -18s-34 6 -46 18z" />
    <glyph glyph-name="aring" unicode="&#xe5;" horiz-adv-x="423" 
d="M335.5 471c31 -30.667 46.498 -71.002 46.498 -121.002v-340c0 -6.66699 -3.33301 -10 -10 -10h-76c-6.66699 0 -10 3.33301 -10 10v22c0 1.33301 -0.5 2.33301 -1.5 3s-2.16699 0.333984 -3.5 -0.999023c-23.333 -28 -57.666 -42 -102.999 -42
c-38 0 -71.5 10.833 -100.5 32.5s-43.5 60.167 -43.5 115.5c0 58 17.5 100.5 52.5 127.5s80.833 40.5 137.5 40.5h58c2.66699 0 4 1.33301 4 4v29c0 28 -6.66699 50.5 -20 67.5s-30.666 25.5 -51.999 25.5c-16.667 0 -30.667 -5.66699 -42 -17s-18 -26 -20 -44
c0 -6.66699 -3.33301 -10 -10 -10h-81c-6.66699 0 -10 3.33301 -10 10c3.33301 42.667 20.333 77.334 51 104.001s68.667 40 114 40c48.667 0 88.5 -15.333 119.5 -46zM259.998 97.998c17.333 14.667 26.001 35.332 26.001 61.999v68c0 2.66699 -1.33301 4 -4 4h-61
c-26.667 0 -48 -7.16699 -64 -21.5s-24 -35.166 -24 -62.499c0 -24 6 -42 18 -54s28 -18 48 -18c23.333 0 43.666 7.33301 60.999 22zM131.499 605.996c-21.667 22 -32.5 49 -32.5 81s10.833 58.833 32.5 80.5s48.5 32.5 80.5 32.5c31.333 0 57.833 -10.833 79.5 -32.5
s32.5 -48.5 32.5 -80.5s-10.833 -59 -32.5 -81s-48.167 -33 -79.5 -33c-32 0 -58.833 11 -80.5 33zM252.999 644.496c11.333 11.667 17 25.834 17 42.501s-5.66699 30.834 -17 42.501s-25 17.5 -41 17.5s-29.833 -5.83301 -41.5 -17.5s-17.5 -25.834 -17.5 -42.501
s5.83301 -30.834 17.5 -42.501s25.5 -17.5 41.5 -17.5s29.667 5.83301 41 17.5z" />
    <glyph glyph-name="ae" unicode="&#xe6;" horiz-adv-x="664" 
d="M34 138c0 57.333 15.668 98.1641 47.001 122.497s75.333 36.5 132 36.5h67c2.66699 0 4 1.33301 4 4v40c0 28.667 -6.33301 51.334 -19 68.001s-30.667 25 -54 25c-18.667 0 -34.834 -5.66699 -48.501 -17s-21.5 -25.666 -23.5 -42.999
c-0.666992 -6.66699 -4.33398 -10 -11.001 -10l-76 3c-6.66699 0 -10 3.33301 -10 10c2.66699 42.667 19.834 76.667 51.501 102s70.167 38 115.5 38c51.333 0 91 -20.667 119 -62c2 -2 4 -2 6 0c13.333 19.333 30.833 34.5 52.5 45.5s46.5 16.5 74.5 16.5
c49.333 0 89.166 -14.667 119.499 -44s45.5 -67.666 45.5 -114.999v-132c0 -6.66699 -3.33301 -10 -10 -10h-227c-2.66699 0 -4 -1.33301 -4 -4v-55c0 -21.333 6.83301 -39.333 20.5 -54s31.167 -22 52.5 -22c17.333 0 32.333 5.5 45 16.5s21.334 24.833 26.001 41.5
c2 6 5.66699 8.66699 11 8l74 -9c6.66699 -1.33301 9.66699 -5 9 -11c-5.33301 -42 -21.833 -75 -49.5 -99s-63.834 -36 -108.501 -36c-32.667 0 -61.167 6.83301 -85.5 20.5s-40.166 29.5 -47.499 47.5c-1.33301 3.33301 -2.33301 4 -3 2c-8 -20 -26.333 -36.667 -55 -50
s-61.667 -20 -99 -20c-94 0 -141 48.667 -141 146zM389.001 296.998h136.999c2.66699 0 4 1.33301 4 4v51c0 24 -6.66699 43.667 -20 59s-30.666 23 -51.999 23s-38.833 -7.66699 -52.5 -23s-20.5 -35 -20.5 -59v-51c0 -2.66699 1.33301 -4 4 -4zM258.5 89.998
c17 14 25.5 33 25.5 57v64c0 2.66699 -1.33301 4 -4 4h-61c-26.667 0 -48 -6.5 -64 -19.5s-24 -31.5 -24 -55.5c0 -23.333 6.33301 -41 19 -53s29 -18 49 -18c22.667 0 42.5 7 59.5 21z" />
    <glyph glyph-name="ccedilla" unicode="&#xe7;" horiz-adv-x="413" 
d="M370 346l-76 -3.00195c-6.66699 0 -10 3.33301 -10 10v10c0 19.333 -7 36 -21 50s-31.333 21 -52 21c-21.333 0 -38.666 -7.66699 -51.999 -23s-20 -35 -20 -59v-195c0 -24 6.66699 -43.667 20 -59s30.666 -23 51.999 -23c20.667 0 38 7 52 21s21 30.667 21 50v10
c0 6.66699 3.33301 10 10 10l76 -1c6.66699 0 10 -3.33301 10 -10v-15c0 -37.333 -11.667 -69.166 -35 -95.499s-55 -42.833 -95 -49.5c-3.33301 -1.33301 -4 -3 -2 -5c26 -26.667 39 -57.334 39 -92.001c0 -30 -8 -51.333 -24 -64s-35.667 -19 -59 -19
c-12.667 0 -24.667 1.66699 -36 5c-6 2 -8.66699 6 -8 12l4 31c0.666992 2.66699 2 4.83398 4 6.50098s4.66699 2.16699 8 1.5c2.66699 -0.666992 6 -1 10 -1c10.667 0 19.5 3.5 26.5 10.5s10.5 17.5 10.5 31.5c0 13.333 -3.83301 27 -11.5 41s-18.167 27 -31.5 39
c-0.666992 1.33301 -2.33398 2 -5.00098 2c-41.333 6.66699 -73.666 23.834 -96.999 51.501s-35 62.834 -35 105.501v207c0 47.333 15.167 85.666 45.5 114.999s71.166 44 122.499 44c34 0 63.833 -6.5 89.5 -19.5s45.334 -30.667 59.001 -53s20.5 -47.5 20.5 -75.5v-13
c0 -6.66699 -3.33301 -10 -10 -10z" />
    <glyph glyph-name="egrave" unicode="&#xe8;" horiz-adv-x="418" 
d="M369 215l-226 -0.000976562c-2.66699 0 -4 -1.33301 -4 -4v-54c0 -24 6.66699 -43.667 20 -59s30.666 -23 51.999 -23c18.667 0 34.334 5.66699 47.001 17s20.667 26 24 44c2 5.33301 5.66699 8 11 8l74 -4c3.33301 0 5.83301 -1 7.5 -3s2.16699 -4.33301 1.5 -7
c-4.66699 -43.333 -21.167 -77.166 -49.5 -101.499s-66.833 -36.5 -115.5 -36.5c-51.333 0 -92.166 14.333 -122.499 43s-45.5 67 -45.5 115v208c0 47.333 15.167 85.666 45.5 114.999s71.166 44 122.499 44c52 0 93 -14.667 123 -44s45 -67.666 45 -114.999v-133
c0 -6.66699 -3.33301 -10 -10 -10zM159 410.999c-13.333 -15.333 -20.001 -35 -20.001 -59v-53c0 -2.66699 1.33301 -4 4 -4h137c2.66699 0 4 1.33301 4 4v53c0 24 -6.66699 43.667 -20 59s-31 23 -53 23c-21.333 0 -38.666 -7.66699 -51.999 -23zM240.999 578.999
c0 -4 -3 -6 -9 -6h-49c-5.33301 0 -9.33301 2 -12 6l-74 109l-2 5c0 4.66699 3 7 9 7h61c4.66699 0 8.66699 -2.33301 12 -7l62 -108c1.33301 -2.66699 2 -4.66699 2 -6z" />
    <glyph glyph-name="eacute" unicode="&#xe9;" horiz-adv-x="418" 
d="M369 215l-226 -0.000976562c-2.66699 0 -4 -1.33301 -4 -4v-54c0 -24 6.66699 -43.667 20 -59s30.666 -23 51.999 -23c18.667 0 34.334 5.66699 47.001 17s20.667 26 24 44c2 5.33301 5.66699 8 11 8l74 -4c3.33301 0 5.83301 -1 7.5 -3s2.16699 -4.33301 1.5 -7
c-4.66699 -43.333 -21.167 -77.166 -49.5 -101.499s-66.833 -36.5 -115.5 -36.5c-51.333 0 -92.166 14.333 -122.499 43s-45.5 67 -45.5 115v208c0 47.333 15.167 85.666 45.5 114.999s71.166 44 122.499 44c52 0 93 -14.667 123 -44s45 -67.666 45 -114.999v-133
c0 -6.66699 -3.33301 -10 -10 -10zM159 410.999c-13.333 -15.333 -20.001 -35 -20.001 -59v-53c0 -2.66699 1.33301 -4 4 -4h137c2.66699 0 4 1.33301 4 4v53c0 24 -6.66699 43.667 -20 59s-31 23 -53 23c-21.333 0 -38.666 -7.66699 -51.999 -23zM157.999 576.499
c-1.33301 2.33301 -1 5.16602 1 8.49902l62 108c3.33301 4.66699 7.33301 7 12 7h61c4 0 6.66699 -1.16699 8 -3.5s1 -5.16602 -1 -8.49902l-74 -109c-2.66699 -4 -6.66699 -6 -12 -6h-49c-4 0 -6.66699 1.16699 -8 3.5z" />
    <glyph glyph-name="ecircumflex" unicode="&#xea;" horiz-adv-x="418" 
d="M369 215l-226 -0.000976562c-2.66699 0 -4 -1.33301 -4 -4v-54c0 -24 6.66699 -43.667 20 -59s30.666 -23 51.999 -23c18.667 0 34.334 5.66699 47.001 17s20.667 26 24 44c2 5.33301 5.66699 8 11 8l74 -4c3.33301 0 5.83301 -1 7.5 -3s2.16699 -4.33301 1.5 -7
c-4.66699 -43.333 -21.167 -77.166 -49.5 -101.499s-66.833 -36.5 -115.5 -36.5c-51.333 0 -92.166 14.333 -122.499 43s-45.5 67 -45.5 115v208c0 47.333 15.167 85.666 45.5 114.999s71.166 44 122.499 44c52 0 93 -14.667 123 -44s45 -67.666 45 -114.999v-133
c0 -6.66699 -3.33301 -10 -10 -10zM159 410.999c-13.333 -15.333 -20.001 -35 -20.001 -59v-53c0 -2.66699 1.33301 -4 4 -4h137c2.66699 0 4 1.33301 4 4v53c0 24 -6.66699 43.667 -20 59s-31 23 -53 23c-21.333 0 -38.666 -7.66699 -51.999 -23zM85.499 580.499
c-1 2.33301 -0.5 5.16699 1.5 8.5l65 104c3.33301 4.66699 7.33301 7 12 7h85c4.66699 0 8.66699 -2.33301 12 -7l68 -104c1.33301 -2.66699 2 -4.66699 2 -6c0 -4 -2.66699 -6 -8 -6h-61c-4.66699 0 -8.66699 2.33301 -12 7l-39 68c-0.666992 1.33301 -1.66699 2 -3 2
s-2.33301 -0.666992 -3 -2l-39 -68c-3.33301 -4.66699 -7.33301 -7 -12 -7h-61c-4 0 -6.5 1.16699 -7.5 3.5z" />
    <glyph glyph-name="edieresis" unicode="&#xeb;" horiz-adv-x="418" 
d="M369 215l-226 -0.000976562c-2.66699 0 -4 -1.33301 -4 -4v-54c0 -24 6.66699 -43.667 20 -59s30.666 -23 51.999 -23c18.667 0 34.334 5.66699 47.001 17s20.667 26 24 44c2 5.33301 5.66699 8 11 8l74 -4c3.33301 0 5.83301 -1 7.5 -3s2.16699 -4.33301 1.5 -7
c-4.66699 -43.333 -21.167 -77.166 -49.5 -101.499s-66.833 -36.5 -115.5 -36.5c-51.333 0 -92.166 14.333 -122.499 43s-45.5 67 -45.5 115v208c0 47.333 15.167 85.666 45.5 114.999s71.166 44 122.499 44c52 0 93 -14.667 123 -44s45 -67.666 45 -114.999v-133
c0 -6.66699 -3.33301 -10 -10 -10zM159 410.999c-13.333 -15.333 -20.001 -35 -20.001 -59v-53c0 -2.66699 1.33301 -4 4 -4h137c2.66699 0 4 1.33301 4 4v53c0 24 -6.66699 43.667 -20 59s-31 23 -53 23c-21.333 0 -38.666 -7.66699 -51.999 -23zM243.999 606.999
c-12 12 -18 27.333 -18 46s6 34 18 46s27.333 18 46 18s34 -6 46 -18s18 -27.333 18 -46s-6 -34 -18 -46s-27.333 -18 -46 -18s-34 6 -46 18zM81.999 606.999c-12 12 -18 27.333 -18 46s6 34 18 46s27.333 18 46 18s34 -6 46 -18s18 -27.333 18 -46s-6 -34 -18 -46
s-27.333 -18 -46 -18s-34 6 -46 18z" />
    <glyph glyph-name="igrave" unicode="&#xec;" horiz-adv-x="176" 
d="M40 10v489c0 6.66699 3.33301 10 10 10h76c6.66699 0 10 -3.33301 10 -10v-489c0 -6.66699 -3.33301 -10 -10 -10h-76c-6.66699 -0 -10 3.33301 -10 10zM120 579c0 -4 -3 -6 -9 -6h-49c-5.33301 0 -9.33301 2 -12 6l-74 109l-2 5c0 4.66699 3 7 9 7h61
c4.66699 0 8.66699 -2.33301 12 -7l62 -108c1.33301 -2.66699 2 -4.66699 2 -6z" />
    <glyph glyph-name="iacute" unicode="&#xed;" horiz-adv-x="176" 
d="M40 10v489c0 6.66699 3.33301 10 10 10h76c6.66699 0 10 -3.33301 10 -10v-489c0 -6.66699 -3.33301 -10 -10 -10h-76c-6.66699 -0 -10 3.33301 -10 10zM37 576.5c-1.33301 2.33301 -1 5.16602 1 8.49902l62 108c3.33301 4.66699 7.33301 7 12 7h61
c4 0 6.66699 -1.16699 8 -3.5s1 -5.16602 -1 -8.49902l-74 -109c-2.66699 -4 -6.66699 -6 -12 -6h-49c-4 0 -6.66699 1.16699 -8 3.5z" />
    <glyph glyph-name="icircumflex" unicode="&#xee;" horiz-adv-x="176" 
d="M40 10v489c0 6.66699 3.33301 10 10 10h76c6.66699 0 10 -3.33301 10 -10v-489c0 -6.66699 -3.33301 -10 -10 -10h-76c-6.66699 -0 -10 3.33301 -10 10zM-35.5 580.5c-1 2.33301 -0.5 5.16699 1.5 8.5l65 104c3.33301 4.66699 7.33301 7 12 7h85
c4.66699 0 8.66699 -2.33301 12 -7l68 -104c1.33301 -2.66699 2 -4.66699 2 -6c0 -4 -2.66699 -6 -8 -6h-61c-4.66699 0 -8.66699 2.33301 -12 7l-39 68c-0.666992 1.33301 -1.66699 2 -3 2s-2.33301 -0.666992 -3 -2l-39 -68c-3.33301 -4.66699 -7.33301 -7 -12 -7h-61
c-4 0 -6.5 1.16699 -7.5 3.5z" />
    <glyph glyph-name="idieresis" unicode="&#xef;" horiz-adv-x="176" 
d="M40 10v489c0 6.66699 3.33301 10 10 10h76c6.66699 0 10 -3.33301 10 -10v-489c0 -6.66699 -3.33301 -10 -10 -10h-76c-6.66699 -0 -10 3.33301 -10 10zM123 607c-12 12 -18 27.333 -18 46s6 34 18 46s27.333 18 46 18s34 -6 46 -18s18 -27.333 18 -46s-6 -34 -18 -46
s-27.333 -18 -46 -18s-34 6 -46 18zM-39 607c-12 12 -18 27.333 -18 46s6 34 18 46s27.333 18 46 18s34 -6 46 -18s18 -27.333 18 -46s-6 -34 -18 -46s-27.333 -18 -46 -18s-34 6 -46 18z" />
    <glyph glyph-name="eth" unicode="&#xf0;" horiz-adv-x="438" 
d="M317 587c40.667 -72.667 61.999 -155 63.999 -247v-30v-64v-95c0 -48.667 -15.167 -87.334 -45.5 -116.001s-71.5 -43 -123.5 -43s-93.167 14.333 -123.5 43s-45.5 67.334 -45.5 116.001v189c0 30.667 6.66699 58.167 20 82.5s31.833 43.166 55.5 56.499
s49.834 20 78.501 20c32.667 0 57.667 -9.66699 75 -29c2.66699 -2 4 -1.33301 4 2c-6.66699 30.667 -18.667 62.334 -36 95.001c-1.33301 2.66699 -3 3.33398 -5 2.00098l-76 -21l-4 -1c-4 0 -7 2.66699 -9 8l-6 24l-1 4c0 4 2.66699 7 8 9l60 17c3.33301 1.33301 4 3 2 5
c-12.667 20.667 -31 45.334 -55 74.001c-1.33301 1.33301 -2 3.33301 -2 6c0 1.33301 0.666992 2.66602 2 3.99902s3.33301 2 6 2h71c4.66699 0 9 -2 13 -6c6.66699 -9.33301 12 -16.333 16 -21l28 -38c1.33301 -2.66699 3 -3.33398 5 -2.00098l81 23l4 1
c4 0 6.66699 -2.66699 8 -8l6 -26v-3c0 -4.66699 -2.33301 -8 -7 -10l-66 -18c-2 -1.33301 -2.66699 -3 -2 -5zM264.999 393c-13.333 15.333 -31 23 -53 23c-21.333 0 -38.833 -7.66699 -52.5 -23s-20.5 -35 -20.5 -59v-177c0 -24 6.83301 -43.667 20.5 -59
s31.167 -23 52.5 -23c22 0 39.667 7.66699 53 23s20 35 20 59v177c0 24 -6.66699 43.667 -20 59z" />
    <glyph glyph-name="ntilde" unicode="&#xf1;" 
d="M167.5 634.5c-6.33301 -3.66699 -12.1699 -10.167 -17.5029 -19.5c-3.33301 -6.66699 -8 -7.66699 -14 -3l-23 19c-4.66699 3.33301 -6 7.66602 -4 12.999c8 20 18.333 35 31 45s26.667 15 42 15c9.33301 0 18.166 -2 26.499 -6s17.5 -9.66699 27.5 -17
c1.33301 -1.33301 4.66602 -4 9.99902 -8s10.333 -7 15 -9s9.33398 -3 14.001 -3c7.33301 0 14 1.83301 20 5.5s11.667 10.167 17 19.5c4.66699 6.66699 9.33398 8 14.001 4l24 -18c4.66699 -3.33301 6 -7.66602 4 -12.999c-9.33301 -20.667 -21.166 -35.667 -35.499 -45
s-28.5 -14 -42.5 -14c-8 0 -15.5 1.66699 -22.5 5s-15.833 8.33301 -26.5 15c-2 2 -5.66699 5 -11 9s-10.166 6.83301 -14.499 8.5s-8.83301 2.5 -13.5 2.5c-7.33301 0 -14.166 -1.83301 -20.499 -5.5zM351.496 473.5c22.333 -28.333 33.5 -68.501 33.5 -120.501v-343
c0 -6.66699 -3.33301 -10 -10 -10h-76c-6.66699 0 -10 3.33301 -10 10v335c0 28 -6 49.667 -18 65s-28.667 23 -50 23c-22 0 -39.167 -7.5 -51.5 -22.5s-19.166 -36.167 -20.499 -63.5c0 -4 -0.333008 -6 -1 -6v-331c0 -6.66699 -3.33301 -10 -10 -10h-76
c-6.66699 0 -10 3.33301 -10 10v489c0 6.66699 3.33301 10 10 10h76c6.66699 0 10 -3.33301 10 -10v-27c0 -1.33301 0.666992 -2.16602 2 -2.49902s2.66602 0.5 3.99902 2.5c24 29.333 57.667 44 101 44c42 0 74.167 -14.167 96.5 -42.5z" />
    <glyph glyph-name="ograve" unicode="&#xf2;" horiz-adv-x="424" 
d="M88.5 35.5c-30.333 29 -45.5 67.5 -45.5 115.5v207c0 47.333 15.333 85.666 46 114.999s71.667 44 123 44c52 0 93.333 -14.667 124 -44s46 -67.666 46 -114.999v-207c0 -48 -15.333 -86.5 -46 -115.5s-72 -43.5 -124 -43.5s-93.167 14.5 -123.5 43.5zM265 98.5
c14 15 21 34.833 21 59.5v194c0 24 -7 43.667 -21 59s-31.667 23 -53 23s-38.833 -7.66699 -52.5 -23s-20.5 -35 -20.5 -59v-194c0 -24.667 6.83301 -44.5 20.5 -59.5s31.167 -22.5 52.5 -22.5s39 7.5 53 22.5zM244 579c0 -4 -3 -6 -9 -6h-49c-5.33301 0 -9.33301 2 -12 6
l-74 109l-2 5c0 4.66699 3 7 9 7h61c4.66699 0 8.66699 -2.33301 12 -7l62 -108c1.33301 -2.66699 2 -4.66699 2 -6z" />
    <glyph glyph-name="oacute" unicode="&#xf3;" horiz-adv-x="424" 
d="M88.5 35.5c-30.333 29 -45.5 67.5 -45.5 115.5v207c0 47.333 15.333 85.666 46 114.999s71.667 44 123 44c52 0 93.333 -14.667 124 -44s46 -67.666 46 -114.999v-207c0 -48 -15.333 -86.5 -46 -115.5s-72 -43.5 -124 -43.5s-93.167 14.5 -123.5 43.5zM265 98.5
c14 15 21 34.833 21 59.5v194c0 24 -7 43.667 -21 59s-31.667 23 -53 23s-38.833 -7.66699 -52.5 -23s-20.5 -35 -20.5 -59v-194c0 -24.667 6.83301 -44.5 20.5 -59.5s31.167 -22.5 52.5 -22.5s39 7.5 53 22.5zM161 576.5c-1.33301 2.33301 -1 5.16602 1 8.49902l62 108
c3.33301 4.66699 7.33301 7 12 7h61c4 0 6.66699 -1.16699 8 -3.5s1 -5.16602 -1 -8.49902l-74 -109c-2.66699 -4 -6.66699 -6 -12 -6h-49c-4 0 -6.66699 1.16699 -8 3.5z" />
    <glyph glyph-name="ocircumflex" unicode="&#xf4;" horiz-adv-x="424" 
d="M88.5 35.5c-30.333 29 -45.5 67.5 -45.5 115.5v207c0 47.333 15.333 85.666 46 114.999s71.667 44 123 44c52 0 93.333 -14.667 124 -44s46 -67.666 46 -114.999v-207c0 -48 -15.333 -86.5 -46 -115.5s-72 -43.5 -124 -43.5s-93.167 14.5 -123.5 43.5zM265 98.5
c14 15 21 34.833 21 59.5v194c0 24 -7 43.667 -21 59s-31.667 23 -53 23s-38.833 -7.66699 -52.5 -23s-20.5 -35 -20.5 -59v-194c0 -24.667 6.83301 -44.5 20.5 -59.5s31.167 -22.5 52.5 -22.5s39 7.5 53 22.5zM88.5 580.5c-1 2.33301 -0.5 5.16699 1.5 8.5l65 104
c3.33301 4.66699 7.33301 7 12 7h85c4.66699 0 8.66699 -2.33301 12 -7l68 -104c1.33301 -2.66699 2 -4.66699 2 -6c0 -4 -2.66699 -6 -8 -6h-61c-4.66699 0 -8.66699 2.33301 -12 7l-39 68c-0.666992 1.33301 -1.66699 2 -3 2s-2.33301 -0.666992 -3 -2l-39 -68
c-3.33301 -4.66699 -7.33301 -7 -12 -7h-61c-4 0 -6.5 1.16699 -7.5 3.5z" />
    <glyph glyph-name="otilde" unicode="&#xf5;" horiz-adv-x="424" 
d="M88.5 35.5c-30.333 29 -45.5 67.5 -45.5 115.5v207c0 47.333 15.333 85.666 46 114.999s71.667 44 123 44c52 0 93.333 -14.667 124 -44s46 -67.666 46 -114.999v-207c0 -48 -15.333 -86.5 -46 -115.5s-72 -43.5 -124 -43.5s-93.167 14.5 -123.5 43.5zM265 98.5
c14 15 21 34.833 21 59.5v194c0 24 -7 43.667 -21 59s-31.667 23 -53 23s-38.833 -7.66699 -52.5 -23s-20.5 -35 -20.5 -59v-194c0 -24.667 6.83301 -44.5 20.5 -59.5s31.167 -22.5 52.5 -22.5s39 7.5 53 22.5zM250.5 605c-7.66699 3.33301 -17.498 8.33398 -29.498 15.001
c-3.33301 2 -7.83301 5 -13.5 9s-10.667 6.83301 -15 8.5s-9.16602 2.5 -14.499 2.5c-8.66699 0 -16.167 -1.83301 -22.5 -5.5s-12.833 -10.5 -19.5 -20.5c-1.33301 -2.66699 -3.33301 -4.33398 -6 -5.00098s-5.33398 0 -8.00098 2l-28 20
c-4.66699 4 -5.66699 8.33301 -3 13c8.66699 20 20 35 34 45s29.333 15 46 15c10.667 0 20.667 -2 30 -6s19.333 -9.66699 30 -17c2.66699 -1.33301 6.66699 -4 12 -8s10.666 -7 15.999 -9s10.666 -3 15.999 -3c8 0 15.333 1.83301 22 5.5s13 10.5 19 20.5
c2.66699 6 7.33398 7 14.001 3l27 -18c2.66699 -2 4 -5 4 -9c0 -2.66699 -1 -6 -3 -10c-10 -18.667 -22.667 -32.167 -38 -40.5s-30.333 -12.5 -45 -12.5c-8.66699 0 -16.834 1.66699 -24.501 5z" />
    <glyph glyph-name="odieresis" unicode="&#xf6;" horiz-adv-x="424" 
d="M88.5 35.5c-30.333 29 -45.5 67.5 -45.5 115.5v207c0 47.333 15.333 85.666 46 114.999s71.667 44 123 44c52 0 93.333 -14.667 124 -44s46 -67.666 46 -114.999v-207c0 -48 -15.333 -86.5 -46 -115.5s-72 -43.5 -124 -43.5s-93.167 14.5 -123.5 43.5zM265 98.5
c14 15 21 34.833 21 59.5v194c0 24 -7 43.667 -21 59s-31.667 23 -53 23s-38.833 -7.66699 -52.5 -23s-20.5 -35 -20.5 -59v-194c0 -24.667 6.83301 -44.5 20.5 -59.5s31.167 -22.5 52.5 -22.5s39 7.5 53 22.5zM247 607c-12 12 -18 27.333 -18 46s6 34 18 46
s27.333 18 46 18s34 -6 46 -18s18 -27.333 18 -46s-6 -34 -18 -46s-27.333 -18 -46 -18s-34 6 -46 18zM85 607c-12 12 -18 27.333 -18 46s6 34 18 46s27.333 18 46 18s34 -6 46 -18s18 -27.333 18 -46s-6 -34 -18 -46s-27.333 -18 -46 -18s-34 6 -46 18z" />
    <glyph glyph-name="divide" unicode="&#xf7;" horiz-adv-x="440" 
d="M179 438c-11.333 11.333 -17 25 -17 41s5.66699 29.667 17 41s25 17 41 17s29.833 -5.66699 41.5 -17s17.5 -25 17.5 -41s-5.83301 -29.667 -17.5 -41s-25.5 -17 -41.5 -17s-29.667 5.66699 -41 17zM29 294v53c0 6.66699 3.33301 10 10 10h362
c6.66699 0 10 -3.33301 10 -10v-53c0 -6.66699 -3.33301 -10 -10 -10h-362c-6.66699 0 -10 3.33301 -10 10zM179 124c-11.333 11.333 -17 25 -17 41c0 15.333 5.66699 28.833 17 40.5s25 17.5 41 17.5c15.333 0 29 -5.83301 41 -17.5s18 -25.167 18 -40.5
c0 -16 -5.83301 -29.667 -17.5 -41s-25.5 -17 -41.5 -17s-29.667 5.66699 -41 17z" />
    <glyph glyph-name="oslash" unicode="&#xf8;" horiz-adv-x="448" 
d="M388 522c0.666992 -2.66699 0.333008 -5.33496 -1 -8.00195l-29 -59c-0.666992 -1.33301 -0.333984 -3.33301 0.999023 -6c16.667 -26 25 -56.333 25 -91v-207c0 -48.667 -15.167 -87.334 -45.5 -116.001s-71.5 -43 -123.5 -43c-25.333 0 -48.333 3.66699 -69 11
c-3.33301 1.33301 -5.33301 0.666016 -6 -2.00098l-21 -46c-3.33301 -6.66699 -8 -8 -14 -4l-50 30c-2.66699 1.33301 -4.33398 3.33301 -5.00098 6s-0.333984 5.33398 0.999023 8.00098l26 52c0.666992 1.33301 0.333984 3.33301 -0.999023 6
c-20.667 24.667 -31 57.334 -31 98.001v207c0 47.333 15.333 85.666 46 114.999s72 44 124 44c30 0 55 -4.33301 75 -13c3.33301 -1.33301 5.33301 -0.666016 6 2.00098l23 49c1.33301 2.66699 3.33301 4.33398 6 5.00098s5.33398 0.333984 8.00098 -0.999023l50 -31
c2.66699 -1.33301 4.33398 -3.33301 5.00098 -6zM142.499 189.999c1 0 2.16699 0.666016 3.5 1.99902l108 227c0.666992 2.66699 0.333984 4.33398 -0.999023 5.00098c-10.667 6.66699 -23.334 10 -38.001 10c-22 0 -39.833 -7.66699 -53.5 -23s-20.5 -35 -20.5 -59v-159
c0 -2 0.5 -3 1.5 -3zM286.499 299.998c-1 0 -2.16699 -0.666992 -3.5 -2l-101 -210c-1.33301 -3.33301 -0.666016 -5.33301 2.00098 -6c9.33301 -4 19.666 -6 30.999 -6c21.333 0 38.833 7.5 52.5 22.5s20.5 34.833 20.5 59.5v139c0 2 -0.5 3 -1.5 3z" />
    <glyph glyph-name="ugrave" unicode="&#xf9;" 
d="M293 509h76c6.66699 0 10 -3.33301 10 -10v-489c0 -6.66699 -3.33301 -10 -10 -10h-76c-6.66699 -0 -10 3.33301 -10 10v29c0 2 -0.5 3 -1.5 3s-2.16699 -0.666992 -3.5 -2c-20 -31.333 -52 -47 -96 -47c-40 0 -72.333 12.167 -97 36.5s-37 61.5 -37 111.5v358
c0 6.66699 3.33301 10 10 10h76c6.66699 0 10 -3.33301 10 -10v-337c0 -57.333 22.667 -86 68 -86c22.667 0 40.167 8.16699 52.5 24.5s18.5 38.833 18.5 67.5v331c0 6.66699 3.33301 10 10 10zM245 579c0 -4 -3 -6 -9 -6h-49c-5.33301 0 -9.33301 2 -12 6l-74 109l-2 5
c0 4.66699 3 7 9 7h61c4.66699 0 8.66699 -2.33301 12 -7l62 -108c1.33301 -2.66699 2 -4.66699 2 -6z" />
    <glyph glyph-name="uacute" unicode="&#xfa;" 
d="M293 509h76c6.66699 0 10 -3.33301 10 -10v-489c0 -6.66699 -3.33301 -10 -10 -10h-76c-6.66699 -0 -10 3.33301 -10 10v29c0 2 -0.5 3 -1.5 3s-2.16699 -0.666992 -3.5 -2c-20 -31.333 -52 -47 -96 -47c-40 0 -72.333 12.167 -97 36.5s-37 61.5 -37 111.5v358
c0 6.66699 3.33301 10 10 10h76c6.66699 0 10 -3.33301 10 -10v-337c0 -57.333 22.667 -86 68 -86c22.667 0 40.167 8.16699 52.5 24.5s18.5 38.833 18.5 67.5v331c0 6.66699 3.33301 10 10 10zM162 576.5c-1.33301 2.33301 -1 5.16602 1 8.49902l62 108
c3.33301 4.66699 7.33301 7 12 7h61c4 0 6.66699 -1.16699 8 -3.5s1 -5.16602 -1 -8.49902l-74 -109c-2.66699 -4 -6.66699 -6 -12 -6h-49c-4 0 -6.66699 1.16699 -8 3.5z" />
    <glyph glyph-name="ucircumflex" unicode="&#xfb;" 
d="M293 509h76c6.66699 0 10 -3.33301 10 -10v-489c0 -6.66699 -3.33301 -10 -10 -10h-76c-6.66699 -0 -10 3.33301 -10 10v29c0 2 -0.5 3 -1.5 3s-2.16699 -0.666992 -3.5 -2c-20 -31.333 -52 -47 -96 -47c-40 0 -72.333 12.167 -97 36.5s-37 61.5 -37 111.5v358
c0 6.66699 3.33301 10 10 10h76c6.66699 0 10 -3.33301 10 -10v-337c0 -57.333 22.667 -86 68 -86c22.667 0 40.167 8.16699 52.5 24.5s18.5 38.833 18.5 67.5v331c0 6.66699 3.33301 10 10 10zM89.5 580.5c-1 2.33301 -0.5 5.16699 1.5 8.5l65 104
c3.33301 4.66699 7.33301 7 12 7h85c4.66699 0 8.66699 -2.33301 12 -7l68 -104c1.33301 -2.66699 2 -4.66699 2 -6c0 -4 -2.66699 -6 -8 -6h-61c-4.66699 0 -8.66699 2.33301 -12 7l-39 68c-0.666992 1.33301 -1.66699 2 -3 2s-2.33301 -0.666992 -3 -2l-39 -68
c-3.33301 -4.66699 -7.33301 -7 -12 -7h-61c-4 0 -6.5 1.16699 -7.5 3.5z" />
    <glyph glyph-name="udieresis" unicode="&#xfc;" 
d="M293 509h76c6.66699 0 10 -3.33301 10 -10v-489c0 -6.66699 -3.33301 -10 -10 -10h-76c-6.66699 -0 -10 3.33301 -10 10v29c0 2 -0.5 3 -1.5 3s-2.16699 -0.666992 -3.5 -2c-20 -31.333 -52 -47 -96 -47c-40 0 -72.333 12.167 -97 36.5s-37 61.5 -37 111.5v358
c0 6.66699 3.33301 10 10 10h76c6.66699 0 10 -3.33301 10 -10v-337c0 -57.333 22.667 -86 68 -86c22.667 0 40.167 8.16699 52.5 24.5s18.5 38.833 18.5 67.5v331c0 6.66699 3.33301 10 10 10zM248 607c-12 12 -18 27.333 -18 46s6 34 18 46s27.333 18 46 18s34 -6 46 -18
s18 -27.333 18 -46s-6 -34 -18 -46s-27.333 -18 -46 -18s-34 6 -46 18zM86 607c-12 12 -18 27.333 -18 46s6 34 18 46s27.333 18 46 18s34 -6 46 -18s18 -27.333 18 -46s-6 -34 -18 -46s-27.333 -18 -46 -18s-34 6 -46 18z" />
    <glyph glyph-name="yacute" unicode="&#xfd;" horiz-adv-x="387" 
d="M38 -196c-1.33301 2 -2.00391 4.33203 -2.00391 6.99902v59c0 6.66699 3.33301 10 10 10c21.333 0.666992 38.166 4 50.499 10s22.333 17.333 30 34s14.167 41 19.5 73l-1 5l-128 496l-1 3c0 5.33301 3.33301 8 10 8h82c6.66699 0 10.334 -3 11.001 -9l73 -361
c0.666992 -2 1.33398 -3 2.00098 -3s1.33398 1 2.00098 3l72 361c1.33301 6 5 9 11 9l83 -1c3.33301 0 5.83301 -1 7.5 -3s1.83398 -4.66699 0.500977 -8l-137 -532c-12.667 -46 -25.334 -80.167 -38.001 -102.5s-30.167 -38.166 -52.5 -47.499s-54.166 -14 -95.499 -14h-5
c-1.33301 0 -2.66602 1 -3.99902 3zM142.996 576.499c-1.33301 2.33301 -1 5.16602 1 8.49902l62 108c3.33301 4.66699 7.33301 7 12 7h61c4 0 6.66699 -1.16699 8 -3.5s1 -5.16602 -1 -8.49902l-74 -109c-2.66699 -4 -6.66699 -6 -12 -6h-49c-4 0 -6.66699 1.16699 -8 3.5z
" />
    <glyph glyph-name="thorn" unicode="&#xfe;" horiz-adv-x="426" 
d="M348 474.5c23.333 -28.333 35.002 -67.166 35.002 -116.499v-207c0 -48.667 -11.667 -87.334 -35 -116.001s-56.666 -43 -99.999 -43c-20 0 -38.833 4.5 -56.5 13.5s-31.834 22.833 -42.501 41.5c-1.33301 1.33301 -2.5 1.83301 -3.5 1.5s-1.5 -1.5 -1.5 -3.5v-235
c0 -6.66699 -3.33301 -10 -10 -10h-76c-6.66699 0 -10 3.33301 -10 10v880c0 6.66699 3.33301 10 10 10h76c6.66699 0 10 -3.33301 10 -10v-226c0 -2 0.666992 -3 2 -3s2.66602 1 3.99902 3c10.667 18.667 24.667 32.167 42 40.5s36 12.5 56 12.5
c43.333 0 76.666 -14.167 99.999 -42.5zM267.002 411c-13.333 15.333 -30.666 23 -51.999 23c-20.667 0 -37.667 -7.66699 -51 -23s-20 -35 -20 -59v-195c0 -24 6.66699 -43.667 20 -59s30.333 -23 51 -23c21.333 0 38.666 7.66699 51.999 23s20 35 20 59v195
c0 24 -6.66699 43.667 -20 59z" />
    <glyph glyph-name="ydieresis" unicode="&#xff;" horiz-adv-x="387" 
d="M38 -196c-1.33301 2 -2.00391 4.33203 -2.00391 6.99902v59c0 6.66699 3.33301 10 10 10c21.333 0.666992 38.166 4 50.499 10s22.333 17.333 30 34s14.167 41 19.5 73l-1 5l-128 496l-1 3c0 5.33301 3.33301 8 10 8h82c6.66699 0 10.334 -3 11.001 -9l73 -361
c0.666992 -2 1.33398 -3 2.00098 -3s1.33398 1 2.00098 3l72 361c1.33301 6 5 9 11 9l83 -1c3.33301 0 5.83301 -1 7.5 -3s1.83398 -4.66699 0.500977 -8l-137 -532c-12.667 -46 -25.334 -80.167 -38.001 -102.5s-30.167 -38.166 -52.5 -47.499s-54.166 -14 -95.499 -14h-5
c-1.33301 0 -2.66602 1 -3.99902 3zM227.996 606.999c-12 12 -18 27.333 -18 46s6 34 18 46s27.333 18 46 18s34 -6 46 -18s18 -27.333 18 -46s-6 -34 -18 -46s-27.333 -18 -46 -18s-34 6 -46 18zM65.9961 606.999c-12 12 -18 27.333 -18 46s6 34 18 46s27.333 18 46 18
s34 -6 46 -18s18 -27.333 18 -46s-6 -34 -18 -46s-27.333 -18 -46 -18s-34 6 -46 18z" />
    <glyph glyph-name="Amacron" unicode="&#x100;" horiz-adv-x="436" 
d="M325 9l-22 115c0 1.33301 -0.5 2.33301 -1.5 3s-2.16699 1 -3.5 1h-163c-1.33301 0 -2.5 -0.333008 -3.5 -1s-1.5 -1.66699 -1.5 -3l-21 -115c-0.666992 -6 -4.33398 -9 -11.001 -9h-76c-3.33301 0 -5.83301 1 -7.5 3s-2.16699 4.66699 -1.5 8l149 680
c1.33301 6 5 9 11 9h89c6.66699 0 10.334 -3 11.001 -9l150 -680v-2c0 -6 -3 -9 -9 -9h-78c-6 0 -9.66699 3 -11 9zM150 204h133.002c2 0 3 1.33301 3 4l-68 355c-0.666992 1.33301 -1.33398 2 -2.00098 2s-1.33398 -0.666992 -2.00098 -2l-67 -355c0 -2.66699 1 -4 3 -4z
M112.002 791v48c0 6.66699 3.33301 10 10 10h188c6.66699 0 10 -3.33301 10 -10v-48c0 -6.66699 -3.33301 -10 -10 -10h-188c-6.66699 0 -10 3.33301 -10 10z" />
    <glyph glyph-name="amacron" unicode="&#x101;" horiz-adv-x="423" 
d="M335.5 471c31 -30.667 46.498 -71.002 46.498 -121.002v-340c0 -6.66699 -3.33301 -10 -10 -10h-76c-6.66699 0 -10 3.33301 -10 10v22c0 1.33301 -0.5 2.33301 -1.5 3s-2.16699 0.333984 -3.5 -0.999023c-23.333 -28 -57.666 -42 -102.999 -42
c-38 0 -71.5 10.833 -100.5 32.5s-43.5 60.167 -43.5 115.5c0 58 17.5 100.5 52.5 127.5s80.833 40.5 137.5 40.5h58c2.66699 0 4 1.33301 4 4v29c0 28 -6.66699 50.5 -20 67.5s-30.666 25.5 -51.999 25.5c-16.667 0 -30.667 -5.66699 -42 -17s-18 -26 -20 -44
c0 -6.66699 -3.33301 -10 -10 -10h-81c-6.66699 0 -10 3.33301 -10 10c3.33301 42.667 20.333 77.334 51 104.001s68.667 40 114 40c48.667 0 88.5 -15.333 119.5 -46zM259.998 97.998c17.333 14.667 26.001 35.332 26.001 61.999v68c0 2.66699 -1.33301 4 -4 4h-61
c-26.667 0 -48 -7.16699 -64 -21.5s-24 -35.166 -24 -62.499c0 -24 6 -42 18 -54s28 -18 48 -18c23.333 0 43.666 7.33301 60.999 22zM105.999 599.996v48c0 6.66699 3.33301 10 10 10h188c6.66699 0 10 -3.33301 10 -10v-48c0 -6.66699 -3.33301 -10 -10 -10h-188
c-6.66699 0 -10 3.33301 -10 10z" />
    <glyph glyph-name="Abreve" unicode="&#x102;" horiz-adv-x="436" 
d="M325 9l-22 115c0 1.33301 -0.5 2.33301 -1.5 3s-2.16699 1 -3.5 1h-163c-1.33301 0 -2.5 -0.333008 -3.5 -1s-1.5 -1.66699 -1.5 -3l-21 -115c-0.666992 -6 -4.33398 -9 -11.001 -9h-76c-3.33301 0 -5.83301 1 -7.5 3s-2.16699 4.66699 -1.5 8l149 680
c1.33301 6 5 9 11 9h89c6.66699 0 10.334 -3 11.001 -9l150 -680v-2c0 -6 -3 -9 -9 -9h-78c-6 0 -9.66699 3 -11 9zM150 204h133.002c2 0 3 1.33301 3 4l-68 355c-0.666992 1.33301 -1.33398 2 -2.00098 2s-1.33398 -0.666992 -2.00098 -2l-67 -355c0 -2.66699 1 -4 3 -4z
M141.502 774c-20.333 18.667 -31.834 42.667 -34.501 72c0 6.66699 3.33301 10 10 10h34c6.66699 0 10.334 -3.33301 11.001 -10c2 -16 8.16699 -29 18.5 -39s22.833 -15 37.5 -15s27.167 5 37.5 15s16.166 23 17.499 39c0.666992 6.66699 4.33398 10 11.001 10h34
c6.66699 0 10 -3.33301 10 -10c-2.66699 -29.333 -14 -53.333 -34 -72s-45.333 -28 -76 -28s-56.167 9.33301 -76.5 28z" />
    <glyph glyph-name="abreve" unicode="&#x103;" horiz-adv-x="423" 
d="M335.5 471c31 -30.667 46.498 -71.002 46.498 -121.002v-340c0 -6.66699 -3.33301 -10 -10 -10h-76c-6.66699 0 -10 3.33301 -10 10v22c0 1.33301 -0.5 2.33301 -1.5 3s-2.16699 0.333984 -3.5 -0.999023c-23.333 -28 -57.666 -42 -102.999 -42
c-38 0 -71.5 10.833 -100.5 32.5s-43.5 60.167 -43.5 115.5c0 58 17.5 100.5 52.5 127.5s80.833 40.5 137.5 40.5h58c2.66699 0 4 1.33301 4 4v29c0 28 -6.66699 50.5 -20 67.5s-30.666 25.5 -51.999 25.5c-16.667 0 -30.667 -5.66699 -42 -17s-18 -26 -20 -44
c0 -6.66699 -3.33301 -10 -10 -10h-81c-6.66699 0 -10 3.33301 -10 10c3.33301 42.667 20.333 77.334 51 104.001s68.667 40 114 40c48.667 0 88.5 -15.333 119.5 -46zM259.998 97.998c17.333 14.667 26.001 35.332 26.001 61.999v68c0 2.66699 -1.33301 4 -4 4h-61
c-26.667 0 -48 -7.16699 -64 -21.5s-24 -35.166 -24 -62.499c0 -24 6 -42 18 -54s28 -18 48 -18c23.333 0 43.666 7.33301 60.999 22zM135.499 582.996c-20.333 18.667 -31.834 42.667 -34.501 72c0 6.66699 3.33301 10 10 10h34c6.66699 0 10.334 -3.33301 11.001 -10
c2 -16 8.16699 -29 18.5 -39s22.833 -15 37.5 -15s27.167 5 37.5 15s16.166 23 17.499 39c0.666992 6.66699 4.33398 10 11.001 10h34c6.66699 0 10 -3.33301 10 -10c-2.66699 -29.333 -14 -53.333 -34 -72s-45.333 -28 -76 -28s-56.167 9.33301 -76.5 28z" />
    <glyph glyph-name="Aogonek" unicode="&#x104;" horiz-adv-x="436" 
d="M325 9l-22 115c0 1.33301 -0.5 2.33301 -1.5 3s-2.16699 1 -3.5 1h-163c-1.33301 0 -2.5 -0.333008 -3.5 -1s-1.5 -1.66699 -1.5 -3l-21 -115c-0.666992 -6 -4.33398 -9 -11.001 -9h-76c-3.33301 0 -5.83301 1 -7.5 3s-2.16699 4.66699 -1.5 8l149 680
c1.33301 6 5 9 11 9h89c6.66699 0 10.334 -3 11.001 -9l150 -680v-2c0 -6 -3 -9 -9 -9h-78c-6 0 -9.66699 3 -11 9zM150 204h133.002c2 0 3 1.33301 3 4l-68 355c-0.666992 1.33301 -1.33398 2 -2.00098 2s-1.33398 -0.666992 -2.00098 -2l-67 -355c0 -2.66699 1 -4 3 -4z
M434.002 -173c0 -4.66699 -2.66797 -8.00098 -8.00098 -10.001c-13.333 -2.66699 -25.333 -4 -36 -4c-23.333 0 -43 6.16699 -59 18.5s-24 33.833 -24 64.5c0 36.667 15 69 45 97l4 4c2 2 5.33301 3 10 3h41c4.66699 0 7.5 -1.16699 8.5 -3.5
s-0.166992 -5.16602 -3.5 -8.49902c-27.333 -27.333 -41 -53.333 -41 -78c0 -14.667 3.33301 -25.5 10 -32.5s15.334 -10.5 26.001 -10.5c4.66699 0 8 0.333008 10 1h3c5.33301 0 8.33301 -2.33301 9 -7l5 -32v-2z" />
    <glyph glyph-name="aogonek" unicode="&#x105;" horiz-adv-x="423" 
d="M375 -132c5.33301 0 8.32812 -2.33691 8.99512 -7.00391l5 -32v-2c0 -4.66699 -2.66699 -7.66699 -8 -9c-11.333 -3.33301 -23.666 -5 -36.999 -5c-22.667 0 -42 6.33301 -58 19s-24 34.334 -24 65.001c0 36.667 15.667 69.334 47 98.001c2 3.33301 1.33301 5 -2 5h-11
c-6.66699 0 -10 3.33301 -10 10v22c0 1.33301 -0.5 2.33301 -1.5 3s-2.16699 0.333984 -3.5 -0.999023c-23.333 -28 -57.666 -42 -102.999 -42c-38 0 -71.5 10.833 -100.5 32.5s-43.5 60.167 -43.5 115.5c0 58 17.5 100.5 52.5 127.5s80.833 40.5 137.5 40.5h58
c2.66699 0 4 1.33301 4 4v29c0 28 -6.66699 50.5 -20 67.5s-30.666 25.5 -51.999 25.5c-16.667 0 -30.667 -5.66699 -42 -17s-18 -26 -20 -44c0 -6.66699 -3.33301 -10 -10 -10h-81c-3.33301 0 -5.83301 1 -7.5 3s-2.16699 4.33301 -1.5 7
c2.66699 42.667 19.334 77.334 50.001 104.001s68.667 40 114 40c48.667 0 88.5 -15.333 119.5 -46s46.5 -71 46.5 -121v-340l-1 -10h-1c-36 -31.333 -54 -61.333 -54 -90c0 -14.667 3.33301 -25.5 10 -32.5s15.334 -10.5 26.001 -10.5c4.66699 0 8 0.333008 10 1h3z
M259.995 97.9961c17.333 14.667 26.001 35.332 26.001 61.999v68c0 2.66699 -1.33301 4 -4 4h-61c-26.667 0 -48 -7.16699 -64 -21.5s-24 -35.166 -24 -62.499c0 -24 6 -42 18 -54s28 -18 48 -18c23.333 0 43.666 7.33301 60.999 22z" />
    <glyph glyph-name="Cacute" unicode="&#x106;" horiz-adv-x="452" 
d="M97.5 41.5c-33 33 -49.5 76.833 -49.5 131.5v355c0 54.667 16.5 98.334 49.5 131.001s76.5 49 130.5 49c54.667 0 98.5 -16.333 131.5 -49s49.5 -76.334 49.5 -131.001v-16c0 -6.66699 -3.33301 -10 -10 -10l-76 -4c-6.66699 0 -10 3.33301 -10 10v26
c0 27.333 -7.83301 49.333 -23.5 66s-36.167 25 -61.5 25s-45.666 -8.33301 -60.999 -25s-23 -38.667 -23 -66v-368c0 -27.333 7.66699 -49.333 23 -66s35.666 -25 60.999 -25s45.833 8.33301 61.5 25s23.5 38.667 23.5 66v26c0 6.66699 3.33301 10 10 10l76 -4
c6.66699 0 10 -3.33301 10 -10v-15c0 -54.667 -16.5 -98.5 -49.5 -131.5s-76.833 -49.5 -131.5 -49.5c-54 0 -97.5 16.5 -130.5 49.5zM177 767.5c-1.33301 2.33301 -1 5.16602 1 8.49902l62 108c3.33301 4.66699 7.33301 7 12 7h61c4 0 6.66699 -1.16699 8 -3.5
s1 -5.16602 -1 -8.49902l-74 -109c-2.66699 -4 -6.66699 -6 -12 -6h-49c-4 0 -6.66699 1.16699 -8 3.5z" />
    <glyph glyph-name="cacute" unicode="&#x107;" horiz-adv-x="413" 
d="M88.5 35c-30.333 28.667 -45.501 67.334 -45.501 116.001v207c0 47.333 15.167 85.666 45.5 114.999s71.166 44 122.499 44c34 0 63.833 -6.5 89.5 -19.5s45.334 -30.667 59.001 -53s20.5 -47.5 20.5 -75.5v-13c0 -6.66699 -3.33301 -10 -10 -10l-76 -3
c-6.66699 0 -10 3.33301 -10 10v10c0 19.333 -7 36 -21 50s-31.333 21 -52 21c-21.333 0 -38.666 -7.66699 -51.999 -23s-20 -35 -20 -59v-195c0 -24 6.66699 -43.667 20 -59s30.666 -23 51.999 -23c20.667 0 38 7 52 21s21 30.667 21 50v10c0 6.66699 3.33301 10 10 10
l76 -1c6.66699 0 10 -3.33301 10 -10v-15c0 -43.333 -15.333 -78.833 -46 -106.5s-71.667 -41.5 -123 -41.5s-92.166 14.333 -122.499 43zM159.999 576.5c-1.33301 2.33301 -1 5.16602 1 8.49902l62 108c3.33301 4.66699 7.33301 7 12 7h61c4 0 6.66699 -1.16699 8 -3.5
s1 -5.16602 -1 -8.49902l-74 -109c-2.66699 -4 -6.66699 -6 -12 -6h-49c-4 0 -6.66699 1.16699 -8 3.5z" />
    <glyph glyph-name="Ccircumflex" unicode="&#x108;" horiz-adv-x="452" 
d="M97.5 41.5c-33 33 -49.5 76.833 -49.5 131.5v355c0 54.667 16.5 98.334 49.5 131.001s76.5 49 130.5 49c54.667 0 98.5 -16.333 131.5 -49s49.5 -76.334 49.5 -131.001v-16c0 -6.66699 -3.33301 -10 -10 -10l-76 -4c-6.66699 0 -10 3.33301 -10 10v26
c0 27.333 -7.83301 49.333 -23.5 66s-36.167 25 -61.5 25s-45.666 -8.33301 -60.999 -25s-23 -38.667 -23 -66v-368c0 -27.333 7.66699 -49.333 23 -66s35.666 -25 60.999 -25s45.833 8.33301 61.5 25s23.5 38.667 23.5 66v26c0 6.66699 3.33301 10 10 10l76 -4
c6.66699 0 10 -3.33301 10 -10v-15c0 -54.667 -16.5 -98.5 -49.5 -131.5s-76.833 -49.5 -131.5 -49.5c-54 0 -97.5 16.5 -130.5 49.5zM104.5 771.5c-1 2.33301 -0.5 5.16699 1.5 8.5l65 104c3.33301 4.66699 7.33301 7 12 7h85c4.66699 0 8.66699 -2.33301 12 -7l68 -104
c1.33301 -2.66699 2 -4.66699 2 -6c0 -4 -2.66699 -6 -8 -6h-61c-4.66699 0 -8.66699 2.33301 -12 7l-39 68c-0.666992 1.33301 -1.66699 2 -3 2s-2.33301 -0.666992 -3 -2l-39 -68c-3.33301 -4.66699 -7.33301 -7 -12 -7h-61c-4 0 -6.5 1.16699 -7.5 3.5z" />
    <glyph glyph-name="ccircumflex" unicode="&#x109;" horiz-adv-x="413" 
d="M88.5 35c-30.333 28.667 -45.501 67.334 -45.501 116.001v207c0 47.333 15.167 85.666 45.5 114.999s71.166 44 122.499 44c34 0 63.833 -6.5 89.5 -19.5s45.334 -30.667 59.001 -53s20.5 -47.5 20.5 -75.5v-13c0 -6.66699 -3.33301 -10 -10 -10l-76 -3
c-6.66699 0 -10 3.33301 -10 10v10c0 19.333 -7 36 -21 50s-31.333 21 -52 21c-21.333 0 -38.666 -7.66699 -51.999 -23s-20 -35 -20 -59v-195c0 -24 6.66699 -43.667 20 -59s30.666 -23 51.999 -23c20.667 0 38 7 52 21s21 30.667 21 50v10c0 6.66699 3.33301 10 10 10
l76 -1c6.66699 0 10 -3.33301 10 -10v-15c0 -43.333 -15.333 -78.833 -46 -106.5s-71.667 -41.5 -123 -41.5s-92.166 14.333 -122.499 43zM87.499 580.5c-1 2.33301 -0.5 5.16699 1.5 8.5l65 104c3.33301 4.66699 7.33301 7 12 7h85c4.66699 0 8.66699 -2.33301 12 -7
l68 -104c1.33301 -2.66699 2 -4.66699 2 -6c0 -4 -2.66699 -6 -8 -6h-61c-4.66699 0 -8.66699 2.33301 -12 7l-39 68c-0.666992 1.33301 -1.66699 2 -3 2s-2.33301 -0.666992 -3 -2l-39 -68c-3.33301 -4.66699 -7.33301 -7 -12 -7h-61c-4 0 -6.5 1.16699 -7.5 3.5z" />
    <glyph glyph-name="Cdotaccent" unicode="&#x10a;" horiz-adv-x="452" 
d="M97.5 41.5c-33 33 -49.5 76.833 -49.5 131.5v355c0 54.667 16.5 98.334 49.5 131.001s76.5 49 130.5 49c54.667 0 98.5 -16.333 131.5 -49s49.5 -76.334 49.5 -131.001v-16c0 -6.66699 -3.33301 -10 -10 -10l-76 -4c-6.66699 0 -10 3.33301 -10 10v26
c0 27.333 -7.83301 49.333 -23.5 66s-36.167 25 -61.5 25s-45.666 -8.33301 -60.999 -25s-23 -38.667 -23 -66v-368c0 -27.333 7.66699 -49.333 23 -66s35.666 -25 60.999 -25s45.833 8.33301 61.5 25s23.5 38.667 23.5 66v26c0 6.66699 3.33301 10 10 10l76 -4
c6.66699 0 10 -3.33301 10 -10v-15c0 -54.667 -16.5 -98.5 -49.5 -131.5s-76.833 -49.5 -131.5 -49.5c-54 0 -97.5 16.5 -130.5 49.5zM182 798c-12 12 -18 27.333 -18 46s6 34 18 46s27.333 18 46 18s34 -6 46 -18s18 -27.333 18 -46s-6 -34 -18 -46s-27.333 -18 -46 -18
s-34 6 -46 18z" />
    <glyph glyph-name="cdotaccent" unicode="&#x10b;" horiz-adv-x="413" 
d="M88.5 35c-30.333 28.667 -45.501 67.334 -45.501 116.001v207c0 47.333 15.167 85.666 45.5 114.999s71.166 44 122.499 44c34 0 63.833 -6.5 89.5 -19.5s45.334 -30.667 59.001 -53s20.5 -47.5 20.5 -75.5v-13c0 -6.66699 -3.33301 -10 -10 -10l-76 -3
c-6.66699 0 -10 3.33301 -10 10v10c0 19.333 -7 36 -21 50s-31.333 21 -52 21c-21.333 0 -38.666 -7.66699 -51.999 -23s-20 -35 -20 -59v-195c0 -24 6.66699 -43.667 20 -59s30.666 -23 51.999 -23c20.667 0 38 7 52 21s21 30.667 21 50v10c0 6.66699 3.33301 10 10 10
l76 -1c6.66699 0 10 -3.33301 10 -10v-15c0 -43.333 -15.333 -78.833 -46 -106.5s-71.667 -41.5 -123 -41.5s-92.166 14.333 -122.499 43zM164.999 607c-12 12 -18 27.333 -18 46s6 34 18 46s27.333 18 46 18s34 -6 46 -18s18 -27.333 18 -46s-6 -34 -18 -46
s-27.333 -18 -46 -18s-34 6 -46 18z" />
    <glyph glyph-name="Ccaron" unicode="&#x10c;" horiz-adv-x="452" 
d="M97.5 41.5c-33 33 -49.5 76.833 -49.5 131.5v355c0 54.667 16.5 98.334 49.5 131.001s76.5 49 130.5 49c54.667 0 98.5 -16.333 131.5 -49s49.5 -76.334 49.5 -131.001v-16c0 -6.66699 -3.33301 -10 -10 -10l-76 -4c-6.66699 0 -10 3.33301 -10 10v26
c0 27.333 -7.83301 49.333 -23.5 66s-36.167 25 -61.5 25s-45.666 -8.33301 -60.999 -25s-23 -38.667 -23 -66v-368c0 -27.333 7.66699 -49.333 23 -66s35.666 -25 60.999 -25s45.833 8.33301 61.5 25s23.5 38.667 23.5 66v26c0 6.66699 3.33301 10 10 10l76 -4
c6.66699 0 10 -3.33301 10 -10v-15c0 -54.667 -16.5 -98.5 -49.5 -131.5s-76.833 -49.5 -131.5 -49.5c-54 0 -97.5 16.5 -130.5 49.5zM108 885c0 4 2.66699 5.99902 8 5.99902h61c4.66699 0 8.66699 -2.33301 12 -7l39 -68c0.666992 -0.666992 1.66699 -1 3 -1
s2.33301 0.333008 3 1l39 68c3.33301 4.66699 7.33301 7 12 7h61c4 0 6.5 -1.16699 7.5 -3.5s0.5 -5.16602 -1.5 -8.49902l-68 -104c-3.33301 -4.66699 -7.33301 -7 -12 -7h-85c-4.66699 0 -8.66699 2.33301 -12 7l-65 104c-1.33301 2.66699 -2 4.66699 -2 6z" />
    <glyph glyph-name="ccaron" unicode="&#x10d;" horiz-adv-x="413" 
d="M88.5 35c-30.333 28.667 -45.501 67.334 -45.501 116.001v207c0 47.333 15.167 85.666 45.5 114.999s71.166 44 122.499 44c34 0 63.833 -6.5 89.5 -19.5s45.334 -30.667 59.001 -53s20.5 -47.5 20.5 -75.5v-13c0 -6.66699 -3.33301 -10 -10 -10l-76 -3
c-6.66699 0 -10 3.33301 -10 10v10c0 19.333 -7 36 -21 50s-31.333 21 -52 21c-21.333 0 -38.666 -7.66699 -51.999 -23s-20 -35 -20 -59v-195c0 -24 6.66699 -43.667 20 -59s30.666 -23 51.999 -23c20.667 0 38 7 52 21s21 30.667 21 50v10c0 6.66699 3.33301 10 10 10
l76 -1c6.66699 0 10 -3.33301 10 -10v-15c0 -43.333 -15.333 -78.833 -46 -106.5s-71.667 -41.5 -123 -41.5s-92.166 14.333 -122.499 43zM90.999 694c0 4 2.66699 5.99902 8 5.99902h61c4.66699 0 8.66699 -2.33301 12 -7l39 -68c0.666992 -0.666992 1.66699 -1 3 -1
s2.33301 0.333008 3 1l39 68c3.33301 4.66699 7.33301 7 12 7h61c4 0 6.5 -1.16699 7.5 -3.5s0.5 -5.16602 -1.5 -8.49902l-68 -104c-3.33301 -4.66699 -7.33301 -7 -12 -7h-85c-4.66699 0 -8.66699 2.33301 -12 7l-65 104c-1.33301 2.66699 -2 4.66699 -2 6z" />
    <glyph glyph-name="Dcaron" unicode="&#x10e;" horiz-adv-x="469" 
d="M62 10v680c0 6.66699 3.33301 10 10 10h164c55.333 0 99.333 -17 132 -51s49 -80 49 -138v-322c0 -58 -16.333 -104 -49 -138s-76.667 -51 -132 -51h-164c-6.66699 -0 -10 3.33301 -10 10zM162 83l73.001 1c25.333 0 45.666 9.83301 60.999 29.5s23.333 46.5 24 80.5v312
c0 34 -7.66699 61 -23 81s-36 30 -62 30h-73c-2.66699 0 -4 -1.33301 -4 -4v-526c0 -2.66699 1.33301 -4 4 -4zM109.001 883c0 4 2.66699 5.99902 8 5.99902h61c4.66699 0 8.66699 -2.33301 12 -7l39 -68c0.666992 -0.666992 1.66699 -1 3 -1s2.33301 0.333008 3 1l39 68
c3.33301 4.66699 7.33301 7 12 7h61c4 0 6.5 -1.16699 7.5 -3.5s0.5 -5.16602 -1.5 -8.49902l-68 -104c-3.33301 -4.66699 -7.33301 -7 -12 -7h-85c-4.66699 0 -8.66699 2.33301 -12 7l-65 104c-1.33301 2.66699 -2 4.66699 -2 6z" />
    <glyph glyph-name="dcaron" unicode="&#x10f;" horiz-adv-x="431" 
d="M292 700l76 -0.000976562c6.66699 0 10 -3.33301 10 -10v-680c0 -6.66699 -3.33301 -10 -10 -10h-76c-6.66699 0 -10 3.33301 -10 10v16c0 1.33301 -0.5 2.33301 -1.5 3s-2.16699 0.333984 -3.5 -0.999023c-12.667 -12 -27 -21 -43 -27s-32 -9 -48 -9
c-44 0 -78.833 14.5 -104.5 43.5s-38.5 67.167 -38.5 114.5v208c0 49.333 12.833 88.166 38.5 116.499s60.5 42.5 104.5 42.5c16 0 32 -3 48 -9s30.333 -15 43 -27c1.33301 -1.33301 2.5 -1.66602 3.5 -0.999023s1.5 1.66699 1.5 3v207c0 6.66699 3.33301 10 10 10z
M258.5 93.499c13 12.333 20.833 28.5 23.5 48.5v225c-2.66699 20 -10.5 36.167 -23.5 48.5s-28.833 18.5 -47.5 18.5c-21.333 0 -38.833 -7.66699 -52.5 -23s-20.5 -35 -20.5 -59v-195c0 -24 6.83301 -43.667 20.5 -59s31.167 -23 52.5 -23c18.667 0 34.5 6.16699 47.5 18.5
zM432 576.499c-1.33301 2.33301 -1 5.16602 1 8.49902l62 108c3.33301 4.66699 7.33301 7 12 7h61c4 0 6.66699 -1.16699 8 -3.5s1 -5.16602 -1 -8.49902l-74 -109c-2.66699 -4 -6.66699 -6 -12 -6h-49c-4 0 -6.66699 1.16699 -8 3.5z" />
    <glyph glyph-name="Dcroat" unicode="&#x110;" horiz-adv-x="508" 
d="M406.5 649c32.333 -34 48.5 -80 48.5 -138v-322c0 -58 -16.167 -104 -48.5 -138s-76.166 -51 -131.499 -51h-164c-6.66699 -0 -10 3.33301 -10 10v323c0 2.66699 -1.33301 4 -4 4h-25c-6.66699 0 -10 3.33301 -10 10v38c0 6.66699 3.33301 10 10 10h25
c2.66699 0 4 1.33301 4 4v291c0 6.66699 3.33301 10 10 10h164c55.333 0 99.166 -17 131.499 -51zM359 506c0 34 -7.66602 61 -22.999 81s-36.333 30 -63 30h-72c-2.66699 0 -4 -1.33301 -4 -4v-214c0 -2.66699 1.33301 -4 4 -4h63c6.66699 0 10 -3.33301 10 -10v-38
c0 -6.66699 -3.33301 -10 -10 -10h-63c-2.66699 0 -4 -1.33301 -4 -4v-246c0 -2.66699 1.33301 -4 4 -4l73 1c25.333 0 45.666 9.83301 60.999 29.5s23.333 46.5 24 80.5v312z" />
    <glyph glyph-name="dcroat" unicode="&#x111;" horiz-adv-x="431" 
d="M423 614v-41.001c0 -6.66699 -3.33301 -10 -10 -10h-31c-2.66699 0 -4 -1.33301 -4 -4v-549c0 -6.66699 -3.33301 -10 -10 -10h-76c-6.66699 0 -10 3.33301 -10 10v16c0 1.33301 -0.5 2.33301 -1.5 3s-2.16699 0.333984 -3.5 -0.999023c-12.667 -12 -27 -21 -43 -27
s-32 -9 -48 -9c-44 0 -78.833 14.5 -104.5 43.5s-38.5 67.167 -38.5 114.5v208c0 49.333 12.833 88.166 38.5 116.499s60.5 42.5 104.5 42.5c16 0 32 -3 48 -9s30.333 -15 43 -27c1.33301 -1.33301 2.5 -1.66602 3.5 -0.999023s1.5 1.66699 1.5 3v76
c0 2.66699 -1.33301 4 -4 4h-118c-6.66699 0 -10 3.33301 -10 10v41c0 6.66699 3.33301 10 10 10h118c2.66699 0 4 1.33301 4 4v62c0 6.66699 3.33301 10 10 10h76c6.66699 0 10 -3.33301 10 -10v-62c0 -2.66699 1.33301 -4 4 -4h31c6.66699 0 10 -3.33301 10 -10z
M258.5 93.499c13 12.333 20.833 28.5 23.5 48.5v225c-2.66699 20 -10.5 36.167 -23.5 48.5s-28.833 18.5 -47.5 18.5c-21.333 0 -38.833 -7.66699 -52.5 -23s-20.5 -35 -20.5 -59v-195c0 -24 6.83301 -43.667 20.5 -59s31.167 -23 52.5 -23c18.667 0 34.5 6.16699 47.5 18.5
z" />
    <glyph glyph-name="Emacron" unicode="&#x112;" 
d="M387 617h-225c-2.66699 0 -4 -1.33301 -4 -4v-217c0 -2.66699 1.33301 -4 4 -4h138c6.66699 0 10 -3.33301 10 -10v-63c0 -6.66699 -3.33301 -10 -10 -10h-138c-2.66699 0 -4 -1.33301 -4 -4v-218c0 -2.66699 1.33301 -4 4 -4h225c6.66699 0 10 -3.33301 10 -10v-63
c0 -6.66699 -3.33301 -10 -10 -10h-315c-6.66699 -0 -10 3.33301 -10 10v680c0 6.66699 3.33301 10 10 10h315c6.66699 0 10 -3.33301 10 -10v-63c0 -6.66699 -3.33301 -10 -10 -10zM124 791v48c0 6.66699 3.33301 10 10 10h188c6.66699 0 10 -3.33301 10 -10v-48
c0 -6.66699 -3.33301 -10 -10 -10h-188c-6.66699 0 -10 3.33301 -10 10z" />
    <glyph glyph-name="emacron" unicode="&#x113;" horiz-adv-x="418" 
d="M369 215l-226 -0.000976562c-2.66699 0 -4 -1.33301 -4 -4v-54c0 -24 6.66699 -43.667 20 -59s30.666 -23 51.999 -23c18.667 0 34.334 5.66699 47.001 17s20.667 26 24 44c2 5.33301 5.66699 8 11 8l74 -4c3.33301 0 5.83301 -1 7.5 -3s2.16699 -4.33301 1.5 -7
c-4.66699 -43.333 -21.167 -77.166 -49.5 -101.499s-66.833 -36.5 -115.5 -36.5c-51.333 0 -92.166 14.333 -122.499 43s-45.5 67 -45.5 115v208c0 47.333 15.167 85.666 45.5 114.999s71.166 44 122.499 44c52 0 93 -14.667 123 -44s45 -67.666 45 -114.999v-133
c0 -6.66699 -3.33301 -10 -10 -10zM159 410.999c-13.333 -15.333 -20.001 -35 -20.001 -59v-53c0 -2.66699 1.33301 -4 4 -4h137c2.66699 0 4 1.33301 4 4v53c0 24 -6.66699 43.667 -20 59s-31 23 -53 23c-21.333 0 -38.666 -7.66699 -51.999 -23zM101.999 620.999v47
c0 6.66699 3.33301 10 10 10h189c6.66699 0 10 -3.33301 10 -10v-47c0 -6.66699 -3.33301 -10 -10 -10h-189c-6.66699 0 -10 3.33301 -10 10z" />
    <glyph glyph-name="Edotaccent" unicode="&#x116;" 
d="M387 617h-225c-2.66699 0 -4 -1.33301 -4 -4v-217c0 -2.66699 1.33301 -4 4 -4h138c6.66699 0 10 -3.33301 10 -10v-63c0 -6.66699 -3.33301 -10 -10 -10h-138c-2.66699 0 -4 -1.33301 -4 -4v-218c0 -2.66699 1.33301 -4 4 -4h225c6.66699 0 10 -3.33301 10 -10v-63
c0 -6.66699 -3.33301 -10 -10 -10h-315c-6.66699 -0 -10 3.33301 -10 10v680c0 6.66699 3.33301 10 10 10h315c6.66699 0 10 -3.33301 10 -10v-63c0 -6.66699 -3.33301 -10 -10 -10zM184 798c-12 12 -18 27.333 -18 46s6 34 18 46s27.333 18 46 18s34 -6 46 -18
s18 -27.333 18 -46s-6 -34 -18 -46s-27.333 -18 -46 -18s-34 6 -46 18z" />
    <glyph glyph-name="edotaccent" unicode="&#x117;" horiz-adv-x="418" 
d="M369 215l-226 -0.000976562c-2.66699 0 -4 -1.33301 -4 -4v-54c0 -24 6.66699 -43.667 20 -59s30.666 -23 51.999 -23c18.667 0 34.334 5.66699 47.001 17s20.667 26 24 44c2 5.33301 5.66699 8 11 8l74 -4c3.33301 0 5.83301 -1 7.5 -3s2.16699 -4.33301 1.5 -7
c-4.66699 -43.333 -21.167 -77.166 -49.5 -101.499s-66.833 -36.5 -115.5 -36.5c-51.333 0 -92.166 14.333 -122.499 43s-45.5 67 -45.5 115v208c0 47.333 15.167 85.666 45.5 114.999s71.166 44 122.499 44c52 0 93 -14.667 123 -44s45 -67.666 45 -114.999v-133
c0 -6.66699 -3.33301 -10 -10 -10zM159 410.999c-13.333 -15.333 -20.001 -35 -20.001 -59v-53c0 -2.66699 1.33301 -4 4 -4h137c2.66699 0 4 1.33301 4 4v53c0 24 -6.66699 43.667 -20 59s-31 23 -53 23c-21.333 0 -38.666 -7.66699 -51.999 -23zM162.999 606.999
c-12 12 -18 27.333 -18 46s6 34 18 46s27.333 18 46 18s34 -6 46 -18s18 -27.333 18 -46s-6 -34 -18 -46s-27.333 -18 -46 -18s-34 6 -46 18z" />
    <glyph glyph-name="Eogonek" unicode="&#x118;" 
d="M387 617h-224.996c-2.66699 0 -4 -1.33301 -4 -4v-217c0 -2.66699 1.33301 -4 4 -4h138c6.66699 0 10 -3.33301 10 -10v-63c0 -6.66699 -3.33301 -10 -10 -10h-138c-2.66699 0 -4 -1.33301 -4 -4v-218c0 -2.66699 1.33301 -4 4 -4h225c6.66699 0 10 -3.33301 10 -10v-63
c0 -6.66699 -3.33301 -10 -10 -10h-125c-2 -0 -3.66699 -0.666992 -5 -2c-29.333 -29.333 -44 -56 -44 -80c0 -5.33301 0.333008 -9 1 -11c1.33301 -10.667 5.16602 -18.667 11.499 -24s14.166 -8 23.499 -8c4 0 7.33301 0.333008 10 1h2
c5.33301 0 8.66602 -2.66699 9.99902 -8l5 -32v-2c0 -4.66699 -2.66699 -7.66699 -8 -9c-12 -3.33301 -24.333 -5 -37 -5c-23.333 0 -43 6.33301 -59 19s-24 34.334 -24 65.001c0 33.333 13.333 63.666 40 90.999c1.33301 1.33301 1.66602 2.5 0.999023 3.5
s-1.66699 1.5 -3 1.5h-114c-6.66699 -0 -10 3.33301 -10 10v680c0 6.66699 3.33301 10 10 10h315c6.66699 0 10 -3.33301 10 -10v-63c0 -6.66699 -3.33301 -10 -10 -10z" />
    <glyph glyph-name="eogonek" unicode="&#x119;" horiz-adv-x="418" 
d="M369 215l-226.001 0.000976562c-2.66699 0 -4 -1.33301 -4 -4v-54c0 -24 6.66699 -43.667 20 -59s30.666 -23 51.999 -23c18.667 0 34.334 5.66699 47.001 17s20.667 26 24 44c2 5.33301 5.66699 8 11 8l74 -4c3.33301 0 5.83301 -1 7.5 -3s2.16699 -4.33301 1.5 -7
c-4 -38.667 -17.833 -70 -41.5 -94s-55.5 -38.333 -95.5 -43c-2 0 -3.66699 -0.666992 -5 -2c-24.667 -26.667 -37 -51.334 -37 -74.001c0 -14.667 3.5 -25.334 10.5 -32.001s15.833 -10 26.5 -10c4.66699 0 8 0.333008 10 1h2c4.66699 0 7.66699 -2.66699 9 -8l5 -32v-2
c0 -4.66699 -2.66699 -7.66699 -8 -9c-11.333 -3.33301 -23.666 -5 -36.999 -5c-22.667 0 -42 6.33301 -58 19s-24 34.334 -24 65.001c0 32 11.667 61 35 87c2.66699 2 2.33398 3.66699 -0.999023 5c-38.667 8 -69 25.5 -91 52.5s-33 60.833 -33 101.5v208
c0 47.333 15.167 85.666 45.5 114.999s71.166 44 122.499 44c52 0 93 -14.667 123 -44s45 -67.666 45 -114.999v-133c0 -6.66699 -3.33301 -10 -10 -10zM158.999 411.001c-13.333 -15.333 -20.001 -35 -20.001 -59v-53c0 -2.66699 1.33301 -4 4 -4h137
c2.66699 0 4 1.33301 4 4v53c0 24 -6.66699 43.667 -20 59s-31 23 -53 23c-21.333 0 -38.666 -7.66699 -51.999 -23z" />
    <glyph glyph-name="Ecaron" unicode="&#x11a;" 
d="M387 617h-225c-2.66699 0 -4 -1.33301 -4 -4v-217c0 -2.66699 1.33301 -4 4 -4h138c6.66699 0 10 -3.33301 10 -10v-63c0 -6.66699 -3.33301 -10 -10 -10h-138c-2.66699 0 -4 -1.33301 -4 -4v-218c0 -2.66699 1.33301 -4 4 -4h225c6.66699 0 10 -3.33301 10 -10v-63
c0 -6.66699 -3.33301 -10 -10 -10h-315c-6.66699 -0 -10 3.33301 -10 10v680c0 6.66699 3.33301 10 10 10h315c6.66699 0 10 -3.33301 10 -10v-63c0 -6.66699 -3.33301 -10 -10 -10zM110 885c0 4 2.66699 5.99902 8 5.99902h61c4.66699 0 8.66699 -2.33301 12 -7l39 -68
c0.666992 -0.666992 1.66699 -1 3 -1s2.33301 0.333008 3 1l39 68c3.33301 4.66699 7.33301 7 12 7h61c4 0 6.5 -1.16699 7.5 -3.5s0.5 -5.16602 -1.5 -8.49902l-68 -104c-3.33301 -4.66699 -7.33301 -7 -12 -7h-85c-4.66699 0 -8.66699 2.33301 -12 7l-65 104
c-1.33301 2.66699 -2 4.66699 -2 6z" />
    <glyph glyph-name="ecaron" unicode="&#x11b;" horiz-adv-x="418" 
d="M369 215l-226 -0.000976562c-2.66699 0 -4 -1.33301 -4 -4v-54c0 -24 6.66699 -43.667 20 -59s30.666 -23 51.999 -23c18.667 0 34.334 5.66699 47.001 17s20.667 26 24 44c2 5.33301 5.66699 8 11 8l74 -4c3.33301 0 5.83301 -1 7.5 -3s2.16699 -4.33301 1.5 -7
c-4.66699 -43.333 -21.167 -77.166 -49.5 -101.499s-66.833 -36.5 -115.5 -36.5c-51.333 0 -92.166 14.333 -122.499 43s-45.5 67 -45.5 115v208c0 47.333 15.167 85.666 45.5 114.999s71.166 44 122.499 44c52 0 93 -14.667 123 -44s45 -67.666 45 -114.999v-133
c0 -6.66699 -3.33301 -10 -10 -10zM159 410.999c-13.333 -15.333 -20.001 -35 -20.001 -59v-53c0 -2.66699 1.33301 -4 4 -4h137c2.66699 0 4 1.33301 4 4v53c0 24 -6.66699 43.667 -20 59s-31 23 -53 23c-21.333 0 -38.666 -7.66699 -51.999 -23zM87.999 691.999
c0 4 2.66699 5.99902 8 5.99902h61c4.66699 0 8.66699 -2.33301 12 -7l39 -68c0.666992 -0.666992 1.66699 -1 3 -1s2.33301 0.333008 3 1l39 68c3.33301 4.66699 7.33301 7 12 7h61c4 0 6.5 -1.16699 7.5 -3.5s0.5 -5.16602 -1.5 -8.49902l-68 -104
c-3.33301 -4.66699 -7.33301 -7 -12 -7h-85c-4.66699 0 -8.66699 2.33301 -12 7l-65 104c-1.33301 2.66699 -2 4.66699 -2 6z" />
    <glyph glyph-name="Gcircumflex" unicode="&#x11c;" horiz-adv-x="456" 
d="M97.5 40c-33 32 -49.5 74.333 -49.5 127v366c0 52.667 16.5 95 49.5 127s76.5 48 130.5 48s97.667 -16 131 -48s50 -74.667 50 -128v-42c0 -6.66699 -3.33301 -10 -10 -10h-76c-6.66699 0 -10 3.33301 -10 10v44c0 27.333 -7.83301 49.333 -23.5 66s-36.167 25 -61.5 25
s-45.833 -8.33301 -61.5 -25s-23.5 -38.667 -23.5 -66v-368c0 -27.333 7.83301 -49.333 23.5 -66s36.167 -25 61.5 -25s45.833 8.33301 61.5 25s23.5 38.667 23.5 66v110c0 2.66699 -1.33301 4 -4 4h-76c-6.66699 0 -10 3.33301 -10 10v62c0 6.66699 3.33301 10 10 10h166
c6.66699 0 10 -3.33301 10 -10v-185c0 -52.667 -16.667 -95 -50 -127s-77 -48 -131 -48s-97.5 16 -130.5 48zM104.5 771.5c-1 2.33301 -0.5 5.16699 1.5 8.5l65 104c3.33301 4.66699 7.33301 7 12 7h85c4.66699 0 8.66699 -2.33301 12 -7l68 -104
c1.33301 -2.66699 2 -4.66699 2 -6c0 -4 -2.66699 -6 -8 -6h-61c-4.66699 0 -8.66699 2.33301 -12 7l-39 68c-0.666992 1.33301 -1.66699 2 -3 2s-2.33301 -0.666992 -3 -2l-39 -68c-3.33301 -4.66699 -7.33301 -7 -12 -7h-61c-4 0 -6.5 1.16699 -7.5 3.5z" />
    <glyph glyph-name="gcircumflex" unicode="&#x11d;" horiz-adv-x="423" 
d="M292 509h76.001c6.66699 0 10 -3.33301 10 -10v-484c0 -70 -16 -124.167 -48 -162.5s-87 -57.5 -165 -57.5l-27 1c-6.66699 0.666992 -10 4.33398 -10 11.001v64c0 6.66699 3.66699 10 11 10c54.667 -2 92.167 8.83301 112.5 32.5s30.5 60.5 30.5 110.5v21
c0 1.33301 -0.5 2.16602 -1.5 2.49902s-2.16699 -0.166992 -3.5 -1.5c-22.667 -30.667 -55 -46 -97 -46c-44 0 -77.833 14.167 -101.5 42.5s-35.5 66.833 -35.5 115.5v200c0 49.333 12 88.166 36 116.499s57.667 42.5 101 42.5s75.666 -15.333 96.999 -46
c1.33301 -1.33301 2.5 -1.66602 3.5 -0.999023s1.5 1.66699 1.5 3v26c0 6.66699 3.33301 10 10 10zM262.501 105.5c13 15 19.5 34.5 19.5 58.5v188c0 24 -6.5 43.667 -19.5 59s-30.167 23 -51.5 23s-38.666 -7.66699 -51.999 -23s-20 -35 -20 -59v-188
c0 -24 6.66699 -43.5 20 -58.5s30.666 -22.5 51.999 -22.5s38.5 7.5 51.5 22.5zM89.501 580.5c-1 2.33301 -0.5 5.16699 1.5 8.5l65 104c3.33301 4.66699 7.33301 7 12 7h85c4.66699 0 8.66699 -2.33301 12 -7l68 -104c1.33301 -2.66699 2 -4.66699 2 -6
c0 -4 -2.66699 -6 -8 -6h-61c-4.66699 0 -8.66699 2.33301 -12 7l-39 68c-0.666992 1.33301 -1.66699 2 -3 2s-2.33301 -0.666992 -3 -2l-39 -68c-3.33301 -4.66699 -7.33301 -7 -12 -7h-61c-4 0 -6.5 1.16699 -7.5 3.5z" />
    <glyph glyph-name="Gbreve" unicode="&#x11e;" horiz-adv-x="456" 
d="M97.5 40c-33 32 -49.5 74.333 -49.5 127v366c0 52.667 16.5 95 49.5 127s76.5 48 130.5 48s97.667 -16 131 -48s50 -74.667 50 -128v-42c0 -6.66699 -3.33301 -10 -10 -10h-76c-6.66699 0 -10 3.33301 -10 10v44c0 27.333 -7.83301 49.333 -23.5 66s-36.167 25 -61.5 25
s-45.833 -8.33301 -61.5 -25s-23.5 -38.667 -23.5 -66v-368c0 -27.333 7.83301 -49.333 23.5 -66s36.167 -25 61.5 -25s45.833 8.33301 61.5 25s23.5 38.667 23.5 66v110c0 2.66699 -1.33301 4 -4 4h-76c-6.66699 0 -10 3.33301 -10 10v62c0 6.66699 3.33301 10 10 10h166
c6.66699 0 10 -3.33301 10 -10v-185c0 -52.667 -16.667 -95 -50 -127s-77 -48 -131 -48s-97.5 16 -130.5 48zM151.5 774c-20.333 18.667 -31.834 42.667 -34.501 72c0 6.66699 3.33301 10 10 10h34c6.66699 0 10.334 -3.33301 11.001 -10c2 -16 8.16699 -29 18.5 -39
s22.833 -15 37.5 -15s27.167 5 37.5 15s16.166 23 17.499 39c0.666992 6.66699 4.33398 10 11.001 10h34c6.66699 0 10 -3.33301 10 -10c-2.66699 -29.333 -14 -53.333 -34 -72s-45.333 -28 -76 -28s-56.167 9.33301 -76.5 28z" />
    <glyph glyph-name="gbreve" unicode="&#x11f;" horiz-adv-x="423" 
d="M292 509h76.001c6.66699 0 10 -3.33301 10 -10v-484c0 -70 -16 -124.167 -48 -162.5s-87 -57.5 -165 -57.5l-27 1c-6.66699 0.666992 -10 4.33398 -10 11.001v64c0 6.66699 3.66699 10 11 10c54.667 -2 92.167 8.83301 112.5 32.5s30.5 60.5 30.5 110.5v21
c0 1.33301 -0.5 2.16602 -1.5 2.49902s-2.16699 -0.166992 -3.5 -1.5c-22.667 -30.667 -55 -46 -97 -46c-44 0 -77.833 14.167 -101.5 42.5s-35.5 66.833 -35.5 115.5v200c0 49.333 12 88.166 36 116.499s57.667 42.5 101 42.5s75.666 -15.333 96.999 -46
c1.33301 -1.33301 2.5 -1.66602 3.5 -0.999023s1.5 1.66699 1.5 3v26c0 6.66699 3.33301 10 10 10zM262.501 105.5c13 15 19.5 34.5 19.5 58.5v188c0 24 -6.5 43.667 -19.5 59s-30.167 23 -51.5 23s-38.666 -7.66699 -51.999 -23s-20 -35 -20 -59v-188
c0 -24 6.66699 -43.5 20 -58.5s30.666 -22.5 51.999 -22.5s38.5 7.5 51.5 22.5zM136.501 583c-20.333 18.667 -31.834 42.667 -34.501 72c0 6.66699 3.33301 10 10 10h34c6.66699 0 10.334 -3.33301 11.001 -10c2 -16 8.16699 -29 18.5 -39s22.833 -15 37.5 -15
s27.167 5 37.5 15s16.166 23 17.499 39c0.666992 6.66699 4.33398 10 11.001 10h34c6.66699 0 10 -3.33301 10 -10c-2.66699 -29.333 -14 -53.333 -34 -72s-45.333 -28 -76 -28s-56.167 9.33301 -76.5 28z" />
    <glyph glyph-name="Gdotaccent" unicode="&#x120;" horiz-adv-x="456" 
d="M97.5 40c-33 32 -49.5 74.333 -49.5 127v366c0 52.667 16.5 95 49.5 127s76.5 48 130.5 48s97.667 -16 131 -48s50 -74.667 50 -128v-42c0 -6.66699 -3.33301 -10 -10 -10h-76c-6.66699 0 -10 3.33301 -10 10v44c0 27.333 -7.83301 49.333 -23.5 66s-36.167 25 -61.5 25
s-45.833 -8.33301 -61.5 -25s-23.5 -38.667 -23.5 -66v-368c0 -27.333 7.83301 -49.333 23.5 -66s36.167 -25 61.5 -25s45.833 8.33301 61.5 25s23.5 38.667 23.5 66v110c0 2.66699 -1.33301 4 -4 4h-76c-6.66699 0 -10 3.33301 -10 10v62c0 6.66699 3.33301 10 10 10h166
c6.66699 0 10 -3.33301 10 -10v-185c0 -52.667 -16.667 -95 -50 -127s-77 -48 -131 -48s-97.5 16 -130.5 48zM182 798c-12 12 -18 27.333 -18 46s6 34 18 46s27.333 18 46 18s34 -6 46 -18s18 -27.333 18 -46s-6 -34 -18 -46s-27.333 -18 -46 -18s-34 6 -46 18z" />
    <glyph glyph-name="gdotaccent" unicode="&#x121;" horiz-adv-x="423" 
d="M292 509h76.001c6.66699 0 10 -3.33301 10 -10v-484c0 -70 -16 -124.167 -48 -162.5s-87 -57.5 -165 -57.5l-27 1c-6.66699 0.666992 -10 4.33398 -10 11.001v64c0 6.66699 3.66699 10 11 10c54.667 -2 92.167 8.83301 112.5 32.5s30.5 60.5 30.5 110.5v21
c0 1.33301 -0.5 2.16602 -1.5 2.49902s-2.16699 -0.166992 -3.5 -1.5c-22.667 -30.667 -55 -46 -97 -46c-44 0 -77.833 14.167 -101.5 42.5s-35.5 66.833 -35.5 115.5v200c0 49.333 12 88.166 36 116.499s57.667 42.5 101 42.5s75.666 -15.333 96.999 -46
c1.33301 -1.33301 2.5 -1.66602 3.5 -0.999023s1.5 1.66699 1.5 3v26c0 6.66699 3.33301 10 10 10zM262.501 105.5c13 15 19.5 34.5 19.5 58.5v188c0 24 -6.5 43.667 -19.5 59s-30.167 23 -51.5 23s-38.666 -7.66699 -51.999 -23s-20 -35 -20 -59v-188
c0 -24 6.66699 -43.5 20 -58.5s30.666 -22.5 51.999 -22.5s38.5 7.5 51.5 22.5zM167.001 607c-12 12 -18 27.333 -18 46s6 34 18 46s27.333 18 46 18s34 -6 46 -18s18 -27.333 18 -46s-6 -34 -18 -46s-27.333 -18 -46 -18s-34 6 -46 18z" />
    <glyph glyph-name="uni0122" unicode="&#x122;" horiz-adv-x="456" 
d="M97.5 40c-33 32 -49.5 74.333 -49.5 127v366c0 52.667 16.5 95 49.5 127s76.5 48 130.5 48s97.667 -16 131 -48s50 -74.667 50 -128v-42c0 -6.66699 -3.33301 -10 -10 -10h-76c-6.66699 0 -10 3.33301 -10 10v44c0 27.333 -7.83301 49.333 -23.5 66s-36.167 25 -61.5 25
s-45.833 -8.33301 -61.5 -25s-23.5 -38.667 -23.5 -66v-368c0 -27.333 7.83301 -49.333 23.5 -66s36.167 -25 61.5 -25s45.833 8.33301 61.5 25s23.5 38.667 23.5 66v110c0 2.66699 -1.33301 4 -4 4h-76c-6.66699 0 -10 3.33301 -10 10v62c0 6.66699 3.33301 10 10 10h166
c6.66699 0 10 -3.33301 10 -10v-185c0 -52.667 -16.667 -95 -50 -127s-77 -48 -131 -48s-97.5 16 -130.5 48zM163 -189.5c-1.33301 2.33301 -1 5.16602 1 8.49902l62 108c3.33301 4.66699 7.33301 7 12 7h61c4 0 6.66699 -1.16699 8 -3.5s1 -5.16602 -1 -8.49902l-74 -109
c-2.66699 -4 -6.66699 -6 -12 -6h-49c-4 0 -6.66699 1.16699 -8 3.5z" />
    <glyph glyph-name="uni0123" unicode="&#x123;" horiz-adv-x="423" 
d="M276 689.5c1.33301 -2.33301 1 -5.16602 -1 -8.49902l-61 -108c-3.33301 -4.66699 -7.33301 -7 -12 -7h-61c-4 0 -6.66699 1.16699 -8 3.5s-1 5.16602 1 8.49902l74 109c2.66699 4 6.66699 6 12 6h48c4 0 6.66699 -1.16699 8 -3.5zM292 509h76.001
c6.66699 0 10 -3.33301 10 -10v-484c0 -70 -16 -124.167 -48 -162.5s-87 -57.5 -165 -57.5l-27 1c-6.66699 0.666992 -10 4.33398 -10 11.001v64c0 6.66699 3.66699 10 11 10c54.667 -2 92.167 8.83301 112.5 32.5s30.5 60.5 30.5 110.5v21
c0 1.33301 -0.5 2.16602 -1.5 2.49902s-2.16699 -0.166992 -3.5 -1.5c-22.667 -30.667 -55 -46 -97 -46c-44 0 -77.833 14.167 -101.5 42.5s-35.5 66.833 -35.5 115.5v200c0 49.333 12 88.166 36 116.499s57.667 42.5 101 42.5s75.666 -15.333 96.999 -46
c1.33301 -1.33301 2.5 -1.66602 3.5 -0.999023s1.5 1.66699 1.5 3v26c0 6.66699 3.33301 10 10 10zM262.501 105.5c13 15 19.5 34.5 19.5 58.5v188c0 24 -6.5 43.667 -19.5 59s-30.167 23 -51.5 23s-38.666 -7.66699 -51.999 -23s-20 -35 -20 -59v-188
c0 -24 6.66699 -43.5 20 -58.5s30.666 -22.5 51.999 -22.5s38.5 7.5 51.5 22.5z" />
    <glyph glyph-name="Hcircumflex" unicode="&#x124;" horiz-adv-x="475" 
d="M327 700h76c6.66699 0 10 -3.33301 10 -10v-680c0 -6.66699 -3.33301 -10 -10 -10h-76c-6.66699 -0 -10 3.33301 -10 10v295c0 2.66699 -1.33301 4 -4 4h-151c-2.66699 0 -4 -1.33301 -4 -4v-295c0 -6.66699 -3.33301 -10 -10 -10h-76c-6.66699 -0 -10 3.33301 -10 10
v680c0 6.66699 3.33301 10 10 10h76c6.66699 0 10 -3.33301 10 -10v-294c0 -2.66699 1.33301 -4 4 -4h151c2.66699 0 4 1.33301 4 4v294c0 6.66699 3.33301 10 10 10zM112.5 772.5c-1 2.33301 -0.5 5.16699 1.5 8.5l65 104c3.33301 4.66699 7.33301 7 12 7h85
c4.66699 0 8.66699 -2.33301 12 -7l68 -104c1.33301 -2.66699 2 -4.66699 2 -6c0 -4 -2.66699 -6 -8 -6h-61c-4.66699 0 -8.66699 2.33301 -12 7l-39 68c-0.666992 1.33301 -1.66699 2 -3 2s-2.33301 -0.666992 -3 -2l-39 -68c-3.33301 -4.66699 -7.33301 -7 -12 -7h-61
c-4 0 -6.5 1.16699 -7.5 3.5z" />
    <glyph glyph-name="hcircumflex" unicode="&#x125;" 
d="M351.5 473.5c22.333 -28.333 33.5 -68.501 33.5 -120.501v-343c0 -6.66699 -3.33301 -10 -10 -10h-76c-6.66699 0 -10 3.33301 -10 10v335c0 28 -6 49.667 -18 65s-28.667 23 -50 23c-22 0 -39.167 -7.5 -51.5 -22.5s-19.166 -36.167 -20.499 -63.5
c0 -4 -0.333008 -6 -1 -6v-331c0 -6.66699 -3.33301 -10 -10 -10h-76c-6.66699 0 -10 3.33301 -10 10v680c0 6.66699 3.33301 10 10 10h76c6.66699 0 10 -3.33301 10 -10v-218c0 -1.33301 0.666992 -2.16602 2 -2.49902s2.66602 0.5 3.99902 2.5c24 29.333 57.667 44 101 44
c42 0 74.167 -14.167 96.5 -42.5zM101.5 753.499c-1 2.33301 -0.5 5.16699 1.5 8.5l65 104c3.33301 4.66699 7.33301 7 12 7h85c4.66699 0 8.66699 -2.33301 12 -7l68 -104c1.33301 -2.66699 2 -4.66699 2 -6c0 -4 -2.66699 -6 -8 -6h-61c-4.66699 0 -8.66699 2.33301 -12 7
l-39 68c-0.666992 1.33301 -1.66699 2 -3 2s-2.33301 -0.666992 -3 -2l-39 -68c-3.33301 -4.66699 -7.33301 -7 -12 -7h-61c-4 0 -6.5 1.16699 -7.5 3.5z" />
    <glyph glyph-name="Hbar" unicode="&#x126;" horiz-adv-x="475" 
d="M461 565v-47c0 -6.66699 -3.33301 -10 -10 -10h-34c-2.66699 0 -4 -1.33301 -4 -4v-494c0 -6.66699 -3.33301 -10 -10 -10h-76c-6.66699 -0 -10 3.33301 -10 10v295c0 2.66699 -1.33301 4 -4 4h-151c-2.66699 0 -4 -1.33301 -4 -4v-295c0 -6.66699 -3.33301 -10 -10 -10
h-76c-6.66699 -0 -10 3.33301 -10 10v494c0 2.66699 -1.33301 4 -4 4h-34c-6.66699 0 -10 3.33301 -10 10v47c0 6.66699 3.33301 10 10 10h34c2.66699 0 4 1.33301 4 4v111c0 6.66699 3.33301 10 10 10h76c6.66699 0 10 -3.33301 10 -10v-111c0 -2.66699 1.33301 -4 4 -4
h151c2.66699 0 4 1.33301 4 4v111c0 6.66699 3.33301 10 10 10h76c6.66699 0 10 -3.33301 10 -10v-111c0 -2.66699 1.33301 -4 4 -4h34c6.66699 0 10 -3.33301 10 -10zM317 396v108c0 2.66699 -1.33301 4 -4 4h-151c-2.66699 0 -4 -1.33301 -4 -4v-108
c0 -2.66699 1.33301 -4 4 -4h151c2.66699 0 4 1.33301 4 4z" />
    <glyph glyph-name="hbar" unicode="&#x127;" 
d="M351.5 473.5c22.333 -28.333 33.5 -68.501 33.5 -120.501v-343c0 -6.66699 -3.33301 -10 -10 -10h-76c-6.66699 0 -10 3.33301 -10 10v335c0 28 -6 49.667 -18 65s-28.667 23 -50 23c-22 0 -39.167 -7.5 -51.5 -22.5s-19.166 -36.167 -20.499 -63.5
c0 -4 -0.333008 -6 -1 -6v-331c0 -6.66699 -3.33301 -10 -10 -10h-76c-6.66699 0 -10 3.33301 -10 10v538c0 2.66699 -1.33301 4 -4 4h-37c-6.66699 0 -10 3.33301 -10 10v41c0 6.66699 3.33301 10 10 10h37c2.66699 0 4 1.33301 4 4v73c0 6.66699 3.33301 10 10 10h76
c6.66699 0 10 -3.33301 10 -10v-73c0 -2.66699 1.33301 -4 4 -4h112c6.66699 0 10 -3.33301 10 -10v-41c0 -6.66699 -3.33301 -10 -10 -10h-112c-2.66699 0 -4 -1.33301 -4 -4v-76c0 -1.33301 0.666992 -2.16602 2 -2.49902s2.66602 0.5 3.99902 2.5
c24 29.333 57.667 44 101 44c42 0 74.167 -14.167 96.5 -42.5z" />
    <glyph glyph-name="Itilde" unicode="&#x128;" horiz-adv-x="220" 
d="M62 10v680c0 6.66699 3.33301 10 10 10h76c6.66699 0 10 -3.33301 10 -10v-680c0 -6.66699 -3.33301 -10 -10 -10h-76c-6.66699 -0 -10 3.33301 -10 10zM148.5 796c-7.66699 3.33301 -17.498 8.33398 -29.498 15.001c-3.33301 2 -7.83301 5 -13.5 9
s-10.667 6.83301 -15 8.5s-9.16602 2.5 -14.499 2.5c-8.66699 0 -16.167 -1.83301 -22.5 -5.5s-12.833 -10.5 -19.5 -20.5c-1.33301 -2.66699 -3.33301 -4.33398 -6 -5.00098s-5.33398 0 -8.00098 2l-28 20c-4.66699 4 -5.66699 8.33301 -3 13c8.66699 20 20 35 34 45
s29.333 15 46 15c10.667 0 20.667 -2 30 -6s19.333 -9.66699 30 -17c2.66699 -1.33301 6.66699 -4 12 -8s10.666 -7 15.999 -9s10.666 -3 15.999 -3c8 0 15.333 1.83301 22 5.5s13 10.5 19 20.5c2.66699 6 7.33398 7 14.001 3l27 -18c2.66699 -2 4 -5 4 -9
c0 -2.66699 -1 -6 -3 -10c-10 -18.667 -22.667 -32.167 -38 -40.5s-30.333 -12.5 -45 -12.5c-8.66699 0 -16.834 1.66699 -24.501 5z" />
    <glyph glyph-name="itilde" unicode="&#x129;" horiz-adv-x="176" 
d="M40 10v489c0 6.66699 3.33301 10 10 10h76c6.66699 0 10 -3.33301 10 -10v-489c0 -6.66699 -3.33301 -10 -10 -10h-76c-6.66699 -0 -10 3.33301 -10 10zM126.5 605c-7.66699 3.33301 -17.498 8.33398 -29.498 15.001c-3.33301 2 -7.83301 5 -13.5 9
s-10.667 6.83301 -15 8.5s-9.16602 2.5 -14.499 2.5c-8.66699 0 -16.167 -1.83301 -22.5 -5.5s-12.833 -10.5 -19.5 -20.5c-1.33301 -2.66699 -3.33301 -4.33398 -6 -5.00098s-5.33398 0 -8.00098 2l-28 20c-4.66699 4 -5.66699 8.33301 -3 13c8.66699 20 20 35 34 45
s29.333 15 46 15c10.667 0 20.667 -2 30 -6s19.333 -9.66699 30 -17c2.66699 -1.33301 6.66699 -4 12 -8s10.666 -7 15.999 -9s10.666 -3 15.999 -3c8 0 15.333 1.83301 22 5.5s13 10.5 19 20.5c2.66699 6 7.33398 7 14.001 3l27 -18c2.66699 -2 4 -5 4 -9
c0 -2.66699 -1 -6 -3 -10c-10 -18.667 -22.667 -32.167 -38 -40.5s-30.333 -12.5 -45 -12.5c-8.66699 0 -16.834 1.66699 -24.501 5z" />
    <glyph glyph-name="Imacron" unicode="&#x12a;" horiz-adv-x="220" 
d="M62 10v680c0 6.66699 3.33301 10 10 10h76c6.66699 0 10 -3.33301 10 -10v-680c0 -6.66699 -3.33301 -10 -10 -10h-76c-6.66699 -0 -10 3.33301 -10 10zM4 791v48c0 6.66699 3.33301 10 10 10h188c6.66699 0 10 -3.33301 10 -10v-48c0 -6.66699 -3.33301 -10 -10 -10
h-188c-6.66699 0 -10 3.33301 -10 10z" />
    <glyph glyph-name="imacron" unicode="&#x12b;" horiz-adv-x="176" 
d="M40 10v489c0 6.66699 3.33301 10 10 10h76c6.66699 0 10 -3.33301 10 -10v-489c0 -6.66699 -3.33301 -10 -10 -10h-76c-6.66699 -0 -10 3.33301 -10 10zM-18 600v48c0 6.66699 3.33301 10 10 10h188c6.66699 0 10 -3.33301 10 -10v-48c0 -6.66699 -3.33301 -10 -10 -10
h-188c-6.66699 0 -10 3.33301 -10 10z" />
    <glyph glyph-name="ibreve" unicode="&#x12d;" horiz-adv-x="176" 
d="M40 10v489c0 6.66699 3.33301 10 10 10h76c6.66699 0 10 -3.33301 10 -10v-489c0 -6.66699 -3.33301 -10 -10 -10h-76c-6.66699 -0 -10 3.33301 -10 10zM13 602c-20.667 18.667 -32.334 42.667 -35.001 72c0 6.66699 3.33301 10 10 10h34c6.66699 0 10 -3.33301 10 -10
c2.66699 -15.333 9.16699 -28 19.5 -38s22.833 -15 37.5 -15s27 5 37 15s16 22.667 18 38c0.666992 6.66699 4.33398 10 11.001 10h34c3.33301 0 5.83301 -1 7.5 -3s2.16699 -4.33301 1.5 -7c-2 -29.333 -13.167 -53.333 -33.5 -72s-45.5 -28 -75.5 -28
s-55.333 9.33301 -76 28z" />
    <glyph glyph-name="Iogonek" unicode="&#x12e;" horiz-adv-x="198" 
d="M51 10v680c0 6.66699 3.33301 10 10 10h76c6.66699 0 10 -3.33301 10 -10v-680c0 -6.66699 -3.33301 -10 -10 -10h-76c-6.66699 -0 -10 3.33301 -10 10zM156 -174c0 -4 -2.33398 -6.99902 -7.00098 -8.99902c-13.333 -2.66699 -25.333 -4 -36 -4
c-23.333 0 -43.166 6.16699 -59.499 18.5s-24.5 33.833 -24.5 64.5c0 37.333 14.667 69.666 44 96.999l4 4c2.66699 2 6 3 10 3h42c4.66699 -0 7.5 -1.16699 8.5 -3.5s-0.166992 -5.16602 -3.5 -8.49902c-27.333 -28.667 -41 -55 -41 -79
c0 -14.667 3.5 -25.334 10.5 -32.001s15.833 -10 26.5 -10c4 0 7 0.333008 9 1h3c5.33301 0 8.33301 -2.33301 9 -7l5 -32v-3z" />
    <glyph glyph-name="iogonek" unicode="&#x12f;" horiz-adv-x="224" 
d="M71 10v489c0 6.66699 3.33301 10 10 10h76c6.66699 0 10 -3.33301 10 -10v-489c0 -6.66699 -3.33301 -10 -10 -10h-76c-6.66699 -0 -10 3.33301 -10 10zM73 607c-12 12 -18 27.333 -18 46s6 34 18 46s27.333 18 46 18s34 -6 46 -18s18 -27.333 18 -46s-6 -34 -18 -46
s-27.333 -18 -46 -18s-34 6 -46 18zM176 -174c0 -4 -2.33398 -6.99902 -7.00098 -8.99902c-13.333 -2.66699 -25.333 -4 -36 -4c-23.333 0 -43.166 6.16699 -59.499 18.5s-24.5 33.833 -24.5 64.5c0 37.333 14.667 69.666 44 96.999l4 4c2.66699 2 6 3 10 3h42
c4.66699 -0 7.5 -1.16699 8.5 -3.5s-0.166992 -5.16602 -3.5 -8.49902c-27.333 -28.667 -41 -55 -41 -79c0 -14.667 3.5 -25.334 10.5 -32.001s15.833 -10 26.5 -10c4 0 7 0.333008 9 1h3c5.33301 0 8.33301 -2.33301 9 -7l5 -32v-3z" />
    <glyph glyph-name="Idotaccent" unicode="&#x130;" horiz-adv-x="220" 
d="M62 10v680c0 6.66699 3.33301 10 10 10h76c6.66699 0 10 -3.33301 10 -10v-680c0 -6.66699 -3.33301 -10 -10 -10h-76c-6.66699 -0 -10 3.33301 -10 10zM64 798c-12 12 -18 27.333 -18 46s6 34 18 46s27.333 18 46 18s34 -6 46 -18s18 -27.333 18 -46s-6 -34 -18 -46
s-27.333 -18 -46 -18s-34 6 -46 18z" />
    <glyph glyph-name="dotlessi" unicode="&#x131;" horiz-adv-x="176" 
d="M40 10v489c0 6.66699 3.33301 10 10 10h76c6.66699 0 10 -3.33301 10 -10v-489c0 -6.66699 -3.33301 -10 -10 -10h-76c-6.66699 -0 -10 3.33301 -10 10z" />
    <glyph glyph-name="ij" unicode="&#x133;" horiz-adv-x="417" 
d="M59 607c-12 12 -18 27.333 -18 46s6 34 18 46s27.333 18 46 18c19.333 0 34.833 -5.83301 46.5 -17.5s17.5 -27.167 17.5 -46.5c0 -18.667 -6 -34 -18 -46s-27.333 -18 -46 -18s-34 6 -46 18zM58 10v489c0 6.66699 3.33301 10 10 10h76c6.66699 0 10 -3.33301 10 -10
v-489c0 -6.66699 -3.33301 -10 -10 -10h-76c-6.66699 -0 -10 3.33301 -10 10zM265 607c-12 12 -18 27.333 -18 46s6 34 18 46s27.333 18 46 18c19.333 0 35 -6 47 -18s18 -27.333 18 -46s-6.16699 -34 -18.5 -46s-27.833 -18 -46.5 -18s-34 6 -46 18zM172 -197
l-0.000976562 63c0 6.66699 3.33301 10 10 10c54 0.666992 81 32.667 81 96v527c0 6.66699 3.33301 10 10 10h76c6.66699 0 10 -3.33301 10 -10v-527c0 -41.333 -4.16699 -74.5 -12.5 -99.5s-25.166 -44.5 -50.499 -58.5s-62.333 -21 -111 -21
c-8.66699 0 -13 3.33301 -13 10z" />
    <glyph glyph-name="Jcircumflex" unicode="&#x134;" horiz-adv-x="435" 
d="M67.5 40.5c-32.333 32.333 -48.502 74.833 -48.502 127.5v79c0 6.66699 3.33301 10 10 10h76c6.66699 0 10 -3.33301 10 -10v-81c0 -26.667 7.5 -48.5 22.5 -65.5s34.5 -25.5 58.5 -25.5s43.5 8.5 58.5 25.5s22.5 38.833 22.5 65.5v524c0 6.66699 3.33301 10 10 10h76
c6.66699 0 10 -3.33301 10 -10v-522c0 -52.667 -16.167 -95.167 -48.5 -127.5s-75.166 -48.5 -128.499 -48.5s-96.166 16.167 -128.499 48.5zM199.498 772.5c-1 2.33301 -0.5 5.16699 1.5 8.5l65 104c3.33301 4.66699 7.33301 7 12 7h85c4.66699 0 8.66699 -2.33301 12 -7
l68 -104c1.33301 -2.66699 2 -4.66699 2 -6c0 -4 -2.66699 -6 -8 -6h-61c-4.66699 0 -8.66699 2.33301 -12 7l-39 68c-0.666992 1.33301 -1.66699 2 -3 2s-2.33301 -0.666992 -3 -2l-39 -68c-3.33301 -4.66699 -7.33301 -7 -12 -7h-61c-4 0 -6.5 1.16699 -7.5 3.5z" />
    <glyph glyph-name="jcircumflex" unicode="&#x135;" horiz-adv-x="206" 
d="M-39 -197l-0.000976562 63c0 6.66699 3.33301 10 10 10c54 0.666992 81 32.667 81 96v527c0 6.66699 3.33301 10 10 10h76c6.66699 0 10 -3.33301 10 -10v-527c0 -41.333 -4.16699 -74.5 -12.5 -99.5s-25.166 -44.5 -50.499 -58.5s-62.333 -21 -111 -21
c-8.66699 0 -13 3.33301 -13 10zM-22.501 580.5c-1 2.33301 -0.5 5.16699 1.5 8.5l65 104c3.33301 4.66699 7.33301 7 12 7h85c4.66699 0 8.66699 -2.33301 12 -7l68 -104c1.33301 -2.66699 2 -4.66699 2 -6c0 -4 -2.66699 -6 -8 -6h-61c-4.66699 0 -8.66699 2.33301 -12 7
l-39 68c-0.666992 1.33301 -1.66699 2 -3 2s-2.33301 -0.666992 -3 -2l-39 -68c-3.33301 -4.66699 -7.33301 -7 -12 -7h-61c-4 0 -6.5 1.16699 -7.5 3.5z" />
    <glyph glyph-name="uni0136" unicode="&#x136;" horiz-adv-x="466" 
d="M62 10l0.000976562 680.001c0 6.66699 3.33301 10 10 10h76c6.66699 0 10 -3.33301 10 -10v-300c0 -2 0.666992 -3.16699 2 -3.5s2.33301 0.5 3 2.5l170 304c3.33301 4.66699 7.33301 7 12 7h82c4 0 6.66699 -1.16699 8 -3.5s1 -5.16602 -1 -8.49902l-154 -278
c-0.666992 -2 -0.666992 -4 0 -6l167 -392l1 -4c0 -5.33301 -3 -8 -9 -8h-83c-5.33301 0 -9 2.66699 -11 8l-130 312c-0.666992 3.33301 -2.33398 3.66602 -5.00098 0.999023l-51 -81c-0.666992 -0.666992 -1 -2.33398 -1 -5.00098v-225c0 -6.66699 -3.33301 -10 -10 -10
h-76c-6.66699 -0 -10 3.33301 -10 10zM191.001 -181.499c-1.33301 2.33301 -1 5.16602 1 8.49902l62 108c3.33301 4.66699 7.33301 7 12 7h61c4 0 6.66699 -1.16699 8 -3.5s1 -5.16602 -1 -8.49902l-74 -109c-2.66699 -4 -6.66699 -6 -12 -6h-49
c-4 0 -6.66699 1.16699 -8 3.5z" />
    <glyph glyph-name="uni0137" unicode="&#x137;" horiz-adv-x="421" 
d="M52 10v679.999c0 6.66699 3.33301 10 10 10h76c6.66699 0 10 -3.33301 10 -10v-379c0 -2 0.666992 -3.33301 2 -4s2.33301 0 3 2l129 194c3.33301 4 7.33301 6 12 6h78c4 0 6.66699 -1.16699 8 -3.5s1 -5.16602 -1 -8.49902l-103 -152c-2 -2 -2.33301 -4 -1 -6l120 -328
l1 -4c0 -4.66699 -3 -7 -9 -7h-79c-6 0 -10 2.66699 -12 8l-80 251c-0.666992 4 -2.66699 4.33301 -6 1l-60 -87c-1.33301 -1.33301 -2 -3 -2 -5v-158c0 -6.66699 -3.33301 -10 -10 -10h-76c-6.66699 -0 -10 3.33301 -10 10zM157 -181.501
c-1.33301 2.33301 -1 5.16602 1 8.49902l62 108c3.33301 4.66699 7.33301 7 12 7h61c4 0 6.66699 -1.16699 8 -3.5s1 -5.16602 -1 -8.49902l-74 -109c-2.66699 -4 -6.66699 -6 -12 -6h-49c-4 0 -6.66699 1.16699 -8 3.5z" />
    <glyph glyph-name="Lacute" unicode="&#x139;" horiz-adv-x="407" 
d="M62 10v680c0 6.66699 3.33301 10 10 10h76c6.66699 0 10 -3.33301 10 -10v-603c0 -2.66699 1.33301 -4 4 -4h224c6.66699 0 10 -3.33301 10 -10v-63c0 -6.66699 -3.33301 -10 -10 -10h-314c-6.66699 -0 -10 3.33301 -10 10zM60 767.5
c-1.33301 2.33301 -1 5.16602 1 8.49902l62 108c3.33301 4.66699 7.33301 7 12 7h61c4 0 6.66699 -1.16699 8 -3.5s1 -5.16602 -1 -8.49902l-74 -109c-2.66699 -4 -6.66699 -6 -12 -6h-49c-4 0 -6.66699 1.16699 -8 3.5z" />
    <glyph glyph-name="lacute" unicode="&#x13a;" horiz-adv-x="191" 
d="M48 10v680c0 6.66699 3.33301 10 10 10h76c6.66699 0 10 -3.33301 10 -10v-680c0 -6.66699 -3.33301 -10 -10 -10h-76c-6.66699 -0 -10 3.33301 -10 10zM46 767.5c-1.33301 2.33301 -1 5.16602 1 8.49902l62 108c3.33301 4.66699 7.33301 7 12 7h61
c4 0 6.66699 -1.16699 8 -3.5s1 -5.16602 -1 -8.49902l-74 -109c-2.66699 -4 -6.66699 -6 -12 -6h-49c-4 0 -6.66699 1.16699 -8 3.5z" />
    <glyph glyph-name="uni013B" unicode="&#x13b;" horiz-adv-x="407" 
d="M62 10v680c0 6.66699 3.33301 10 10 10h76c6.66699 0 10 -3.33301 10 -10v-603c0 -2.66699 1.33301 -4 4 -4h224c6.66699 0 10 -3.33301 10 -10v-63c0 -6.66699 -3.33301 -10 -10 -10h-314c-6.66699 -0 -10 3.33301 -10 10zM137 -181.5
c-1.33301 2.33301 -1 5.16602 1 8.49902l62 108c3.33301 4.66699 7.33301 7 12 7h61c4 0 6.66699 -1.16699 8 -3.5s1 -5.16602 -1 -8.49902l-74 -109c-2.66699 -4 -6.66699 -6 -12 -6h-49c-4 0 -6.66699 1.16699 -8 3.5z" />
    <glyph glyph-name="uni013C" unicode="&#x13c;" horiz-adv-x="191" 
d="M48 10v680c0 6.66699 3.33301 10 10 10h76c6.66699 0 10 -3.33301 10 -10v-680c0 -6.66699 -3.33301 -10 -10 -10h-76c-6.66699 -0 -10 3.33301 -10 10zM-20 -181.5c-1.33301 2.33301 -1 5.16602 1 8.49902l62 108c3.33301 4.66699 7.33301 7 12 7h61
c4 0 6.66699 -1.16699 8 -3.5s1 -5.16602 -1 -8.49902l-74 -109c-2.66699 -4 -6.66699 -6 -12 -6h-49c-4 0 -6.66699 1.16699 -8 3.5z" />
    <glyph glyph-name="Lcaron" unicode="&#x13d;" horiz-adv-x="408" 
d="M62 10v680c0 6.66699 3.33301 10 10 10h76c6.66699 0 10 -3.33301 10 -10v-603c0 -2.66699 1.33301 -4 4 -4h224c6.66699 0 10 -3.33301 10 -10v-63c0 -6.66699 -3.33301 -10 -10 -10h-314c-6.66699 -0 -10 3.33301 -10 10zM202 576.5
c-1.33301 2.33301 -1 5.16602 1 8.49902l62 108c3.33301 4.66699 7.33301 7 12 7h61c4 0 6.66699 -1.16699 8 -3.5s1 -5.16602 -1 -8.49902l-74 -109c-2.66699 -4 -6.66699 -6 -12 -6h-49c-4 0 -6.66699 1.16699 -8 3.5z" />
    <glyph glyph-name="lcaron" unicode="&#x13e;" horiz-adv-x="357" 
d="M48 10v680c0 6.66699 3.33301 10 10 10h76c6.66699 0 10 -3.33301 10 -10v-680c0 -6.66699 -3.33301 -10 -10 -10h-76c-6.66699 -0 -10 3.33301 -10 10zM178 576.5c-1.33301 2.33301 -1 5.16602 1 8.49902l62 108c3.33301 4.66699 7.33301 7 12 7h61
c4 0 6.66699 -1.16699 8 -3.5s1 -5.16602 -1 -8.49902l-74 -109c-2.66699 -4 -6.66699 -6 -12 -6h-49c-4 0 -6.66699 1.16699 -8 3.5z" />
    <glyph glyph-name="ldot" unicode="&#x140;" horiz-adv-x="224" 
d="M64 10v680c0 6.66699 3.33301 10 10 10h76c6.66699 0 10 -3.33301 10 -10v-680c0 -6.66699 -3.33301 -10 -10 -10h-76c-6.66699 -0 -10 3.33301 -10 10zM67 798c-12 12 -18 27.333 -18 46s6 34 18 46s27.333 18 46 18s34 -6 46 -18s18 -27.333 18 -46s-6 -34 -18 -46
s-27.333 -18 -46 -18s-34 6 -46 18z" />
    <glyph glyph-name="Lslash" unicode="&#x141;" horiz-adv-x="448" 
d="M203 83h224c6.66699 0 10 -3.33301 10 -10v-63c0 -6.66699 -3.33301 -10 -10 -10h-314c-6.66699 -0 -10 3.33301 -10 10v213c0 1.33301 -0.5 2.33301 -1.5 3s-2.16699 0.333984 -3.5 -0.999023l-60 -46c-1.33301 -1.33301 -3.33301 -2 -6 -2c-3.33301 0 -6 1.33301 -8 4
l-34 41c-2 2 -3 4.33301 -3 7s1.33301 5 4 7l110 85c1.33301 1.33301 2 3 2 5v364c0 6.66699 3.33301 10 10 10h76c6.66699 0 10 -3.33301 10 -10v-287c0 -1.33301 0.5 -2.33301 1.5 -3s2.16699 -0.333984 3.5 0.999023l143 110c1.33301 1.33301 3.33301 2 6 2
c3.33301 0 6 -1.33301 8 -4l35 -42c2 -2 3 -4.33301 3 -7s-1.33301 -5 -4 -7l-194 -148c-1.33301 -1.33301 -2 -3 -2 -5v-213c0 -2.66699 1.33301 -4 4 -4z" />
    <glyph glyph-name="lslash" unicode="&#x142;" horiz-adv-x="326" 
d="M307 388c0 -4 -1.66699 -6.99902 -5 -8.99902l-94 -53c-2 -0.666992 -3 -2.33398 -3 -5.00098v-311c0 -6.66699 -3.33301 -10 -10 -10h-76c-6.66699 -0 -10 3.33301 -10 10v254c0 1.33301 -0.5 2.33301 -1.5 3s-2.16699 0.666992 -3.5 0l-46 -26
c-1.33301 -0.666992 -3 -1 -5 -1c-4 0 -7 1.66699 -9 5l-25 45c-0.666992 1.33301 -1 3 -1 5c0 4 1.66699 7 5 9l83 47c2 1.33301 3 3 3 5v334c0 6.66699 3.33301 10 10 10h76c6.66699 0 10 -3.33301 10 -10v-276c0 -1.33301 0.5 -2.33301 1.5 -3s2.16699 -0.666992 3.5 0
l56 32c1.33301 0.666992 3 1 5 1c4 0 7 -1.66699 9 -5l26 -46c0.666992 -1.33301 1 -3 1 -5z" />
    <glyph glyph-name="Nacute" unicode="&#x143;" horiz-adv-x="501" 
d="M354 700l75 -0.000976562c6.66699 0 10 -3.33301 10 -10v-680c0 -6.66699 -3.33301 -10 -10 -10h-86c-5.33301 0 -9 2.66699 -11 8l-170 457c-0.666992 1.33301 -1.66699 1.83301 -3 1.5s-2 -1.16602 -2 -2.49902l1 -454c0 -6.66699 -3.33301 -10 -10 -10h-76
c-6.66699 -0 -10 3.33301 -10 10v680c0 6.66699 3.33301 10 10 10h85c5.33301 0 9 -2.66699 11 -8l171 -457c0.666992 -2 1.66699 -2.83301 3 -2.5s2 1.5 2 3.5v454c0 6.66699 3.33301 10 10 10zM199 773.499c-1.33301 2.33301 -1 5.16602 1 8.49902l62 108
c3.33301 4.66699 7.33301 7 12 7h61c4 0 6.66699 -1.16699 8 -3.5s1 -5.16602 -1 -8.49902l-74 -109c-2.66699 -4 -6.66699 -6 -12 -6h-49c-4 0 -6.66699 1.16699 -8 3.5z" />
    <glyph glyph-name="nacute" unicode="&#x144;" 
d="M351.5 473.5c22.333 -28.333 33.5 -68.501 33.5 -120.501v-343c0 -6.66699 -3.33301 -10 -10 -10h-76c-6.66699 0 -10 3.33301 -10 10v335c0 28 -6 49.667 -18 65s-28.667 23 -50 23c-22 0 -39.167 -7.5 -51.5 -22.5s-19.166 -36.167 -20.499 -63.5
c0 -4 -0.333008 -6 -1 -6v-331c0 -6.66699 -3.33301 -10 -10 -10h-76c-6.66699 0 -10 3.33301 -10 10v489c0 6.66699 3.33301 10 10 10h76c6.66699 0 10 -3.33301 10 -10v-27c0 -1.33301 0.666992 -2.16602 2 -2.49902s2.66602 0.5 3.99902 2.5c24 29.333 57.667 44 101 44
c42 0 74.167 -14.167 96.5 -42.5zM169 576.499c-1.33301 2.33301 -1 5.16602 1 8.49902l62 108c3.33301 4.66699 7.33301 7 12 7h61c4 0 6.66699 -1.16699 8 -3.5s1 -5.16602 -1 -8.49902l-74 -109c-2.66699 -4 -6.66699 -6 -12 -6h-49c-4 0 -6.66699 1.16699 -8 3.5z" />
    <glyph glyph-name="uni0145" unicode="&#x145;" horiz-adv-x="501" 
d="M354 700l75 -0.000976562c6.66699 0 10 -3.33301 10 -10v-680c0 -6.66699 -3.33301 -10 -10 -10h-86c-5.33301 0 -9 2.66699 -11 8l-170 457c-0.666992 1.33301 -1.66699 1.83301 -3 1.5s-2 -1.16602 -2 -2.49902l1 -454c0 -6.66699 -3.33301 -10 -10 -10h-76
c-6.66699 -0 -10 3.33301 -10 10v680c0 6.66699 3.33301 10 10 10h85c5.33301 0 9 -2.66699 11 -8l171 -457c0.666992 -2 1.66699 -2.83301 3 -2.5s2 1.5 2 3.5v454c0 6.66699 3.33301 10 10 10zM190 -181.501c-1.33301 2.33301 -1 5.16602 1 8.49902l62 108
c3.33301 4.66699 7.33301 7 12 7h61c4 0 6.66699 -1.16699 8 -3.5s1 -5.16602 -1 -8.49902l-74 -109c-2.66699 -4 -6.66699 -6 -12 -6h-49c-4 0 -6.66699 1.16699 -8 3.5z" />
    <glyph glyph-name="uni0146" unicode="&#x146;" 
d="M351.5 473.5c22.333 -28.333 33.5 -68.501 33.5 -120.501v-343c0 -6.66699 -3.33301 -10 -10 -10h-76c-6.66699 0 -10 3.33301 -10 10v335c0 28 -6 49.667 -18 65s-28.667 23 -50 23c-22 0 -39.167 -7.5 -51.5 -22.5s-19.166 -36.167 -20.499 -63.5
c0 -4 -0.333008 -6 -1 -6v-331c0 -6.66699 -3.33301 -10 -10 -10h-76c-6.66699 0 -10 3.33301 -10 10v489c0 6.66699 3.33301 10 10 10h76c6.66699 0 10 -3.33301 10 -10v-27c0 -1.33301 0.666992 -2.16602 2 -2.49902s2.66602 0.5 3.99902 2.5c24 29.333 57.667 44 101 44
c42 0 74.167 -14.167 96.5 -42.5zM158 -181.501c-1.33301 2.33301 -1 5.16602 1 8.49902l62 108c3.33301 4.66699 7.33301 7 12 7h61c4 0 6.66699 -1.16699 8 -3.5s1 -5.16602 -1 -8.49902l-74 -109c-2.66699 -4 -6.66699 -6 -12 -6h-49c-4 0 -6.66699 1.16699 -8 3.5z" />
    </font>
</defs>
</svg>
