<?xml version="1.0" standalone="no"?>
<!DOCTYPE svg PUBLIC "-//W3C//DTD SVG 1.1//EN" "http://www.w3.org/Graphics/SVG/1.1/DTD/svg11.dtd" >
<svg>
<metadata>
Created by FontForge 20090914 at Mon Jun 28 19:46:26 2021
 By www-data
Copyright 2017 The Barlow Project Authors (https://github.com/jpt/barlow)
</metadata>
<defs>
<font id="BarlowCondensed-Light" horiz-adv-x="418" >
  <font-face 
    font-family="Barlow Condensed Light"
    font-weight="300"
    font-stretch="condensed"
    units-per-em="1000"
    panose-1="0 0 4 6 0 0 0 0 0 0"
    ascent="800"
    descent="-200"
    x-height="503.999"
    cap-height="700"
    bbox="-601.785 -211 974.001 1074"
    underline-thickness="50"
    underline-position="-50"
    unicode-range="U+000D-U+FB02"
  />
<missing-glyph horiz-adv-x="325" 
d="M4 0h317c2.66699 -0 4 1.33301 4 4v692c0 2.66699 -1.33301 4 -4 4h-317c-2.66699 0 -4 -1.33301 -4 -4v-692c-0 -2.66699 1.33301 -4 4 -4zM137 238l0.00195312 43.999c0 19.333 3.66699 35.333 11 48s18.666 27 33.999 43c16 16.667 28 32 36 46s12 32.333 12 55
c0 26.667 -5.66699 47.834 -17 63.501s-26.666 23.5 -45.999 23.5c-20 0 -36.167 -8 -48.5 -24s-18.5 -37 -18.5 -63v-22c0 -6.66699 -3.33301 -10 -10 -10l-18 1c-6.66699 0 -10 3.33301 -10 10v21c0 36.667 9.66699 66.167 29 88.5s44.666 33.5 75.999 33.5
s56.166 -11.167 74.499 -33.5s27.5 -52.166 27.5 -89.499c0 -29.333 -4.66699 -52.5 -14 -69.5s-23 -35.167 -41 -54.5c-12.667 -12.667 -22.167 -23.834 -28.5 -33.501s-9.5 -21.5 -9.5 -35.5v-42c0 -6.66699 -3.33301 -10 -10 -10h-19c-6.66699 0 -10 3.33301 -10 10z
M131.002 101.499c-6.66699 7 -10 15.5 -10 25.5c0 10.667 3.33301 19.334 10 26.001s15.334 10 26.001 10s19.334 -3.33301 26.001 -10s10 -15.334 10 -26.001c0 -10 -3.33301 -18.5 -10 -25.5s-15.334 -10.5 -26.001 -10.5s-19.334 3.5 -26.001 10.5z" />
    <glyph glyph-name="fi" unicode="fi" horiz-adv-x="476" 
d="M155 633.5c-10.667 -19 -15.999 -48.833 -15.999 -89.5v-36c0 -2.66699 1.33301 -4 4 -4h82c6.66699 0 10 -3.33301 10 -10v-22c0 -6.66699 -3.33301 -10 -10 -10h-82c-2.66699 0 -4 -1.33301 -4 -4v-448c0 -6.66699 -3.33301 -10 -10 -10h-33
c-6.66699 -0 -10 3.33301 -10 10v448c0 2.66699 -1.33301 4 -4 4h-42c-6.66699 0 -10 3.33301 -10 10v22c0 6.66699 3.33301 10 10 10h42c2.66699 0 4 1.33301 4 4v37c0 56 9.66699 97.167 29 123.5s52 39.5 98 39.5h15c6.66699 0 10 -3.33301 10 -10l-1 -26
c0 -6.66699 -3.33301 -10 -10 -10h-13c-28.667 0 -48.334 -9.5 -59.001 -28.5zM337.001 619c-9.33301 9.33301 -14 21.333 -14 36s4.66699 26.667 14 36s21.333 14 36 14s26.667 -4.66699 36 -14s14 -21.333 14 -36s-4.66699 -26.667 -14 -36s-21.333 -14 -36 -14
s-26.667 4.66699 -36 14zM347.001 10v484c0 6.66699 3.33301 10 10 10h33c6.66699 0 10 -3.33301 10 -10v-484c0 -6.66699 -3.33301 -10 -10 -10h-33c-6.66699 -0 -10 3.33301 -10 10z" />
    <glyph glyph-name="fl" unicode="fl" horiz-adv-x="445" 
d="M155 633.5c-10.667 -19 -15.999 -48.833 -15.999 -89.5v-36c0 -2.66699 1.33301 -4 4 -4h82c6.66699 0 10 -3.33301 10 -10v-22c0 -6.66699 -3.33301 -10 -10 -10h-82c-2.66699 0 -4 -1.33301 -4 -4v-448c0 -6.66699 -3.33301 -10 -10 -10h-33
c-6.66699 -0 -10 3.33301 -10 10v448c0 2.66699 -1.33301 4 -4 4h-42c-6.66699 0 -10 3.33301 -10 10v22c0 6.66699 3.33301 10 10 10h42c2.66699 0 4 1.33301 4 4v37c0 56 9.66699 97.167 29 123.5s52 39.5 98 39.5h15c6.66699 0 10 -3.33301 10 -10l-1 -26
c0 -6.66699 -3.33301 -10 -10 -10h-13c-28.667 0 -48.334 -9.5 -59.001 -28.5zM332.001 10v680c0 6.66699 3.33301 10 10 10h33c6.66699 0 10 -3.33301 10 -10v-680c0 -6.66699 -3.33301 -10 -10 -10h-33c-6.66699 -0 -10 3.33301 -10 10z" />
    <glyph glyph-name="I_J.liga" unicode="IJ" horiz-adv-x="629" 
d="M79 10v680c0 6.66699 3.33301 10 10 10h33c6.66699 0 10 -3.33301 10 -10v-680c0 -6.66699 -3.33301 -10 -10 -10h-33c-6.66699 -0 -10 3.33301 -10 10zM278.5 37c-29 30 -43.498 69.667 -43.498 119v88c0 6.66699 3.33301 10 10 10h33c6.66699 0 10 -3.33301 10 -10v-89
c0 -34.667 9.66699 -62.667 29 -84s44.666 -32 75.999 -32s56.666 10.667 75.999 32s29 49.333 29 84v535c0 6.66699 3.33301 10 10 10h33c6.66699 0 10 -3.33301 10 -10v-534c0 -49.333 -14.5 -89 -43.5 -119s-67.167 -45 -114.5 -45s-85.5 15 -114.5 45z" />
    <glyph glyph-name="f_f_i.liga" unicode="ffi" horiz-adv-x="735" 
d="M139 508c0 -2.66699 1.33203 -4 3.99902 -4h100c6.66699 0 10 -3.33301 10 -10v-22c0 -6.66699 -3.33301 -10 -10 -10h-100c-2.66699 0 -4 -1.33301 -4 -4v-448c0 -6.66699 -3.33301 -10 -10 -10h-33c-6.66699 -0 -10 3.33301 -10 10v448c0 2.66699 -1.33301 4 -4 4h-42
c-6.66699 0 -10 3.33301 -10 10v22c0 6.66699 3.33301 10 10 10h42c2.66699 0 4 1.33301 4 4v43c0 54 9.83301 93.833 29.5 119.5s52.167 38.167 97.5 37.5h12c6.66699 0 10 -3.33301 10 -10v-20c0 -6.66699 -3.33301 -10 -10 -10h-11
c-29.333 -0.666992 -49.166 -10.667 -59.499 -30s-15.5 -49.333 -15.5 -90v-40zM377.999 670.5c19.333 25.667 51.999 38.167 97.999 37.5h12c6.66699 0 10 -3.33301 10 -10v-20c0 -6.66699 -3.33301 -10 -10 -10h-11c-29.333 -0.666992 -49.166 -10.667 -59.499 -30
s-15.5 -49.333 -15.5 -90v-40c0 -2.66699 1.33301 -4 4 -4h82c6.66699 0 10 -3.33301 10 -10v-22c0 -6.66699 -3.33301 -10 -10 -10h-82c-2.66699 0 -4 -1.33301 -4 -4v-448c0 -6.66699 -3.33301 -10 -10 -10h-33c-6.66699 -0 -10 3.33301 -10 10v448
c0 2.66699 -1.33301 4 -4 4h-61c-6.66699 0 -10 3.33301 -10 10v22c0 6.66699 3.33301 10 10 10h61c2.66699 0 4 1.33301 4 4v43c0 54 9.66699 93.833 29 119.5zM667.998 691c9.33301 -9.33301 14 -21.333 14 -36s-4.66699 -26.667 -14 -36s-21.333 -14 -36 -14
s-26.667 4.66699 -36 14s-14 21.333 -14 36s4.66699 26.667 14 36s21.333 14 36 14s26.667 -4.66699 36 -14zM605.998 10v484c0 6.66699 3.33301 10 10 10h33c6.66699 0 10 -3.33301 10 -10v-484c0 -6.66699 -3.33301 -10 -10 -10h-33c-6.66699 -0 -10 3.33301 -10 10z" />
    <glyph glyph-name="f_f_l.liga" unicode="ffl" horiz-adv-x="710" 
d="M139 508c0 -2.66699 1.33203 -4 3.99902 -4h100c6.66699 0 10 -3.33301 10 -10v-22c0 -6.66699 -3.33301 -10 -10 -10h-100c-2.66699 0 -4 -1.33301 -4 -4v-448c0 -6.66699 -3.33301 -10 -10 -10h-33c-6.66699 -0 -10 3.33301 -10 10v448c0 2.66699 -1.33301 4 -4 4h-42
c-6.66699 0 -10 3.33301 -10 10v22c0 6.66699 3.33301 10 10 10h42c2.66699 0 4 1.33301 4 4v43c0 54 9.83301 93.833 29.5 119.5s52.167 38.167 97.5 37.5h12c6.66699 0 10 -3.33301 10 -10v-20c0 -6.66699 -3.33301 -10 -10 -10h-11
c-29.333 -0.666992 -49.166 -10.667 -59.499 -30s-15.5 -49.333 -15.5 -90v-40zM379.499 670.5c19.667 25.667 52.166 38.167 97.499 37.5h12c6.66699 0 10 -3.33301 10 -10v-20c0 -6.66699 -3.33301 -10 -10 -10h-11c-29.333 -0.666992 -49.166 -10.667 -59.499 -30
s-15.5 -49.333 -15.5 -90v-40c0 -2.66699 1.33301 -4 4 -4h82c6.66699 0 10 -3.33301 10 -10v-22c0 -6.66699 -3.33301 -10 -10 -10h-82c-2.66699 0 -4 -1.33301 -4 -4v-448c0 -6.66699 -3.33301 -10 -10 -10h-33c-6.66699 -0 -10 3.33301 -10 10v448
c0 2.66699 -1.33301 4 -4 4h-61c-6.66699 0 -10 3.33301 -10 10v22c0 6.66699 3.33301 10 10 10h61c2.66699 0 4 1.33301 4 4v43c0 54 9.83301 93.833 29.5 119.5zM605.998 700h33c6.66699 0 10 -3.33301 10 -10v-680c0 -6.66699 -3.33301 -10 -10 -10h-33
c-6.66699 -0 -10 3.33301 -10 10v680c0 6.66699 3.33301 10 10 10z" />
    <glyph glyph-name="g_j.liga" unicode="gj" horiz-adv-x="601" 
d="M535 691c9.33301 -9.33301 14 -21.333 14 -36s-4.66699 -26.667 -14 -36s-21.333 -14 -36 -14s-26.667 4.66699 -36 14s-14 21.333 -14 36s4.66699 26.667 14 36s21.333 14 36 14s26.667 -4.66699 36 -14zM295.5 456c1 0 1.49805 0.99707 1.49805 2.99707v35
c0 6.66699 3.33301 10 10 10h34c6.66699 0 10 -3.33301 10 -10v-488c0 -68.667 -15.667 -121 -47 -157s-81.666 -52.667 -150.999 -50c-6.66699 0 -10 3.33301 -10 10v27c0 6.66699 4.33301 10 13 10c50.667 0 86.834 13.667 108.501 41s32.5 68.333 32.5 123v38
c0 2 -0.666992 3.16699 -2 3.5s-2.33301 -0.5 -3 -2.5c-11.333 -18 -25.833 -31.5 -43.5 -40.5s-37.167 -13.5 -58.5 -13.5c-41.333 0 -74.166 13.833 -98.499 41.5s-36.5 63.834 -36.5 108.501v217c0 44.667 12.167 80.834 36.5 108.501s57.166 41.5 98.499 41.5
c21.333 0 41 -4.66699 59 -14s32.333 -22.666 43 -39.999c1.33301 -1.33301 2.5 -2 3.5 -2zM471.998 493.997c0 6.66699 3.33301 9.99902 10 9.99902h33c6.66699 0 10 -3.33301 10 -10v-549c0 -49.333 -10 -87.166 -30 -113.499s-52.333 -39.833 -97 -40.5
c-6.66699 0 -10 3.33301 -10 10l1 27c0 6.66699 2.66699 10 8 10c24 0.666992 42.5 10.5 55.5 29.5s19.5 44.833 19.5 77.5v549zM270.998 70.9961c17.333 19.333 26 44.668 26 76.001v212c0 31.333 -8.66699 56.833 -26 76.5s-39.666 29.5 -66.999 29.5
c-28 0 -51 -9.83301 -69 -29.5s-27 -45.167 -27 -76.5v-212c0 -30.667 9 -55.834 27 -75.501s41 -29.5 69 -29.5c27.333 0 49.666 9.66699 66.999 29z" />
    <glyph glyph-name="i_j.liga" unicode="ij" horiz-adv-x="397" 
d="M66 619c-9.33301 9.33301 -14 21.333 -14 36s4.66699 26.667 14 36s21.333 14 36 14s26.667 -4.66699 36 -14s14 -21.333 14 -36s-4.66699 -26.667 -14 -36s-21.333 -14 -36 -14s-26.667 4.66699 -36 14zM258 619c-9.33301 9.33301 -14 21.333 -14 36
s4.66699 26.667 14 36s21.333 14 36 14s26.667 -4.66699 36 -14s14 -21.333 14 -36s-4.66699 -26.667 -14 -36s-21.333 -14 -36 -14s-26.667 4.66699 -36 14zM76 10v484c0 6.66699 3.33301 10 10 10h33c6.66699 0 10 -3.33301 10 -10v-484c0 -6.66699 -3.33301 -10 -10 -10
h-33c-6.66699 -0 -10 3.33301 -10 10zM178 -199v27c0 6.66699 3.33301 10 10 10c26 1.33301 45.667 11.5 59 30.5s20 44.5 20 76.5v549c0 6.66699 3.33301 10 10 10h33c6.66699 0 10 -3.33301 10 -10v-549c0 -50 -10 -88 -30 -114s-54 -39.333 -102 -40
c-6.66699 0 -10 3.33301 -10 10z" />
    <glyph glyph-name="hyphen_hyphen.liga" unicode="&#x2d;&#x2d;" horiz-adv-x="592" 
d="M34 293v27c0 6.66699 3.33301 10 10 10h504c6.66699 0 10 -3.33301 10 -10v-27c0 -6.66699 -3.33301 -10 -10 -10h-504c-6.66699 0 -10 3.33301 -10 10z" />
    <glyph glyph-name=".notdef" horiz-adv-x="325" 
d="M4 0h317c2.66699 -0 4 1.33301 4 4v692c0 2.66699 -1.33301 4 -4 4h-317c-2.66699 0 -4 -1.33301 -4 -4v-692c-0 -2.66699 1.33301 -4 4 -4zM137 238l0.00195312 43.999c0 19.333 3.66699 35.333 11 48s18.666 27 33.999 43c16 16.667 28 32 36 46s12 32.333 12 55
c0 26.667 -5.66699 47.834 -17 63.501s-26.666 23.5 -45.999 23.5c-20 0 -36.167 -8 -48.5 -24s-18.5 -37 -18.5 -63v-22c0 -6.66699 -3.33301 -10 -10 -10l-18 1c-6.66699 0 -10 3.33301 -10 10v21c0 36.667 9.66699 66.167 29 88.5s44.666 33.5 75.999 33.5
s56.166 -11.167 74.499 -33.5s27.5 -52.166 27.5 -89.499c0 -29.333 -4.66699 -52.5 -14 -69.5s-23 -35.167 -41 -54.5c-12.667 -12.667 -22.167 -23.834 -28.5 -33.501s-9.5 -21.5 -9.5 -35.5v-42c0 -6.66699 -3.33301 -10 -10 -10h-19c-6.66699 0 -10 3.33301 -10 10z
M131.002 101.499c-6.66699 7 -10 15.5 -10 25.5c0 10.667 3.33301 19.334 10 26.001s15.334 10 26.001 10s19.334 -3.33301 26.001 -10s10 -15.334 10 -26.001c0 -10 -3.33301 -18.5 -10 -25.5s-15.334 -10.5 -26.001 -10.5s-19.334 3.5 -26.001 10.5z" />
    <glyph glyph-name="NULL" horiz-adv-x="0" 
 />
    <glyph glyph-name="NULL" horiz-adv-x="0" 
 />
    <glyph glyph-name="nonmarkingreturn" unicode="&#xd;" horiz-adv-x="200" 
 />
    <glyph glyph-name="space" unicode=" " horiz-adv-x="200" 
 />
    <glyph glyph-name="exclam" unicode="!" horiz-adv-x="244" 
d="M101 235l-4 455c0 6.66699 3.33301 10 10 10h33c6.66699 0 10 -3.33301 10 -10l-5 -455c0 -6.66699 -3.33301 -10 -10 -10h-24c-6.66699 0 -10 3.33301 -10 10zM86 18c-9.33301 9.33301 -14 21.333 -14 36s4.66699 26.667 14 36s21.333 14 36 14s26.667 -4.66699 36 -14
s14 -21.333 14 -36s-4.66699 -26.667 -14 -36s-21.333 -14 -36 -14s-26.667 4.66699 -36 14z" />
    <glyph glyph-name="quotedbl" unicode="&#x22;" horiz-adv-x="206" 
d="M30 503l-6 180c0 6.66699 3.33301 10 10 10h34c6.66699 0 10 -3.33301 10 -10l-6 -180c0 -6.66699 -3.33301 -10 -10 -10h-22c-6.66699 0 -10 3.33301 -10 10zM132 503l-5 180c0 6.66699 3.33301 10 10 10h33c6.66699 0 10 -3.33301 10 -10l-6 -180
c0 -6.66699 -3.33301 -10 -10 -10h-22c-6.66699 0 -10 3.33301 -10 10z" />
    <glyph glyph-name="numbersign" unicode="#" horiz-adv-x="582" 
d="M511 436h-62c-3.33301 0 -5 -1.33301 -5 -4l-26 -175c0 -2.66699 1 -4 3 -4h58c6.66699 0 10 -3.33301 10 -10v-27c0 -6.66699 -3.33301 -10 -10 -10h-64c-3.33301 0 -5 -1.33301 -5 -4l-27 -179c-0.666992 -6 -4 -9 -10 -9l-33 1c-2.66699 0 -5 1 -7 3
s-2.66699 4.66699 -2 8l25 176c0 2.66699 -1 4 -3 4h-161c-3.33301 0 -5 -1.33301 -5 -4l-27 -179c-0.666992 -6 -4 -9 -10 -9l-33 1c-2.66699 0 -5 1 -7 3s-2.66699 4.66699 -2 8l25 176c0 2.66699 -1 4 -3 4h-59c-6.66699 0 -10 3.33301 -10 10v27
c0 6.66699 3.33301 10 10 10h66c3.33301 0 5 1.33301 5 4l25 175c0 2.66699 -1 4 -3 4h-61c-6.66699 0 -10 3.33301 -10 10v27c0 6.66699 3.33301 10 10 10h68c3.33301 0 5 1.33301 5 4l27 180c0.666992 6 4 9 10 9l33 -2c3.33301 0 5.83301 -1 7.5 -3
s2.16699 -4.33301 1.5 -7l-25 -177c0 -2.66699 1 -4 3 -4h161c3.33301 0 5 1.33301 5 4l27 180c0.666992 6 4 9 10 9l33 -2c3.33301 0 5.83301 -1 7.5 -3s2.16699 -4.33301 1.5 -7l-25 -177c0 -2.66699 1 -4 3 -4h55c6.66699 0 10 -3.33301 10 -10v-27
c0 -6.66699 -3.33301 -10 -10 -10zM365 257l25 175c0 2.66699 -1 4 -3 4h-161c-3.33301 0 -5 -1.33301 -5 -4l-26 -175c0 -2.66699 1 -4 3 -4h162c3.33301 0 5 1.33301 5 4z" />
    <glyph glyph-name="dollar" unicode="$" horiz-adv-x="409" 
d="M329.5 53c-23 -31.333 -53.832 -50.6621 -92.499 -57.9951c-2.66699 -0.666992 -4 -2.33398 -4 -5.00098v-72c0 -6.66699 -3.33301 -10 -10 -10h-22c-6.66699 0 -10 3.33301 -10 10l1 70c0 2.66699 -1.33301 4 -4 4c-43.333 4 -78 21.833 -104 53.5s-39 72.167 -39 121.5
v21c0 6.66699 3.33301 10 10 10h32c6.66699 0 10 -3.33301 10 -10v-19c0 -39.333 9.83301 -71 29.5 -95s45.167 -36 76.5 -36s57.333 11.667 78 35s31 53.666 31 90.999c0 24.667 -4.83301 46 -14.5 64s-22 33.5 -37 46.5s-39.5 32.5 -73.5 58.5
c-34.667 26 -61.167 47.5 -79.5 64.5s-33.5 37.333 -45.5 61s-18 51.834 -18 84.501c0 48 12.833 86.667 38.5 116s59.5 45.666 101.5 48.999c2.66699 0 4 1.33301 4 4l-1 76c0 6.66699 3.33301 10 10 10h22c6.66699 0 10 -3.33301 10 -10v-79
c0 -2.66699 1.33301 -4.33398 4 -5.00098c38.667 -7.33301 69.334 -26.5 92.001 -57.5s34 -69.833 34 -116.5v-25c0 -6.66699 -3.33301 -10 -10 -10h-33c-6.66699 0 -10 3.33301 -10 10v25c0 39.333 -9.83301 71.166 -29.5 95.499s-45.834 36.5 -78.501 36.5
c-29.333 0 -53.666 -10.5 -72.999 -31.5s-29 -50.5 -29 -88.5c0 -22.667 4.16699 -42.334 12.5 -59.001s20.333 -32.334 36 -47.001s39.5 -34 71.5 -58c39.333 -29.333 68.666 -53 87.999 -71s34.166 -37.667 44.499 -59s15.5 -47 15.5 -77
c0 -47.333 -11.5 -86.666 -34.5 -117.999z" />
    <glyph glyph-name="percent" unicode="%" horiz-adv-x="785" 
d="M146.5 451.5c-21 12.333 -37.5 29.166 -49.5 50.499s-18 44.666 -18 69.999c0 24.667 6 47.667 18 69s28.5 38.166 49.5 50.499s43.833 18.5 68.5 18.5s47.334 -6.16699 68.001 -18.5s37 -29.166 49 -50.499s18 -44.333 18 -69c0 -25.333 -6 -48.666 -18 -69.999
s-28.333 -38.166 -49 -50.499s-43.334 -18.5 -68.001 -18.5s-47.5 6.16699 -68.5 18.5zM187.5 3.5c-1.66699 2.33301 -1.5 5.16602 0.5 8.49902l367 681c2 4.66699 6 7 12 7h21c4 0 6.83301 -1.16699 8.5 -3.5s1.5 -5.16602 -0.5 -8.49902l-367 -681
c-2 -4.66699 -6 -7 -12 -7h-21c-4 0 -6.83301 1.16699 -8.5 3.5zM285 497.5c19.333 20.333 29 45.166 29 74.499c0 28.667 -9.66699 53 -29 73s-42.666 30 -69.999 30c-28 0 -51.667 -10 -71 -30s-29 -44.333 -29 -73c0 -29.333 9.66699 -54.166 29 -74.499
s43 -30.5 71 -30.5c27.333 0 50.666 10.167 69.999 30.5zM503.5 8.5c-21 12.333 -37.5 29.165 -49.5 50.498s-18 44.666 -18 69.999s6 48.5 18 69.5s28.5 37.667 49.5 50s43.833 18.5 68.5 18.5c24 0 46.333 -6.16699 67 -18.5s37 -29.166 49 -50.499s18 -44.333 18 -69
c0 -25.333 -6 -48.666 -18 -69.999s-28.333 -38.166 -49 -50.499s-43 -18.5 -67 -18.5c-24.667 0 -47.5 6.16699 -68.5 18.5zM642 55.499c19.333 20.333 29 44.833 29 73.5s-9.66699 53.167 -29 73.5s-42.666 30.5 -69.999 30.5c-28.667 0 -52.667 -10 -72 -30
s-29 -44.667 -29 -74s9.66699 -54 29 -74s43.333 -30 72 -30c27.333 0 50.666 10.167 69.999 30.5z" />
    <glyph glyph-name="ampersand" unicode="&#x26;" horiz-adv-x="527" 
d="M476 7c0 -4.66699 -3.00098 -7.00195 -9.00098 -7.00195h-34c-5.33301 0 -9.33301 2 -12 6l-14 21l-34 49c-2 3.33301 -4 3.33301 -6 0c-25.333 -29.333 -50.666 -50.666 -75.999 -63.999s-54.333 -20 -87 -20c-49.333 0 -88.333 13.833 -117 41.5s-43 67.167 -43 118.5
c0 45.333 10.833 84.666 32.5 117.999s51.834 67 90.501 101c2 0.666992 2.33301 2.33398 1 5.00098c-24.667 38 -42.667 67 -54 87s-18.833 37 -22.5 51s-5.5 29.667 -5.5 47c0 44.667 12.5 80.334 37.5 107.001s57.5 40 97.5 40s72.833 -13.333 98.5 -40
s38.5 -61.667 38.5 -105c0 -40.667 -10.333 -75.834 -31 -105.501s-50.334 -61.167 -89.001 -94.5c-2 -0.666992 -2.33301 -2.33398 -1 -5.00098l65 -97l66 -96c0.666992 -0.666992 1.66699 -1 3 -1s2.33301 0.333008 3 1l49 83c1.33301 2.66699 3.33301 4.33398 6 5.00098
s5.33398 0.333984 8.00098 -0.999023l24 -14c5.33301 -3.33301 6.33301 -8 3 -14c-20.667 -37.333 -41.334 -71.333 -62.001 -102c-0.666992 -2 -0.666992 -4 0 -6l72 -104zM161.999 631.998c-15.333 -18 -22.999 -42.334 -22.999 -73.001c0 -20 3.83301 -39.333 11.5 -58
s25.5 -49.667 53.5 -93c1.33301 -2.66699 3 -3 5 -1c31.333 27.333 55.166 52.833 71.499 76.5s24.5 50.167 24.5 79.5c0 28.667 -7.83301 51.834 -23.5 69.501s-35.5 26.5 -59.5 26.5c-24.667 0 -44.667 -9 -60 -27zM277.5 57.9971c21 12.667 42.168 32.666 63.501 59.999
c1.33301 2 1.33301 4 0 6l-26 37l-25 37l-88 128c-0.666992 3.33301 -2.33398 3.66602 -5.00098 0.999023c-32 -30 -56.667 -58.167 -74 -84.5s-26 -56.166 -26 -89.499c0 -35.333 9.83301 -63.166 29.5 -83.499s47.167 -30.5 82.5 -30.5c24.667 0 47.5 6.33301 68.5 19z
" />
    <glyph glyph-name="quotesingle" unicode="'" horiz-adv-x="106" 
d="M30 508l-6 180c0 6.66699 3.33301 10 10 10h36c6.66699 0 10 -3.33301 10 -10l-7 -180c0 -6.66699 -3.33301 -10 -10 -10h-23c-6.66699 0 -10 3.33301 -10 10z" />
    <glyph glyph-name="parenleft" unicode="(" horiz-adv-x="199" 
d="M78 -100c-24 50 -43.667 112.668 -59 188.001s-23 153.666 -23 234.999c0 84 7.83301 164.833 23.5 242.5s36.167 141.5 61.5 191.5c2.66699 4.66699 6.66699 7 12 7h30c3.33301 0 5.83301 -1.16699 7.5 -3.5s1.83398 -4.83301 0.500977 -7.5
c-21.333 -52 -39 -116.333 -53 -193s-21 -155 -21 -235c0 -79.333 7 -156.5 21 -231.5s31.667 -138.167 53 -189.5c0.666992 -0.666992 1 -2 1 -4s-0.833008 -3.66699 -2.5 -5s-3.83398 -2 -6.50098 -2h-33c-5.33301 0 -9.33301 2.33301 -12 7z" />
    <glyph glyph-name="parenright" unicode=")" horiz-adv-x="199" 
d="M120 757c24 -49.333 43.667 -112 59 -188s23 -154.333 23 -235c0 -83.333 -7.66699 -164 -23 -242s-35.666 -142 -60.999 -192c-2.66699 -4.66699 -6.66699 -7 -12 -7h-31c-3.33301 0 -5.83301 1.16699 -7.5 3.5s-1.83398 4.83301 -0.500977 7.5
c22 51.333 40 115.333 54 192s21 155.334 21 236.001c0 79.333 -7 156.666 -21 231.999s-32 138 -54 188l-1 4c0 5.33301 3 8 9 8h33c5.33301 0 9.33301 -2.33301 12 -7z" />
    <glyph glyph-name="asterisk" unicode="*" horiz-adv-x="360" 
d="M162 404v128c0 1.33301 -0.5 2.33301 -1.5 3s-2.16699 0.666992 -3.5 0l-106 -66l-5 -2c-3.33301 0 -6.33301 2 -9 6l-8 14c-1.33301 2.66699 -2 4.66699 -2 6c0 4 1.66699 6.66699 5 8l108 66c1.33301 0.666992 2 1.66699 2 3s-0.666992 2.33301 -2 3l-108 66
c-5.33301 3.33301 -6.33301 8 -3 14l8 14c4 6.66699 8.66699 8 14 4l106 -66c1.33301 -0.666992 2.5 -0.666992 3.5 0s1.5 1.66699 1.5 3v129c0 6.66699 3.33301 10 10 10h17c6.66699 0 10 -3.33301 10 -10v-129c0 -1.33301 0.666992 -2.33301 2 -3s2.33301 -0.666992 3 0
l105 66l5 2c3.33301 0 6.33301 -2 9 -6l8 -14c1.33301 -2.66699 2 -4.66699 2 -6c0 -3.33301 -1.66699 -6 -5 -8l-107 -66c-0.666992 -0.666992 -1 -1.66699 -1 -3s0.333008 -2.33301 1 -3l107 -66c5.33301 -3.33301 6.33301 -8 3 -14l-8 -14
c-4 -6.66699 -8.66699 -8 -14 -4l-105 66c-0.666992 0.666992 -1.66699 0.666992 -3 0s-2 -1.66699 -2 -3v-128c0 -6.66699 -3.33301 -10 -10 -10h-17c-6.66699 0 -10 3.33301 -10 10z" />
    <glyph glyph-name="plus" unicode="+" horiz-adv-x="443" 
d="M408 332v-23c0 -6.66699 -3.33301 -10 -10 -10h-152c-2.66699 0 -4 -1.33301 -4 -4v-151c0 -6.66699 -3.33301 -10 -10 -10h-22c-6.66699 0 -10 3.33301 -10 10v151c0 2.66699 -1.33301 4 -4 4h-152c-6.66699 0 -10 3.33301 -10 10v23c0 6.66699 3.33301 10 10 10h152
c2.66699 0 4 1.33301 4 4v152c0 6.66699 3.33301 10 10 10h22c6.66699 0 10 -3.33301 10 -10v-152c0 -2.66699 1.33301 -4 4 -4h152c6.66699 0 10 -3.33301 10 -10z" />
    <glyph glyph-name="comma" unicode="," horiz-adv-x="169" 
d="M43 -71c-2 2 -2.66504 4.66699 -1.99805 8l34 208c1.33301 6 4.66602 9 9.99902 9h28c3.33301 0 5.83301 -1 7.5 -3s2.16699 -4.66699 1.5 -8l-42 -208c-0.666992 -6 -4.33398 -9 -11.001 -9h-19c-2.66699 0 -5 1 -7 3z" />
    <glyph glyph-name="hyphen" unicode="-" horiz-adv-x="309" 
d="M34 301v27c0 6.66699 3.33301 10 10 10h221c6.66699 0 10 -3.33301 10 -10v-27c0 -6.66699 -3.33301 -10 -10 -10h-221c-6.66699 0 -10 3.33301 -10 10z" />
    <glyph glyph-name="period" unicode="." horiz-adv-x="181" 
d="M54 18c-9.33301 9.33301 -14 21.333 -14 36s4.66699 26.667 14 36s21.333 14 36 14s26.667 -4.66699 36 -14s14 -21.333 14 -36s-4.66699 -26.667 -14 -36s-21.333 -14 -36 -14s-26.667 4.66699 -36 14z" />
    <glyph glyph-name="slash" unicode="/" horiz-adv-x="313" 
d="M27 11l170.001 680c1.33301 6 5 9 11 9h33c7.33301 0 10 -3.66699 8 -11l-170 -680c-0.666992 -6 -4.33398 -9 -11.001 -9h-33c-7.33301 0 -10 3.66699 -8 11z" />
    <glyph glyph-name="zero" unicode="0" horiz-adv-x="442" 
d="M102 38c-30 32 -45 74 -45 126v372c0 52 15 94 45 126s69.333 48 118 48c49.333 0 89 -16 119 -48s45 -74 45 -126v-372c0 -52 -15 -94 -45 -126s-69.667 -48 -119 -48c-48.667 0 -88 16 -118 48zM300.5 71.5c20.333 22.333 30.5 51.833 30.5 88.5v380
c0 36.667 -10.167 66.167 -30.5 88.5s-47.166 33.5 -80.499 33.5c-32.667 0 -59.167 -11.167 -79.5 -33.5s-30.5 -51.833 -30.5 -88.5v-380c0 -36.667 10.167 -66.167 30.5 -88.5s46.833 -33.5 79.5 -33.5c33.333 0 60.166 11.167 80.499 33.5z" />
    <glyph glyph-name="one" unicode="1" horiz-adv-x="249" 
d="M138 700h36c6.66699 0 10 -3.33301 10 -10v-680c0 -6.66699 -3.33301 -10 -10 -10h-33c-6.66699 -0 -10 3.33301 -10 10v623c0 1.33301 -0.5 2.33301 -1.5 3s-2.16699 0.666992 -3.5 0l-97 -39l-4 -1c-4 0 -6.66699 2.66699 -8 8l-5 23v2c0 5.33301 2 9 6 11l107 57
c4 2 8.33301 3 13 3z" />
    <glyph glyph-name="two" unicode="2" horiz-adv-x="392" 
d="M109 48.5c0.666992 -1 1.66895 -1.50293 3.00195 -1.50293h240c6.66699 0 10 -3.33301 10 -10v-27c0 -6.66699 -3.33301 -10 -10 -10h-299c-6.66699 0 -10 3.33301 -10 10v30c0 4.66699 1 9 3 13c5.33301 9.33301 9.66602 16.333 12.999 21l75 124.5l86 145.5
c44 78.667 66 143 66 193c0 37.333 -8.66699 67.333 -26 90s-40.666 34 -69.999 34c-28.667 0 -51.5 -11.167 -68.5 -33.5s-25.167 -52.166 -24.5 -89.499v-36c0 -6.66699 -3.33301 -10 -10 -10h-35c-6.66699 0 -10 3.33301 -10 10v38c1.33301 50 15.666 90.5 42.999 121.5
s62.666 46.5 105.999 46.5c44.667 0 80.667 -15.667 108 -47s41 -72.666 41 -123.999c0 -60.667 -24 -132.667 -72 -216c-18.667 -33.333 -48 -82.666 -88 -147.999l-71 -121c-0.666992 -1.33301 -0.666992 -2.5 0 -3.5z" />
    <glyph glyph-name="three" unicode="3" horiz-adv-x="401" 
d="M343 209c0 -37.333 -3.66309 -70.6699 -10.9961 -100.003c-20 -78 -66.667 -117 -140 -117c-38.667 0 -70.5 10.833 -95.5 32.5s-41.167 52.5 -48.5 92.5c-4.66699 25.333 -7.33398 52.333 -8.00098 81c0 6.66699 3.33301 10 10 10h33c6.66699 0 10 -3.33301 10 -10
c1.33301 -29.333 3.66602 -53 6.99902 -71c13.333 -58.667 44 -88 92 -88c46 0 76 26.333 90 79c6 27.333 9 59 9 95c0 47.333 -4.66699 85 -14 113c-15.333 46 -43.666 69 -84.999 69c-8.66699 0 -15.667 -1.33301 -21 -4c-2.66699 -1.33301 -5.16699 -1.83301 -7.5 -1.5
s-4.5 1.5 -6.5 3.5l-16 17c-3.33301 4.66699 -3.66602 9.33398 -0.999023 14.001l135 224c0.666992 1.33301 0.666992 2.5 0 3.5s-1.66699 1.5 -3 1.5h-218c-6.66699 0 -10 3.33301 -10 10v27c0 6.66699 3.33301 10 10 10h277c6.66699 0 10 -3.33301 10 -10v-30
c0 -4.66699 -1 -9 -3 -13l-128 -211c-0.666992 -1.33301 -0.833984 -2.5 -0.500977 -3.5s1.16602 -1.5 2.49902 -1.5c27.333 -1.33301 50.666 -10.666 69.999 -27.999s33.666 -40.666 42.999 -69.999c12 -32.667 18 -74 18 -124z" />
    <glyph glyph-name="four" unicode="4" horiz-adv-x="397" 
d="M373 233v-28c0 -6.66699 -3.33301 -10 -10 -10h-30c-2.66699 0 -4 -1.33301 -4 -4v-181c0 -6.66699 -3.33301 -10 -10 -10h-33c-6.66699 -0 -10 3.33301 -10 10v181c0 2.66699 -1.33301 4 -4 4h-238c-6.66699 0 -10 3.33301 -10 10v26c0 2.66699 0.666992 6.66699 2 12
l154 449c2 5.33301 6 8 12 8h36c7.33301 0 10 -3.66699 8 -11l-150 -441c-0.666992 -1.33301 -0.666992 -2.5 0 -3.5s1.66699 -1.5 3 -1.5h183c2.66699 0 4 1.33301 4 4v166c0 6.66699 3.33301 10 10 10h33c6.66699 0 10 -3.33301 10 -10v-166c0 -2.66699 1.33301 -4 4 -4
h30c6.66699 0 10 -3.33301 10 -10z" />
    <glyph glyph-name="five" unicode="5" horiz-adv-x="401" 
d="M361 212c0 -34.667 -2.33398 -64.002 -7.00098 -88.002c-7.33301 -42.667 -23.5 -75.334 -48.5 -98.001s-57.167 -34 -96.5 -34c-40 0 -72.5 11.333 -97.5 34s-41.167 56.334 -48.5 101.001c-1.33301 6.66699 -2.66602 16.667 -3.99902 30c0 6.66699 3.33301 10 10 10h33
c6.66699 0 10 -3.33301 10 -10l4 -26c12 -61.333 43 -92 93 -92c47.333 0 77.666 29 90.999 87c5.33301 22 8 50.667 8 86c0 36.667 -3.66699 68.667 -11 96c-14 50.667 -43.333 76 -88 76c-50.667 0 -82.667 -25.667 -96 -77c-2 -6 -5.66699 -9 -11 -9h-34
c-6.66699 0 -10 3.33301 -10 10v382c0 6.66699 3.33301 10 10 10h264c6.66699 0 10 -3.33301 10 -10v-27c0 -6.66699 -3.33301 -10 -10 -10h-217c-2.66699 0 -4 -1.33301 -4 -4v-268c0 -2 0.5 -3.16699 1.5 -3.5s2.16699 0.5 3.5 2.5c10.667 16.667 25 29.334 43 38.001
s38.667 13 62 13c33.333 0 60.833 -9.66699 82.5 -29s36.834 -47.666 45.501 -84.999c8 -28.667 12 -63.667 12 -105z" />
    <glyph glyph-name="six" unicode="6" horiz-adv-x="402" 
d="M362 212c0 -25.333 -1.66504 -51.332 -4.99805 -77.999c-6.66699 -46 -22.5 -81.167 -47.5 -105.5s-58.167 -36.5 -99.5 -36.5c-38.667 0 -70.334 11.167 -95.001 33.5s-40.667 55.5 -48 99.5c-5.33301 21.333 -8 49.666 -8 84.999l-1 329c0 50.667 14 91.5 42 122.5
s64.667 46.5 110 46.5c41.333 0 75.166 -15.5 101.499 -46.5s39.5 -71.833 39.5 -122.5v-11c0 -6.66699 -3.33301 -10 -10 -10h-33c-6.66699 0 -10 3.33301 -10 10v11c0 35.333 -8.5 64.333 -25.5 87s-37.833 34 -62.5 34c-29.333 0 -53 -11.167 -71 -33.5
s-27 -51.5 -27 -87.5v-154c0 -2 0.5 -3 1.5 -3s2.16699 0.666992 3.5 2c10 16.667 23.333 29.5 40 38.5s35 13.5 55 13.5c37.333 0 68 -11 92 -33s40 -53.333 48 -94c6.66699 -26 10 -58.333 10 -97zM309.002 215.001c0 30.667 -3.33203 61.666 -9.99902 92.999
c-12.667 54 -42.334 81 -89.001 81s-76.667 -28.667 -90 -86c-5.33301 -24 -8 -53.333 -8 -88c0 -29.333 2 -56.666 6 -81.999c12 -62.667 42.667 -94 92 -94c50.667 0 82 33.333 94 100c3.33301 26.667 5 52 5 76z" />
    <glyph glyph-name="seven" unicode="7" horiz-adv-x="355" 
d="M108.5 3c-1.66699 2 -2.16699 4.66699 -1.5 8l173 638c0.666992 0.666992 0.5 1.5 -0.5 2.5s-2.16699 1.5 -3.5 1.5h-201c-2.66699 0 -4 -1.33301 -4 -4v-42c0 -6.66699 -3.33301 -10 -10 -10h-25c-6.66699 0 -10 3.33301 -10 10v83c0 6.66699 3.33301 10 10 10h291
c6.66699 0 10 -3.33301 10 -10v-31c0 -1.33301 -0.666992 -5.33301 -2 -12l-172 -638c-1.33301 -6 -5 -9 -11 -9h-36c-3.33301 0 -5.83301 1 -7.5 3z" />
    <glyph glyph-name="eight" unicode="8" 
d="M283 370c23.333 -12.667 41.332 -31.666 53.999 -56.999c15.333 -32 23 -72 23 -120c0 -34.667 -4.33301 -66.667 -13 -96c-11.333 -33.333 -29 -59.166 -53 -77.499s-52.667 -27.5 -86 -27.5c-32.667 0 -60.834 9.16699 -84.501 27.5s-41.167 44.166 -52.5 77.499
c-9.33301 29.333 -14 61.666 -14 96.999c0 42 6.66699 79 20 111c11.333 30 30 51.667 56 65c2.66699 2 2.66699 4 0 6c-22 12 -39.333 29.333 -52 52c-16 30 -24 65 -24 105c0 40.667 7.66699 75.334 23 104.001c12 23.333 29.167 41.166 51.5 53.499
s47.833 18.5 76.5 18.5s53.834 -6 75.501 -18s38.834 -29.333 51.501 -52c16.667 -27.333 25 -63 25 -107c0 -41.333 -7.33301 -75.333 -22 -102c-14 -24.667 -32.333 -42.667 -55 -54c-3.33301 -2 -3.33301 -4 0 -6zM127.999 445.001c16.667 -32.667 43.334 -49 80.001 -49
c39.333 0 67.333 18 84 54c10.667 22.667 16 49.334 16 80.001c0 34.667 -6.66699 62.667 -20 84c-16.667 32 -43.334 48 -80.001 48c-37.333 0 -64.333 -17 -81 -51c-11.333 -22.667 -17 -50.334 -17 -83.001c0 -33.333 6 -61 18 -83zM306.999 195.001
c0 37.333 -5.33301 69.333 -16 96c-16 40 -43.667 60 -83 60c-20 0 -37.167 -5.5 -51.5 -16.5s-25.166 -27.167 -32.499 -48.5c-9.33301 -24 -14 -54 -14 -90c0 -31.333 3.33301 -58 10 -80c7.33301 -24.667 18.5 -43.667 33.5 -57s33.167 -20 54.5 -20c22 0 40.667 7 56 21
s26.666 34 33.999 60c6 21.333 9 46.333 9 75z" />
    <glyph glyph-name="nine" unicode="9" horiz-adv-x="395" 
d="M336 490v-329c0 -50.667 -13.833 -91.5 -41.5 -122.5s-64.167 -46.5 -109.5 -46.5c-41.333 0 -75.333 15.5 -102 46.5s-40 71.833 -40 122.5v11c0 6.66699 3.33301 10 10 10h33c6.66699 0 10 -3.33301 10 -10v-11c0 -35.333 8.66699 -64.333 26 -87s38.333 -34 63 -34
c29.333 0 53 11.167 71 33.5s27 51.5 27 87.5v154c0 2 -0.5 3 -1.5 3s-2.16699 -0.666992 -3.5 -2c-10 -16.667 -23.333 -29.5 -40 -38.5s-35 -13.5 -55 -13.5c-37.333 0 -68 11 -92 33s-40.333 53.333 -49 94c-6 27.333 -9 59.666 -9 96.999c0 32 1.66699 58 5 78
c6 46 21.667 81.167 47 105.5s58.666 36.5 99.999 36.5c38.667 0 70.334 -11.167 95.001 -33.5s40.667 -55.5 48 -99.5c5.33301 -25.333 8 -53.666 8 -84.999zM275 397c5.33301 24 8 53.333 8 88c0 30 -2 57.333 -6 82c-13.333 62.667 -44 94 -92 94
c-50.667 0 -82 -33.333 -94 -100c-3.33301 -26.667 -5 -52 -5 -76c0 -35.333 3.33301 -66.333 10 -93c13.333 -54 43 -81 89 -81c46.667 0 76.667 28.667 90 86z" />
    <glyph glyph-name="colon" unicode=":" horiz-adv-x="194" 
d="M61 358c-9.33301 9.33301 -14 21.333 -14 36s4.66699 26.667 14 36s21.333 14 36 14s26.667 -4.66699 36 -14s14 -21.333 14 -36s-4.66699 -26.667 -14 -36s-21.333 -14 -36 -14s-26.667 4.66699 -36 14zM61 19c-9.33301 9.33301 -14 21.333 -14 36s4.66699 26.667 14 36
s21.333 14 36 14s26.667 -4.66699 36 -14s14 -21.333 14 -36s-4.66699 -26.667 -14 -36s-21.333 -14 -36 -14s-26.667 4.66699 -36 14z" />
    <glyph glyph-name="semicolon" unicode=";" horiz-adv-x="183" 
d="M58 370.5c-9.33301 10.333 -14.002 22.833 -14.002 37.5c0 14 4.83301 26.167 14.5 36.5s20.834 15.5 33.501 15.5c12 0 22.833 -5.16699 32.5 -15.5s14.5 -22.5 14.5 -36.5c0 -14.667 -4.66699 -27.167 -14 -37.5s-20.333 -15.5 -33 -15.5
c-13.333 0 -24.666 5.16699 -33.999 15.5zM48.998 -66.5c-2 2.33301 -2.66699 4.83301 -2 7.5l21 199c0.666992 6 4 9 10 9h30c2.66699 0 5 -1 7 -3s2.66699 -4.66699 2 -8l-31 -199c-0.666992 -6 -4 -9 -10 -9h-19c-3.33301 0 -6 1.16699 -8 3.5z" />
    <glyph glyph-name="less" unicode="&#x3c;" horiz-adv-x="443" 
d="M404.5 65.5c-2.33301 -1.66699 -5.16699 -1.49902 -8.5 0.500977l-355 178c-4.66699 2 -7 6 -7 12v33c0 6 2.33301 10 7 12l355 178l5 2c2 0 3.66699 -0.833008 5 -2.5s2 -3.83398 2 -6.50098v-32c0 -5.33301 -2.33301 -9.33301 -7 -12l-311 -152
c-2.66699 -2 -2.66699 -4 0 -6l311 -153c4.66699 -2.66699 7 -6.66699 7 -12v-32c0 -3.33301 -1.16699 -5.83301 -3.5 -7.5z" />
    <glyph glyph-name="equal" unicode="=" horiz-adv-x="443" 
d="M34 427v23c0 6.66699 3.33301 10 10 10h354c6.66699 0 10 -3.33301 10 -10v-23c0 -6.66699 -3.33301 -10 -10 -10h-354c-6.66699 0 -10 3.33301 -10 10zM34 216v23c0 6.66699 3.33301 10 10 10h354c6.66699 0 10 -3.33301 10 -10v-23c0 -6.66699 -3.33301 -10 -10 -10
h-354c-6.66699 0 -10 3.33301 -10 10z" />
    <glyph glyph-name="greater" unicode="&#x3e;" horiz-adv-x="443" 
d="M41 64c-2 0 -3.66602 0.832031 -4.99902 2.49902s-2 3.83398 -2 6.50098v32c0 5.33301 2.33301 9.33301 7 12l312 153c3.33301 2 3.33301 4 0 6l-312 152c-4.66699 2.66699 -7 6.66699 -7 12v32c0 3.33301 1.16699 5.83301 3.5 7.5s5.16602 1.5 8.49902 -0.5l355 -178
c4.66699 -2 7 -6 7 -12v-33c0 -6 -2.33301 -10 -7 -12l-355 -178z" />
    <glyph glyph-name="question" unicode="?" horiz-adv-x="352" 
d="M135 205l0.00292969 65c0 27.333 5.16699 49.833 15.5 67.5s26.166 37.5 47.499 59.5c22.667 23.333 39.667 44.833 51 64.5s17 45.5 17 77.5c0 36.667 -8.16699 66 -24.5 88s-37.833 33 -64.5 33c-28.667 0 -51.5 -11.167 -68.5 -33.5s-25.5 -51.833 -25.5 -88.5v-34
c0 -6.66699 -3.33301 -10 -10 -10l-33 2c-6.66699 0 -10 3.33301 -10 10v32c0 50.667 13.667 91.834 41 123.501s62.666 47.5 105.999 47.5s77.833 -15.5 103.5 -46.5s38.5 -72.5 38.5 -124.5c0 -42 -6.83301 -75.333 -20.5 -100s-32.834 -49.334 -57.501 -74.001
c-18 -19.333 -31.167 -35.5 -39.5 -48.5s-12.5 -29.167 -12.5 -48.5v-62c0 -6.66699 -3.33301 -10 -10 -10h-34c-6.66699 0 -10 3.33301 -10 10zM127.003 17c-9.33301 9.33301 -14 21.333 -14 36s4.66699 26.667 14 36s21.333 14 36 14s26.667 -4.66699 36 -14
s14 -21.333 14 -36s-4.66699 -26.667 -14 -36s-21.333 -14 -36 -14s-26.667 4.66699 -36 14z" />
    <glyph glyph-name="at" unicode="@" horiz-adv-x="763" 
d="M572.5 572c43 -22.667 76.3252 -54.833 99.9922 -96.5s35.5 -90.5 35.5 -146.5c0 -12 -1.33301 -30 -4 -54c-8 -62 -27.167 -110.333 -57.5 -145s-68.166 -52 -113.499 -52c-44.667 0 -75.667 16 -93 48c-2 3.33301 -4 3.33301 -6 0
c-9.33301 -16.667 -21.666 -29.167 -36.999 -37.5s-31.666 -12.5 -48.999 -12.5c-28 0 -51 8.66699 -69 26s-27 40 -27 68c0 14.667 2.33301 34.667 7 60l4 30l4 36c2.66699 19.333 4.33398 32.333 5.00098 39c4.66699 32 16.667 57.5 36 76.5s44 28.5 74 28.5
c12 0 23.667 -2.5 35 -7.5s21 -12.5 29 -22.5c1.33301 -1.33301 2.5 -2 3.5 -2s1.5 1 1.5 3l2 15c0.666992 6 4 9 10 9h21c3.33301 0 6 -1.16699 8 -3.5s2.66699 -4.83301 2 -7.5l-27 -211c-0.666992 -4 -1 -9.66699 -1 -17c0 -24.667 6.5 -44.167 19.5 -58.5
s31.167 -21.5 54.5 -21.5c31.333 0 57.666 13.833 78.999 41.5s35.333 66.5 42 116.5c2 17.333 3 34 3 50c0 49.333 -10.167 92.333 -30.5 129s-49.166 65 -86.499 85s-80.666 30 -129.999 30c-52.667 0 -101.834 -13.167 -147.501 -39.5s-83.667 -63.333 -114 -111
s-49.166 -102.167 -56.499 -163.5c-2 -16.667 -3 -33 -3 -49c0 -52 10.333 -97.167 31 -135.5s49.167 -67.833 85.5 -88.5s77.5 -31 123.5 -31c33.333 0 64.5 4.5 93.5 13.5s52.167 20.167 69.5 33.5c2 2 4.33301 3 7 3s5 -1.66699 7 -5l10 -14c1.33301 -2 2 -4.33301 2 -7
s-1.33301 -5 -4 -7c-20.667 -16 -48.167 -29.333 -82.5 -40s-71.166 -16 -110.499 -16c-53.333 0 -100.833 11.833 -142.5 35.5s-74 57.167 -97 100.5s-34.5 94.333 -34.5 153c0 12 1.33301 30.667 4 56c8.66699 68 30.334 128.5 65.001 181.5s78.334 94.333 131.001 124
s109 44.5 169 44.5c56.667 0 106.5 -11.333 149.5 -34zM398.492 132.501c13 13 21.1689 30.501 24.502 52.501l2 14l1 9l17 135c0 18.667 -5 33.5 -15 44.5s-23.667 16.5 -41 16.5c-18.667 0 -34.834 -6.5 -48.501 -19.5s-22.167 -30.167 -25.5 -51.5
c-5.33301 -40 -8.33301 -65 -9 -75c-2.66699 -22.667 -5 -39.334 -7 -50.001l-3 -23c-2 -22 2.16699 -39.5 12.5 -52.5s25.166 -19.5 44.499 -19.5c18.667 0 34.5 6.5 47.5 19.5z" />
    <glyph glyph-name="A" unicode="A" horiz-adv-x="391" 
d="M325 9l-27 131c0 1.33301 -0.5 2.33301 -1.5 3s-2.16699 1 -3.5 1h-196c-1.33301 0 -2.5 -0.333008 -3.5 -1s-1.5 -1.66699 -1.5 -3l-27 -131c-0.666992 -6 -4.33398 -9 -11.001 -9h-33c-3.33301 0 -5.83301 1 -7.5 3s-2.16699 4.66699 -1.5 8l152 680
c1.33301 6 5 9 11 9h40c6.66699 0 10.334 -3 11.001 -9l153 -680v-2c0 -6 -3 -9 -9 -9h-34c-6 0 -9.66699 3 -11 9zM106 188h177.002c2 0 3 1.33301 3 4l-89 423c-0.666992 2 -1.33398 3 -2.00098 3s-1.33398 -1 -2.00098 -3l-90 -423c0 -2.66699 1 -4 3 -4z" />
    <glyph glyph-name="B" unicode="B" horiz-adv-x="443" 
d="M360 49.5c-31.333 -33 -74.002 -49.4971 -128.002 -49.4971h-143c-6.66699 0 -10 3.33301 -10 10v680c0 6.66699 3.33301 10 10 10h137c55.333 0 98.666 -15.667 129.999 -47s47 -76 47 -134c0 -76.667 -28.667 -128.334 -86 -155.001
c-1.33301 -0.666992 -2.16602 -1.33398 -2.49902 -2.00098s-0.166016 -1.33398 0.500977 -2.00098c29.333 -14.667 51.833 -36.5 67.5 -65.5s23.5 -64.167 23.5 -105.5c0.666992 -60 -14.666 -106.5 -45.999 -139.5zM131.998 649.003v-262c0 -2.66699 1.33301 -4 4 -4h91
c39.333 0 69.833 11.667 91.5 35s32.5 56 32.5 98c0 43.333 -11 77 -33 101s-52.333 36 -91 36h-91c-2.66699 0 -4 -1.33301 -4 -4zM320.498 86.0029c21.667 25.333 32.5 61 32.5 107c0 46.667 -11 83 -33 109s-52.333 39 -91 39h-93c-2.66699 0 -4 -1.33301 -4 -4v-285
c0 -2.66699 1.33301 -4 4 -4h93c39.333 0 69.833 12.667 91.5 38z" />
    <glyph glyph-name="C" unicode="C" horiz-adv-x="441" 
d="M105.5 37.5c-29.667 30.333 -44.5 70.833 -44.5 121.5v384c0 50 14.833 90 44.5 120s68.834 45 117.501 45c49.333 0 88.833 -15 118.5 -45s44.5 -70 44.5 -120v-19c0 -3.33301 -1 -6 -3 -8s-4.33301 -3 -7 -3l-33 -2c-6.66699 0 -10 3.33301 -10 10v25
c0 34.667 -10 62.5 -30 83.5s-46.667 31.5 -80 31.5c-32.667 0 -59 -10.5 -79 -31.5s-30 -48.833 -30 -83.5v-391c0 -34.667 10 -62.667 30 -84s46.333 -32 79 -32s59.167 10.667 79.5 32s30.5 49.333 30.5 84v23c0 6.66699 3.33301 10 10 10l33 -2
c6.66699 0 10 -3.33301 10 -10v-17c0 -50.667 -14.833 -91.167 -44.5 -121.5s-69.167 -45.5 -118.5 -45.5c-48.667 0 -87.834 15.167 -117.501 45.5z" />
    <glyph glyph-name="D" unicode="D" horiz-adv-x="463" 
d="M79 10v680c0 6.66699 3.33301 10 10 10h147c49.333 0 88.333 -16.5 117 -49.5s43 -77.833 43 -134.5v-332c0 -56.667 -14.333 -101.5 -43 -134.5s-67.667 -49.5 -117 -49.5h-147c-6.66699 -0 -10 3.33301 -10 10zM136 47h100c32.667 0.666992 58.5 13.167 77.5 37.5
s28.5 57.833 28.5 100.5v329c0 43.333 -9.5 77.333 -28.5 102s-45.167 37 -78.5 37h-99c-2.66699 0 -4 -1.33301 -4 -4v-598c0 -2.66699 1.33301 -4 4 -4z" />
    <glyph glyph-name="E" unicode="E" horiz-adv-x="427" 
d="M373 653h-237c-2.66699 0 -4 -1.33301 -4 -4v-271c0 -2.66699 1.33301 -4 4 -4h152c6.66699 0 10 -3.33301 10 -10v-27c0 -6.66699 -3.33301 -10 -10 -10h-152c-2.66699 0 -4 -1.33301 -4 -4v-272c0 -2.66699 1.33301 -4 4 -4h237c6.66699 0 10 -3.33301 10 -10v-27
c0 -6.66699 -3.33301 -10 -10 -10h-284c-6.66699 -0 -10 3.33301 -10 10v680c0 6.66699 3.33301 10 10 10h284c6.66699 0 10 -3.33301 10 -10v-27c0 -6.66699 -3.33301 -10 -10 -10z" />
    <glyph glyph-name="F" unicode="F" horiz-adv-x="399" 
d="M371 653h-235c-2.66699 0 -4 -1.33301 -4 -4v-271c0 -2.66699 1.33301 -4 4 -4h151c6.66699 0 10 -3.33301 10 -10v-27c0 -6.66699 -3.33301 -10 -10 -10h-151c-2.66699 0 -4 -1.33301 -4 -4v-313c0 -6.66699 -3.33301 -10 -10 -10h-33c-6.66699 -0 -10 3.33301 -10 10
v680c0 6.66699 3.33301 10 10 10h282c6.66699 0 10 -3.33301 10 -10v-27c0 -6.66699 -3.33301 -10 -10 -10z" />
    <glyph glyph-name="G" unicode="G" horiz-adv-x="447" 
d="M105.5 36.5c-29.667 29.667 -44.5 68.834 -44.5 117.501v392c0 48.667 14.833 87.834 44.5 117.501s68.834 44.5 117.501 44.5s88 -14.833 118 -44.5s45 -68.834 45 -117.501v-44c0 -6.66699 -3.33301 -10 -10 -10h-33c-6.66699 0 -10 3.33301 -10 10v45
c0 34.667 -10 62.334 -30 83.001s-46.667 31 -80 31s-60 -10.333 -80 -31s-30 -48.334 -30 -83.001v-394c0 -34.667 10 -62.334 30 -83.001s46.667 -31 80 -31s60 10.333 80 31s30 48.334 30 83.001v141c0 2.66699 -1.33301 4 -4 4h-94c-6.66699 0 -10 3.33301 -10 10v27
c0 6.66699 3.33301 10 10 10h141c6.66699 0 10 -3.33301 10 -10v-181c0 -48.667 -15 -87.834 -45 -117.501s-69.333 -44.5 -118 -44.5s-87.834 14.833 -117.501 44.5z" />
    <glyph glyph-name="H" unicode="H" horiz-adv-x="470" 
d="M348 700h33c6.66699 0 10 -3.33301 10 -10v-680c0 -6.66699 -3.33301 -10 -10 -10h-33c-6.66699 -0 -10 3.33301 -10 10v313c0 2.66699 -1.33301 4 -4 4h-198c-2.66699 0 -4 -1.33301 -4 -4v-313c0 -6.66699 -3.33301 -10 -10 -10h-33c-6.66699 -0 -10 3.33301 -10 10
v680c0 6.66699 3.33301 10 10 10h33c6.66699 0 10 -3.33301 10 -10v-312c0 -2.66699 1.33301 -4 4 -4h198c2.66699 0 4 1.33301 4 4v312c0 6.66699 3.33301 10 10 10z" />
    <glyph glyph-name="I" unicode="I" horiz-adv-x="211" 
d="M79 10v680c0 6.66699 3.33301 10 10 10h33c6.66699 0 10 -3.33301 10 -10v-680c0 -6.66699 -3.33301 -10 -10 -10h-33c-6.66699 -0 -10 3.33301 -10 10z" />
    <glyph glyph-name="J" unicode="J" horiz-adv-x="419" 
d="M67.5 37c-29 30 -43.498 69.667 -43.498 119v88c0 6.66699 3.33301 10 10 10h33c6.66699 0 10 -3.33301 10 -10v-89c0 -34.667 9.66699 -62.667 29 -84s44.666 -32 75.999 -32s56.666 10.667 75.999 32s29 49.333 29 84v535c0 6.66699 3.33301 10 10 10h33
c6.66699 0 10 -3.33301 10 -10v-534c0 -49.333 -14.5 -89 -43.5 -119s-67.167 -45 -114.5 -45s-85.5 15 -114.5 45z" />
    <glyph glyph-name="K" unicode="K" horiz-adv-x="442" 
d="M79 10l0.000976562 680c0 6.66699 3.33301 10 10 10h33c6.66699 0 10 -3.33301 10 -10v-343c0 -2 0.666992 -3.16699 2 -3.5s2.33301 0.5 3 2.5l209 347c3.33301 4.66699 7.33301 7 12 7h38c4 0 6.66699 -1.16699 8 -3.5s1 -5.16602 -1 -8.49902l-158 -266
c-2 -2 -2.33301 -4 -1 -6l175 -404l1 -4c0 -5.33301 -3 -8 -9 -8h-38c-5.33301 0 -9 2.66699 -11 8l-154 360c-0.666992 2.66699 -2.33398 2.66699 -5.00098 0l-70 -107c-0.666992 -0.666992 -1 -2.33398 -1 -5.00098v-246c0 -6.66699 -3.33301 -10 -10 -10h-33
c-6.66699 -0 -10 3.33301 -10 10z" />
    <glyph glyph-name="L" unicode="L" horiz-adv-x="388" 
d="M79 10v680c0 6.66699 3.33301 10 10 10h33c6.66699 0 10 -3.33301 10 -10v-639c0 -2.66699 1.33301 -4 4 -4h234c6.66699 0 10 -3.33301 10 -10v-27c0 -6.66699 -3.33301 -10 -10 -10h-281c-6.66699 -0 -10 3.33301 -10 10z" />
    <glyph glyph-name="M" unicode="M" horiz-adv-x="514" 
d="M392 700h34c6.66699 0 10 -3.33301 10 -10v-680c0 -6.66699 -3.33301 -10 -10 -10h-33c-6.66699 -0 -10 3.33301 -10 10v567c0 2 -0.666992 3 -2 3s-2.33301 -0.666992 -3 -2l-110 -244c-2 -5.33301 -5.33301 -8 -10 -8c-5.33301 0 -9 2.33301 -11 7l-111 243
c-1.33301 1.33301 -2.5 2 -3.5 2s-1.5 -1 -1.5 -3v-565c0 -6.66699 -3.33301 -10 -10 -10h-33c-6.66699 -0 -10 3.33301 -10 10v680c0 6.66699 3.33301 10 10 10h34c5.33301 0 9 -2.33301 11 -7l122 -262c0.666992 -1.33301 1.66699 -2 3 -2s2.33301 0.666992 3 2l120 262
c2 4.66699 5.66699 7 11 7z" />
    <glyph glyph-name="N" unicode="N" horiz-adv-x="488" 
d="M367 700h32c6.66699 0 10 -3.33301 10 -10v-680c0 -6.66699 -3.33301 -10 -10 -10h-39c-5.33301 0 -9 2.66699 -11 8l-213 560c-0.666992 2 -1.66699 2.83301 -3 2.5s-2 -1.5 -2 -3.5l1 -557c0 -6.66699 -3.33301 -10 -10 -10h-33c-6.66699 -0 -10 3.33301 -10 10v680
c0 6.66699 3.33301 10 10 10h38c5.33301 0 9 -2.66699 11 -8l214 -557c0.666992 -2 1.66699 -2.83301 3 -2.5s2 1.5 2 3.5v554c0 6.66699 3.33301 10 10 10z" />
    <glyph glyph-name="O" unicode="O" horiz-adv-x="451" 
d="M106.5 38.5c-30.333 31 -45.5 71.5 -45.5 121.5v379c0 50.667 15 91.5 45 122.5s69.667 46.5 119 46.5s89.333 -15.5 120 -46.5s46 -71.833 46 -122.5v-379c0 -50 -15.333 -90.5 -46 -121.5s-70.667 -46.5 -120 -46.5c-48.667 0 -88.167 15.5 -118.5 46.5zM306.5 72
c21 22 31.5 50.667 31.5 86v383c0 35.333 -10.5 64.166 -31.5 86.499s-48.167 33.5 -81.5 33.5c-32.667 0 -59.334 -11.167 -80.001 -33.5s-31 -51.166 -31 -86.499v-383c0 -35.333 10.333 -64 31 -86s47.334 -33 80.001 -33c33.333 0 60.5 11 81.5 33z" />
    <glyph glyph-name="P" unicode="P" horiz-adv-x="436" 
d="M357 649.5c28.667 -35 42.999 -80.833 42.999 -137.5s-14.167 -102 -42.5 -136s-65.5 -51 -111.5 -51h-111c-2.66699 0 -4 -1.33301 -4 -4v-311c0 -6.66699 -3.33301 -10 -10 -10h-33c-6.66699 -0 -10 3.33301 -10 10v682c0 6.66699 3.33301 10 10 10h156
c46.667 0 84.334 -17.5 113.001 -52.5zM316.999 408c20 26 30 60.333 30 103c0 43.333 -10 78 -30 104s-46.333 39 -79 39h-103c-2.66699 0 -4 -1.33301 -4 -4v-277c0 -2.66699 1.33301 -4 4 -4h103c32.667 0 59 13 79 39z" />
    <glyph glyph-name="Q" unicode="Q" horiz-adv-x="439" 
d="M334.5 660.5c29 -31.667 43.501 -72.835 43.501 -123.502v-374c0 -45.333 -11.5 -83.166 -34.5 -113.499s-54.167 -48.5 -93.5 -54.5c-2.66699 -0.666992 -4 -2.33398 -4 -5.00098v-100c0 -6.66699 -3.33301 -10 -10 -10h-34c-6.66699 0 -10 3.33301 -10 10v100
c0 2.66699 -1.33301 4.33398 -4 5.00098c-38.667 7.33301 -69.5 25.833 -92.5 55.5s-34.5 67.167 -34.5 112.5v374c0 50.667 14.667 91.834 44 123.501s67.666 47.5 114.999 47.5s85.5 -15.833 114.5 -47.5zM325.001 541.999c0 35.333 -9.83301 64 -29.5 86
s-44.834 33 -75.501 33c-31.333 0 -56.833 -11 -76.5 -33s-29.5 -50.667 -29.5 -86v-384c0 -35.333 9.83301 -64 29.5 -86s45.167 -33 76.5 -33c30.667 0 55.834 11 75.501 33s29.5 50.667 29.5 86v384z" />
    <glyph glyph-name="R" unicode="R" horiz-adv-x="436" 
d="M349 8l-110.002 317c-0.666992 2 -2 3 -4 3h-99c-2.66699 0 -4 -1.33301 -4 -4v-314c0 -6.66699 -3.33301 -10 -10 -10h-33c-6.66699 -0 -10 3.33301 -10 10v680c0 6.66699 3.33301 10 10 10h155c46.667 0 84.334 -17.333 113.001 -52s43 -80 43 -136
c0 -44.667 -9.66699 -82.667 -29 -114s-45.666 -52.666 -78.999 -63.999c-2.66699 -0.666992 -3.66699 -2.33398 -3 -5.00098l113 -318l1 -4c0 -4.66699 -3 -7 -9 -7h-33c-6 0 -10 2.66699 -12 8zM131.998 649v-273.001c0 -2.66699 1.33301 -4 4 -4h102
c32.667 0 59 12.833 79 38.5s30 59.5 30 101.5c0 42.667 -10 76.834 -30 102.501s-46.333 38.5 -79 38.5h-102c-2.66699 0 -4 -1.33301 -4 -4z" />
    <glyph glyph-name="S" unicode="S" horiz-adv-x="409" 
d="M89 40.5c-29.333 32.333 -43.999 74.5039 -43.999 126.504v21c0 6.66699 3.33301 10 10 10h32c6.66699 0 10 -3.33301 10 -10v-19c0 -39.333 9.83301 -71 29.5 -95s45.167 -36 76.5 -36s57.333 11.667 78 35s31 53.666 31 90.999c0 24.667 -4.83301 46 -14.5 64
s-22 33.5 -37 46.5s-39.5 32.5 -73.5 58.5c-34.667 26 -61.167 47.5 -79.5 64.5s-33.5 37.333 -45.5 61s-18 51.834 -18 84.501c0 51.333 14.333 91.666 43 120.999s65.667 44 111 44c48.667 0 87.667 -16.333 117 -49s44 -75.667 44 -129v-25
c0 -6.66699 -3.33301 -10 -10 -10h-33c-6.66699 0 -10 3.33301 -10 10v25c0 39.333 -9.83301 71.166 -29.5 95.499s-45.834 36.5 -78.501 36.5c-29.333 0 -53.666 -10.5 -72.999 -31.5s-29 -50.5 -29 -88.5c0 -22.667 4.16699 -42.334 12.5 -59.001
s20.333 -32.334 36 -47.001s39.5 -34 71.5 -58c39.333 -29.333 68.666 -53 87.999 -71s34.166 -37.667 44.499 -59s15.5 -47 15.5 -77c0 -54.667 -14.833 -98.167 -44.5 -130.5s-68.167 -48.5 -115.5 -48.5s-85.666 16.167 -114.999 48.5z" />
    <glyph glyph-name="T" unicode="T" horiz-adv-x="411" 
d="M375 690v-27c0 -6.66699 -3.33301 -10 -10 -10h-133c-2.66699 0 -4 -1.33301 -4 -4v-639c0 -6.66699 -3.33301 -10 -10 -10h-33c-6.66699 -0 -10 3.33301 -10 10v639c0 2.66699 -1.33301 4 -4 4h-125c-6.66699 0 -10 3.33301 -10 10v27c0 6.66699 3.33301 10 10 10h319
c6.66699 0 10 -3.33301 10 -10z" />
    <glyph glyph-name="U" unicode="U" horiz-adv-x="475" 
d="M118 43.5c-30 34.333 -44.999 80.168 -44.999 137.501v509c0 6.66699 3.33301 10 10 10h33c6.66699 0 10 -3.33301 10 -10v-515c0 -40.667 10.167 -73.5 30.5 -98.5s47.166 -37.5 80.499 -37.5s60.5 12.5 81.5 37.5s31.5 57.833 31.5 98.5v515
c0 6.66699 3.33301 10 10 10h33c6.66699 0 10 -3.33301 10 -10v-509c0 -56.667 -15.333 -102.334 -46 -137.001s-70.667 -52 -120 -52s-89 17.167 -119 51.5z" />
    <glyph glyph-name="V" unicode="V" horiz-adv-x="427" 
d="M184 9l-146.002 680v2c0 6 3 9 9 9h37c6.66699 0 10.334 -3 11.001 -9l118 -588c0.666992 -2 1.33398 -3 2.00098 -3s1.33398 1 2.00098 3l116 588c1.33301 6 5 9 11 9h35c7.33301 0 10.333 -3.66699 9 -11l-145 -680c-0.666992 -6 -4.33398 -9 -11.001 -9h-37
c-6 0 -9.66699 3 -11 9z" />
    <glyph glyph-name="W" unicode="W" horiz-adv-x="606" 
d="M162 9l-131.002 680v2c0 6 3 9 9 9h35c6.66699 0 10.334 -3 11.001 -9l103 -567c0.666992 -1.33301 1.33398 -2 2.00098 -2s1.33398 0.666992 2.00098 2l87 567c0.666992 6 4 9 10 9h31c6 0 9.33301 -3 10 -9l92 -567c0.666992 -1.33301 1.33398 -2 2.00098 -2
s1.33398 0.666992 2.00098 2l94 567c1.33301 6 4.66602 9 9.99902 9h35c3.33301 0 5.83301 -1 7.5 -3s2.16699 -4.66699 1.5 -8l-124 -680c-0.666992 -6 -4.33398 -9 -11.001 -9h-32c-5.33301 0 -8.66602 3 -9.99902 9l-90 566c-0.666992 1.33301 -1.33398 2 -2.00098 2
s-1.33398 -0.666992 -2.00098 -2l-89 -566c-0.666992 -6 -4 -9 -10 -9h-32c-6 0 -9.66699 3 -11 9z" />
    <glyph glyph-name="X" unicode="X" horiz-adv-x="423" 
d="M41.5 3.5c-1.66699 2.33301 -1.83398 5.16504 -0.500977 8.49805l142 335c1.33301 2 1.33301 4 0 6l-142 335l-1 4c0 5.33301 3 8 9 8h36c5.33301 0 9 -2.66699 11 -8l113 -285c0.666992 -2 1.66699 -3 3 -3s2.33301 1 3 3l113 285c2 5.33301 5.66699 8 11 8h35
c3.33301 0 5.83301 -1.16699 7.5 -3.5s1.83398 -5.16602 0.500977 -8.49902l-142 -336c-0.666992 -2 -0.666992 -4 0 -6l142 -334l1 -4c0 -5.33301 -3 -8 -9 -8h-35c-5.33301 0 -9 2.66699 -11 8l-113 284c-0.666992 2 -1.66699 2.83301 -3 2.5
s-2.33301 -1.16602 -3 -2.49902l-114 -284c-2 -5.33301 -5.66699 -8 -11 -8h-35c-3.33301 0 -5.83301 1.16699 -7.5 3.5z" />
    <glyph glyph-name="Y" unicode="Y" horiz-adv-x="411" 
d="M179 10l-0.000976562 309.999c0 2.66699 -0.333008 4.33398 -1 5.00098l-138 363l-1 4c0 5.33301 3 8 9 8h35c6 0 10 -2.66699 12 -8l108 -306c0.666992 -1.33301 1.66699 -2 3 -2s2.33301 0.666992 3 2l107 306c2 5.33301 6 8 12 8h35
c3.33301 0 5.83301 -1.16699 7.5 -3.5s1.83398 -5.16602 0.500977 -8.49902l-138 -363c-0.666992 -0.666992 -1 -2.33398 -1 -5.00098v-310c0 -6.66699 -3.33301 -10 -10 -10h-33c-6.66699 -0 -10 3.33301 -10 10z" />
    <glyph glyph-name="Z" unicode="Z" horiz-adv-x="391" 
d="M36 10v31c0 4.66699 0.666992 8.66699 2 12l252 595c0.666992 1.33301 0.666992 2.5 0 3.5s-1.66699 1.5 -3 1.5h-241c-6.66699 0 -10 3.33301 -10 10v27c0 6.66699 3.33301 10 10 10h292c6.66699 0 10 -3.33301 10 -10v-31c0 -4.66699 -0.666992 -8.66699 -2 -12
l-251 -595c-0.666992 -1.33301 -0.666992 -2.5 0 -3.5s1.66699 -1.5 3 -1.5h240c6.66699 0 10 -3.33301 10 -10v-27c0 -6.66699 -3.33301 -10 -10 -10h-292c-6.66699 -0 -10 3.33301 -10 10z" />
    <glyph glyph-name="bracketleft" unicode="[" horiz-adv-x="292" 
d="M25 -104v862c0 6.66699 3.33301 10 10 10h142c6.66699 0 10 -3.33301 10 -10v-28c0 -6.66699 -3.33301 -10 -10 -10h-95c-2.66699 0 -4 -1.33301 -4 -4v-779c0 -2.66699 1.33301 -4 4 -4h96c6.66699 0 10 -3.33301 10 -10v-27c0 -6.66699 -3.33301 -10 -10 -10h-143
c-6.66699 0 -10 3.33301 -10 10z" />
    <glyph glyph-name="backslash" unicode="\" horiz-adv-x="313" 
d="M287 7c0 -4.66699 -3.00098 -7 -9.00098 -7h-33c-6 0 -9.66699 3 -11 9l-170 680l-1 4c0 4.66699 3 7 9 7h33c6.66699 0 10.334 -3 11.001 -9l170 -680z" />
    <glyph glyph-name="bracketright" unicode="]" horiz-adv-x="292" 
d="M257 -114h-143c-6.66699 0 -10 3.33301 -10 10v27c0 6.66699 3.33301 10 10 10h96c2.66699 0 4 1.33301 4 4v779c0 2.66699 -1.33301 4 -4 4h-96c-6.66699 0 -10 3.33301 -10 10v28c0 6.66699 3.33301 10 10 10h143c6.66699 0 10 -3.33301 10 -10v-862
c0 -6.66699 -3.33301 -10 -10 -10z" />
    <glyph glyph-name="asciicircum" unicode="^" horiz-adv-x="390" 
d="M38 321l129 371c2 5.33301 6 8 12 8h31c6 0 10 -2.66699 12 -8l129 -371l1 -4c0 -4.66699 -3 -7 -9 -7h-26c-6 0 -10 2.66699 -12 8l-107 319c-0.666992 1.33301 -1.66699 2 -3 2s-2.33301 -0.666992 -3 -2l-108 -319c-2 -5.33301 -6 -8 -12 -8h-26
c-7.33301 0 -10 3.66699 -8 11z" />
    <glyph glyph-name="underscore" unicode="_" horiz-adv-x="365" 
d="M24 10v24c0 6.66699 3.33301 10 10 10h297c6.66699 0 10 -3.33301 10 -10v-24c0 -6.66699 -3.33301 -10 -10 -10h-297c-6.66699 -0 -10 3.33301 -10 10z" />
    <glyph glyph-name="grave" unicode="`" horiz-adv-x="170" 
d="M141 577c0 -4 -3 -6 -9 -6h-21c-4.66699 0 -8.66699 2.33301 -12 7l-68 110c-1.33301 2.66699 -2 4.66699 -2 6c0 4 3 6 9 6h27c4.66699 0 8.66699 -2.33301 12 -7l62 -110c1.33301 -2.66699 2 -4.66699 2 -6z" />
    <glyph glyph-name="a" unicode="a" horiz-adv-x="404" 
d="M310.5 466.5c25.667 -30.333 38.501 -70.833 38.501 -121.5v-335c0 -6.66699 -3.33301 -10 -10 -10h-33c-6.66699 -0 -10 3.33301 -10 10v36c0 2 -0.5 3.16699 -1.5 3.5s-2.16699 -0.166992 -3.5 -1.5c-24.667 -37.333 -63.334 -56 -116.001 -56
c-35.333 0 -66 10.333 -92 31s-39 57 -39 109c0 55.333 15.5 96 46.5 122s72.167 39 123.5 39h78c2.66699 0 4 1.33301 4 4v46c0 37.333 -8.33301 67 -25 89s-39.667 33 -69 33c-22.667 0 -42.5 -7.33301 -59.5 -22s-26.833 -33.667 -29.5 -57
c0 -6.66699 -3.33301 -10 -10 -10l-36 2c-3.33301 0 -5.83301 1 -7.5 3s-2.16699 4.33301 -1.5 7c4 37.333 19.667 67.333 47 90s60.333 34 99 34c45.333 0 80.833 -15.167 106.5 -45.5zM263.501 68c21.667 19.333 32.5 46.667 32.5 82v95c0 2.66699 -1.33301 4 -4 4h-78
c-34.667 0 -62.5 -9.5 -83.5 -28.5s-31.5 -47.167 -31.5 -84.5c0 -32.667 8 -57 24 -73s37 -24 63 -24c30 0 55.833 9.66699 77.5 29z" />
    <glyph glyph-name="b" unicode="b" horiz-adv-x="417" 
d="M324.5 470.5c25 -27.667 37.5 -63.835 37.5 -108.502v-221c0 -44 -12.5 -79.833 -37.5 -107.5s-58.167 -41.5 -99.5 -41.5c-20 0 -38.667 4 -56 12s-32 19.667 -44 35c-1.33301 1.33301 -2.5 1.83301 -3.5 1.5s-1.5 -1.16602 -1.5 -2.49902v-28
c0 -6.66699 -3.33301 -10 -10 -10h-33c-6.66699 0 -10 3.33301 -10 10v680c0 6.66699 3.33301 10 10 10h33c6.66699 0 10 -3.33301 10 -10v-224c0 -1.33301 0.666992 -2.16602 2 -2.49902s2.33301 0.166992 3 1.5c12 15.333 26.667 27 44 35s36 12 56 12
c41.333 0 74.5 -13.833 99.5 -41.5zM283 435.499c-18 19.667 -41.333 29.498 -70 29.498c-27.333 0 -49.666 -9.83301 -66.999 -29.5s-26 -45.167 -26 -76.5v-215c0 -31.333 8.66699 -56.666 26 -75.999s39.666 -29 66.999 -29c28.667 0 52 9.83301 70 29.5
s27 44.834 27 75.501v215c0 31.333 -9 56.833 -27 76.5z" />
    <glyph glyph-name="c" unicode="c" horiz-adv-x="394" 
d="M95.5 33.5c-27 27.667 -40.5 63.833 -40.5 108.5v220c0 44 13.667 80 41 108s63 42 107 42c29.333 0 55.333 -6.16699 78 -18.5s40.167 -28.666 52.5 -48.999s18.5 -42.5 18.5 -66.5v-6c0 -6.66699 -3.33301 -10 -10 -10l-33 -2c-6.66699 0 -10 3.33301 -10 10v6
c0 24 -9 44.833 -27 62.5s-41 26.5 -69 26.5s-50.833 -9.83301 -68.5 -29.5s-26.5 -45.167 -26.5 -76.5v-215c0 -30.667 8.83301 -55.834 26.5 -75.501s40.5 -29.5 68.5 -29.5s51 8.83301 69 26.5s27 38.5 27 62.5v5c0 6.66699 3.33301 10 10 10h33
c6.66699 0 10 -3.33301 10 -10v-8c0 -24 -6.16699 -46.167 -18.5 -66.5s-29.833 -36.5 -52.5 -48.5s-48.667 -18 -78 -18c-44.667 0 -80.5 13.833 -107.5 41.5z" />
    <glyph glyph-name="d" unicode="d" horiz-adv-x="417" 
d="M307 700l33 0.000976562c6.66699 0 10 -3.33301 10 -10v-680c0 -6.66699 -3.33301 -10 -10 -10h-33c-6.66699 0 -10 3.33301 -10 10v28c0 1.33301 -0.5 2.16602 -1.5 2.49902s-2.16699 -0.166992 -3.5 -1.5c-12 -15.333 -26.667 -27 -44 -35s-36 -12 -56 -12
c-41.333 0 -74.5 13.833 -99.5 41.5s-37.5 63.5 -37.5 107.5v221c0 44.667 12.5 80.834 37.5 108.501s58.167 41.5 99.5 41.5c20 0 38.667 -4 56 -12s32 -19.667 44 -35c1.33301 -1.33301 2.5 -1.83301 3.5 -1.5s1.5 1.16602 1.5 2.49902v224c0 6.66699 3.33301 10 10 10z
M271 68.001c17.333 19.333 26 44.668 26 76.001v215c0 31.333 -8.66699 56.833 -26 76.5s-39.666 29.5 -66.999 29.5c-28.667 0 -52 -9.83301 -70 -29.5s-27 -45.167 -27 -76.5v-215c0 -30.667 9 -55.834 27 -75.501s41.333 -29.5 70 -29.5
c27.333 0 49.666 9.66699 66.999 29z" />
    <glyph glyph-name="e" unicode="e" horiz-adv-x="400" 
d="M342 233l-230.001 0.000976562c-2.66699 0 -4 -1.33301 -4 -4v-85c0 -30.667 8.83301 -55.834 26.5 -75.501s40.5 -29.5 68.5 -29.5c23.333 0 43.333 7 60 21s27.667 32.333 33 55c2 6 5.66699 9 11 9l32 -2c2.66699 0 5 -0.666992 7 -2s2.66699 -3.33301 2 -6v-4
c-6.66699 -36.667 -22.667 -65.5 -48 -86.5s-57.666 -31.5 -96.999 -31.5c-44 0 -79.667 13.833 -107 41.5s-41 63.5 -41 107.5v221c0 44 13.667 80 41 108s63 42 107 42c44.667 0 80.667 -14 108 -42s41 -64 41 -108v-119c0 -6.66699 -3.33301 -10 -10 -10z
M134.499 435.501c-17.667 -19.667 -26.499 -45.167 -26.499 -76.5v-76c0 -2.66699 1.33301 -4 4 -4h183c2.66699 0 4 1.33301 4 4v76c0 31.333 -8.83301 56.833 -26.5 76.5s-40.834 29.5 -69.501 29.5c-28 0 -50.833 -9.83301 -68.5 -29.5z" />
    <glyph glyph-name="f" unicode="f" horiz-adv-x="272" 
d="M155 633.5c-10.667 -19 -15.999 -48.833 -15.999 -89.5v-36c0 -2.66699 1.33301 -4 4 -4h82c6.66699 0 10 -3.33301 10 -10v-22c0 -6.66699 -3.33301 -10 -10 -10h-82c-2.66699 0 -4 -1.33301 -4 -4v-448c0 -6.66699 -3.33301 -10 -10 -10h-33
c-6.66699 -0 -10 3.33301 -10 10v448c0 2.66699 -1.33301 4 -4 4h-42c-6.66699 0 -10 3.33301 -10 10v22c0 6.66699 3.33301 10 10 10h42c2.66699 0 4 1.33301 4 4v37c0 56 9.66699 97.167 29 123.5s52 39.5 98 39.5h15c6.66699 0 10 -3.33301 10 -10l-1 -26
c0 -6.66699 -3.33301 -10 -10 -10h-13c-28.667 0 -48.334 -9.5 -59.001 -28.5z" />
    <glyph glyph-name="g" unicode="g" horiz-adv-x="406" 
d="M307 504l33.998 -0.00292969c6.66699 0 10 -3.33301 10 -10v-488c0 -68.667 -15.667 -121 -47 -157s-81.666 -52.667 -150.999 -50c-6.66699 0 -10 3.33301 -10 10v27c0 6.66699 4.33301 10 13 10c50.667 0 86.834 13.667 108.501 41s32.5 68.333 32.5 123v38
c0 2 -0.666992 3.16699 -2 3.5s-2.33301 -0.5 -3 -2.5c-11.333 -18 -25.833 -31.5 -43.5 -40.5s-37.167 -13.5 -58.5 -13.5c-41.333 0 -74.166 13.833 -98.499 41.5s-36.5 63.834 -36.5 108.501v217c0 44.667 12.167 80.834 36.5 108.501s57.166 41.5 98.499 41.5
c21.333 0 41 -4.66699 59 -14s32.333 -22.666 43 -39.999c1.33301 -1.33301 2.5 -2 3.5 -2s1.5 1 1.5 3v35c0 6.66699 3.33301 10 10 10zM270.998 70.9971c17.333 19.333 26 44.668 26 76.001v212c0 31.333 -8.66699 56.833 -26 76.5s-39.666 29.5 -66.999 29.5
c-28 0 -51 -9.83301 -69 -29.5s-27 -45.167 -27 -76.5v-212c0 -30.667 9 -55.834 27 -75.501s41 -29.5 69 -29.5c27.333 0 49.666 9.66699 66.999 29z" />
    <glyph glyph-name="h" unicode="h" 
d="M325 470c22 -27.333 33 -65.668 33 -115.001v-345c0 -6.66699 -3.33301 -10 -10 -10h-33c-6.66699 0 -10 3.33301 -10 10v340c0 36 -8 64 -24 84s-38.333 30 -67 30c-29.333 0 -52.333 -10.667 -69 -32s-25 -50.666 -25 -87.999v-334c0 -6.66699 -3.33301 -10 -10 -10
h-33c-6.66699 -0 -10 3.33301 -10 10v680c0 6.66699 3.33301 10 10 10h33c6.66699 0 10 -3.33301 10 -10v-234c0 -2 0.5 -3 1.5 -3s2.16699 0.666992 3.5 2c22.667 37.333 58 56 106 56c40.667 0 72 -13.667 94 -41z" />
    <glyph glyph-name="i" unicode="i" horiz-adv-x="205" 
d="M66 619c-9.33301 9.33301 -14 21.333 -14 36s4.66699 26.667 14 36s21.333 14 36 14s26.667 -4.66699 36 -14s14 -21.333 14 -36s-4.66699 -26.667 -14 -36s-21.333 -14 -36 -14s-26.667 4.66699 -36 14zM76 10v484c0 6.66699 3.33301 10 10 10h33
c6.66699 0 10 -3.33301 10 -10v-484c0 -6.66699 -3.33301 -10 -10 -10h-33c-6.66699 -0 -10 3.33301 -10 10z" />
    <glyph glyph-name="j" unicode="j" horiz-adv-x="195" 
d="M57 619c-9.33301 9.33301 -14 21.333 -14 36s4.66699 26.667 14 36s21.333 14 36 14s26.667 -4.66699 36 -14s14 -21.333 14 -36s-4.66699 -26.667 -14 -36s-21.333 -14 -36 -14s-26.667 4.66699 -36 14zM-23 -199v27c0 6.66699 3.33301 10 10 10
c26.667 1.33301 46.667 11.5 60 30.5s20 44.5 20 76.5v549c0 6.66699 3.33301 10 10 10h33c6.66699 0 10 -3.33301 10 -10v-549c0 -50 -10 -88 -30 -114s-54.333 -39.333 -103 -40c-6.66699 0 -10 3.33301 -10 10z" />
    <glyph glyph-name="k" unicode="k" horiz-adv-x="394" 
d="M67 10v679.998c0 6.66699 3.33301 10 10 10h33c6.66699 0 10 -3.33301 10 -10v-420c0 -1.33301 0.666992 -2.16602 2 -2.49902s2.33301 0.166992 3 1.5l165 229c2.66699 4 6.66699 6 12 6h35c4 0 6.66699 -1.16699 8 -3.5s0.666016 -5.16602 -2.00098 -8.49902l-97 -136
c-1.33301 -1.33301 -1.66602 -3 -0.999023 -5l117 -340l1 -4c0 -4.66699 -3 -7 -9 -7h-35c-6 0 -10 2.66699 -12 8l-95 297c-0.666992 4 -2.66699 4.33301 -6 1l-84 -116c-1.33301 -1.33301 -2 -3 -2 -5v-175c0 -6.66699 -3.33301 -10 -10 -10h-33
c-6.66699 -0 -10 3.33301 -10 10z" />
    <glyph glyph-name="l" unicode="l" horiz-adv-x="174" 
d="M61 10v680c0 6.66699 3.33301 10 10 10h33c6.66699 0 10 -3.33301 10 -10v-680c0 -6.66699 -3.33301 -10 -10 -10h-33c-6.66699 -0 -10 3.33301 -10 10z" />
    <glyph glyph-name="m" unicode="m" horiz-adv-x="641" 
d="M547 467c22 -29.333 32.999 -69.3369 32.999 -120.004v-337c0 -6.66699 -3.33301 -10 -10 -10h-33c-6.66699 0 -10 3.33301 -10 10v332c0 37.333 -7.83301 67 -23.5 89s-36.5 33 -62.5 33c-28 0 -50.167 -10.667 -66.5 -32s-24.5 -50.666 -24.5 -87.999v-334
c0 -6.66699 -3.33301 -10 -10 -10h-33c-6.66699 0 -10 3.33301 -10 10v332c0 37.333 -8 67 -24 89s-36.667 33 -62 33c-28 0 -50.333 -10.667 -67 -32s-25 -50.666 -25 -87.999v-334c0 -6.66699 -3.33301 -10 -10 -10h-32c-6.66699 0 -10 3.33301 -10 10v484
c0 6.66699 3.33301 10 10 10h32c6.66699 0 10 -3.33301 10 -10v-37c0 -2 0.666992 -3.16699 2 -3.5s2.33301 0.5 3 2.5c12 18 27.167 31.667 45.5 41s37.5 14 57.5 14c25.333 0 47.333 -6.66699 66 -20s33 -32.333 43 -57c1.33301 -3.33301 3 -2.66602 5 2.00098
c11.333 24.667 27.333 43.334 48 56.001s43.334 19 68.001 19c38 0 68 -14.667 90 -44z" />
    <glyph glyph-name="n" unicode="n" 
d="M325 470c22 -27.333 33 -65.668 33 -115.001v-345c0 -6.66699 -3.33301 -10 -10 -10h-33c-6.66699 0 -10 3.33301 -10 10v340c0 36 -8 64 -24 84s-38.333 30 -67 30c-29.333 0 -52.333 -10.667 -69 -32s-25 -50.666 -25 -87.999v-334c0 -6.66699 -3.33301 -10 -10 -10
h-33c-6.66699 -0 -10 3.33301 -10 10v484c0 6.66699 3.33301 10 10 10h33c6.66699 0 10 -3.33301 10 -10v-38c0 -2 0.5 -3 1.5 -3s2.16699 0.666992 3.5 2c22.667 37.333 58 56 106 56c40.667 0 72 -13.667 94 -41z" />
    <glyph glyph-name="o" unicode="o" horiz-adv-x="407" 
d="M95.5 33.5c-27 27.667 -40.5 63.835 -40.5 108.502v220c0 44 13.667 80 41 108s63 42 107 42c45.333 0 81.666 -13.833 108.999 -41.5s41 -63.834 41 -108.501v-220c0 -44.667 -13.667 -80.834 -41 -108.501s-63.666 -41.5 -108.999 -41.5
c-44.667 0 -80.5 13.833 -107.5 41.5zM273 68.501c18 19.667 27 44.834 27 75.501v215c0 31.333 -9 56.833 -27 76.5s-41.333 29.5 -70 29.5c-28 0 -50.833 -9.83301 -68.5 -29.5s-26.5 -45.167 -26.5 -76.5v-215c0 -30.667 8.83301 -55.834 26.5 -75.501
s40.5 -29.5 68.5 -29.5c28.667 0 52 9.83301 70 29.5z" />
    <glyph glyph-name="p" unicode="p" horiz-adv-x="423" 
d="M330.5 470.5c25 -27.667 37.5 -63.834 37.5 -108.501v-220c0 -44.667 -12.5 -80.834 -37.5 -108.501s-58.167 -41.5 -99.5 -41.5c-20 0 -38.667 4 -56 12s-32 19.667 -44 35c-1.33301 1.33301 -2.5 1.83301 -3.5 1.5s-1.5 -1.16602 -1.5 -2.49902v-224
c0 -6.66699 -3.33301 -10 -10 -10h-33c-6.66699 0 -10 3.33301 -10 10v680c0 6.66699 3.33301 10 10 10h33c6.66699 0 10 -3.33301 10 -10v-28c0 -1.33301 0.666992 -2.16602 2 -2.49902s2.33301 0.166992 3 1.5c12 15.333 26.667 27 44 35s36 12 56 12
c41.333 0 74.5 -13.833 99.5 -41.5zM289 435.5c-18 19.667 -41.333 29.4961 -70 29.4961c-27.333 0 -49.666 -9.66699 -66.999 -29s-26 -44.666 -26 -75.999v-216c0 -31.333 8.66699 -56.666 26 -75.999s39.666 -29 66.999 -29c28.667 0 52 9.83301 70 29.5
s27 44.834 27 75.501v216c0 30.667 -9 55.834 -27 75.501z" />
    <glyph glyph-name="q" unicode="q" horiz-adv-x="423" 
d="M307 504h33c6.66699 0 10 -3.33301 10 -10v-680c0 -6.66699 -3.33301 -10 -10 -10h-33c-6.66699 0 -10 3.33301 -10 10v224c0 1.33301 -0.5 2.16602 -1.5 2.49902s-2.16699 -0.166992 -3.5 -1.5c-12 -15.333 -26.667 -27 -44 -35s-36 -12 -56 -12
c-41.333 0 -74.5 13.833 -99.5 41.5s-37.5 63.834 -37.5 108.501v220c0 44.667 12.5 80.834 37.5 108.501s58.167 41.5 99.5 41.5c20 0 38.667 -4 56 -12s32 -19.667 44 -35c1.33301 -1.33301 2.5 -1.83301 3.5 -1.5s1.5 1.16602 1.5 2.49902v28c0 6.66699 3.33301 10 10 10
zM271 68c17.333 19.333 26 44.6699 26 76.0029v216c0 31.333 -8.66699 56.666 -26 75.999s-39.666 29 -66.999 29c-28.667 0 -52 -9.83301 -70 -29.5s-27 -44.834 -27 -75.501v-216c0 -30.667 9 -55.834 27 -75.501s41.333 -29.5 70 -29.5
c27.333 0 49.666 9.66699 66.999 29z" />
    <glyph glyph-name="r" unicode="r" horiz-adv-x="284" 
d="M265 498c4.66699 -2.66699 6.33496 -7 5.00195 -13l-8 -34c-2 -6 -6.33301 -7.66699 -13 -5c-10.667 4 -23.667 5.66699 -39 5c-26.667 -0.666992 -48.334 -14 -65.001 -40s-25 -58 -25 -96v-305c0 -6.66699 -3.33301 -10 -10 -10h-33c-6.66699 -0 -10 3.33301 -10 10
v484c0 6.66699 3.33301 10 10 10h33c6.66699 0 10 -3.33301 10 -10v-62c0 -2 0.666992 -3 2 -3s2.33301 1 3 3c9.33301 24 22.166 42.667 38.499 56s35.833 20 58.5 20c16.667 0 31 -3.33301 43 -10z" />
    <glyph glyph-name="s" unicode="s" horiz-adv-x="364" 
d="M85.5 30.5c-26.333 23.667 -39.499 54.166 -39.499 91.499v6c0 6.66699 3.33301 10 10 10h31c6.66699 0 10 -3.33301 10 -10v-6c0 -24 8.66699 -44 26 -60s39.666 -24 66.999 -24c26.667 0 48.167 8.16699 64.5 24.5s24.5 37.5 24.5 63.5
c0 19.333 -4.66699 35.333 -14 48s-21 22.834 -35 30.501s-33 16.5 -57 26.5c-26 10.667 -47.333 21.167 -64 31.5s-30.834 24.666 -42.501 42.999s-17.5 41.5 -17.5 69.5c0 40.667 12.667 73 38 97s59 36 101 36c42.667 0 76.667 -12.333 102 -37s38 -56.667 38 -96v-3
c0 -6.66699 -3.33301 -10 -10 -10h-30c-6.66699 0 -10 3.33301 -10 10v5c0 24.667 -8.33301 45.334 -25 62.001s-38.334 25 -65.001 25s-48 -8.16699 -64 -24.5s-24 -37.5 -24 -63.5c0 -18 4.33301 -33 13 -45s19.5 -21.667 32.5 -29s31.167 -16.333 54.5 -27
c27.333 -11.333 49.833 -22.166 67.5 -32.499s32.834 -24.833 45.501 -43.5s19 -42.334 19 -71.001c0 -40 -13 -72.167 -39 -96.5s-60.333 -36.5 -103 -36.5c-43.333 0 -78.166 11.833 -104.499 35.5z" />
    <glyph glyph-name="t" unicode="t" horiz-adv-x="261" 
d="M220 462l-80 0.000976562c-2.66699 0 -4 -1.33301 -4 -4v-322c0 -33.333 5.66699 -56.5 17 -69.5s29.333 -19.5 54 -19.5h10c6.66699 0 10 -3.33301 10 -10v-27c0 -6.66699 -3.33301 -10 -10 -10h-20c-37.333 0 -65.5 8.66699 -84.5 26s-28.5 49.666 -28.5 96.999v335
c0 2.66699 -1.33301 4 -4 4h-41c-6.66699 0 -10 3.33301 -10 10v22c0 6.66699 3.33301 10 10 10h41c2.66699 0 4 1.33301 4 4v112c0 6.66699 3.33301 10 10 10h32c6.66699 0 10 -3.33301 10 -10v-112c0 -2.66699 1.33301 -4 4 -4h80c6.66699 0 10 -3.33301 10 -10v-22
c0 -6.66699 -3.33301 -10 -10 -10z" />
    <glyph glyph-name="u" unicode="u" 
d="M308 504l32.999 0.00195312c6.66699 0 10 -3.33301 10 -10v-484c0 -6.66699 -3.33301 -10 -10 -10h-33c-6.66699 0 -10 3.33301 -10 10v36c0 2 -0.5 3.16699 -1.5 3.5s-2.16699 -0.166992 -3.5 -1.5c-21.333 -36.667 -55.333 -55 -102 -55c-40 0 -71.667 12.167 -95 36.5
s-35 60.833 -35 109.5v355c0 6.66699 3.33301 10 10 10h33c6.66699 0 10 -3.33301 10 -10v-343c0 -36.667 7.83301 -64.334 23.5 -83.001s37.834 -28 66.501 -28c29.333 0 52.333 10.667 69 32s25 50.666 25 87.999v334c0 6.66699 3.33301 10 10 10z" />
    <glyph glyph-name="v" unicode="v" horiz-adv-x="364" 
d="M152 9l-125.002 484l-1 3c0 5.33301 3.33301 8 10 8h38c6 0 9.66699 -3 11 -9l95 -405c0.666992 -2 1.33398 -3 2.00098 -3s1.33398 1 2.00098 3l95 405c1.33301 6 5 9 11 9l39 -1c3.33301 0 5.83301 -1 7.5 -3s1.83398 -4.66699 0.500977 -8l-123 -483
c-0.666992 -6 -4.33398 -9 -11.001 -9h-40c-6 0 -9.66699 3 -11 9z" />
    <glyph glyph-name="w" unicode="w" horiz-adv-x="539" 
d="M131 9l-105.002 484v2c0 6 3 9 9 9h32c6.66699 0 10.334 -3 11.001 -9l80 -408c0.666992 -2 1.33398 -3 2.00098 -3s1.33398 1 2.00098 3l81 408c1.33301 6 5 9 11 9h29c6.66699 0 10.334 -3 11.001 -9l82 -408c0.666992 -2 1.33398 -3 2.00098 -3s1.33398 1 2.00098 3
l82 408c1.33301 6 5 9 11 9l31 -1c3.33301 0 5.83301 -1 7.5 -3s2.16699 -4.66699 1.5 -8l-107 -483c-0.666992 -6 -4.33398 -9 -11.001 -9h-33c-6 0 -9.66699 3 -11 9l-81 393c-0.666992 2 -1.33398 3 -2.00098 3s-1.33398 -1 -2.00098 -3l-79 -393
c-0.666992 -6 -4.33398 -9 -11.001 -9h-34c-6 0 -9.66699 3 -11 9z" />
    <glyph glyph-name="x" unicode="x" horiz-adv-x="359" 
d="M24 3.5c-1.33301 2.33301 -1.33301 5.16602 0 8.49902l124 237c1.33301 2 1.33301 4 0 6l-124 237c-0.666992 1.33301 -1 3 -1 5c0 4.66699 2.66699 7 8 7h38c6 0 10 -2.33301 12 -7l96 -194c0.666992 -1.33301 1.66699 -2 3 -2s2.33301 0.666992 3 2l96 194
c2 4.66699 6 7 12 7h37c3.33301 0 5.66602 -1.16699 6.99902 -3.5s1.33301 -5.16602 0 -8.49902l-123 -237c-0.666992 -2 -0.666992 -4 0 -6l123 -237c0.666992 -1.33301 1 -3 1 -5c0 -4.66699 -2.66699 -7 -8 -7h-37c-6 -0 -10 2.33301 -12 7l-96 194
c-0.666992 1.33301 -1.66699 2 -3 2s-2.33301 -0.666992 -3 -2l-96 -194c-2 -4.66699 -6 -7 -12 -7h-38c-3.33301 0 -5.66602 1.16699 -6.99902 3.5z" />
    <glyph glyph-name="y" unicode="y" horiz-adv-x="353" 
d="M41 -197c-1.33301 2 -2.00586 4.33105 -2.00586 6.99805v26c0 6.66699 3.33301 10 10 10h1c20 0.666992 35.5 4.83398 46.5 12.501s20.333 21.834 28 42.501s15.834 52.667 24.501 96c0.666992 1.33301 0.833984 2.5 0.500977 3.5s-0.5 1.83301 -0.5 2.5l-128 490l-1 3
c0 5.33301 3.33301 8 10 8h35c6 0 9.66699 -3 11 -9l99 -417c0.666992 -2 1.33398 -3 2.00098 -3s1.33398 1 2.00098 3l98 417c1.33301 6 5 9 11 9l36 -1c3.33301 0 5.83301 -1 7.5 -3s1.83398 -4.66699 0.500977 -8l-141 -543c-11.333 -43.333 -22.5 -75.333 -33.5 -96
s-24.5 -34.667 -40.5 -42s-38.333 -11 -67 -11h-5c-1.33301 0 -2.66602 1 -3.99902 3z" />
    <glyph glyph-name="z" unicode="z" horiz-adv-x="357" 
d="M37 10v32c0 4 1 8.33301 3 13l217 395c0.666992 1.33301 0.833984 2.5 0.500977 3.5s-1.16602 1.5 -2.49902 1.5h-205c-6.66699 0 -10 3.33301 -10 10v29c0 6.66699 3.33301 10 10 10h262c6.66699 0 10 -3.33301 10 -10v-32c0 -4.66699 -1 -9 -3 -13l-218 -395
c-0.666992 -1.33301 -0.833984 -2.5 -0.500977 -3.5s1.16602 -1.5 2.49902 -1.5h209c6.66699 0 10 -3.33301 10 -10v-29c0 -6.66699 -3.33301 -10 -10 -10h-265c-6.66699 -0 -10 3.33301 -10 10z" />
    <glyph glyph-name="braceleft" unicode="{" horiz-adv-x="255" 
d="M105.5 -87.5c-15 17.667 -22.5 45.8359 -22.5 84.5029v219c0 28 -4 49.333 -12 64s-20.333 23.667 -37 27c-6 1.33301 -9 4.66602 -9 9.99902v26c0 6 3 9.33301 9 10c16.667 3.33301 29 12.166 37 26.499s12 35.5 12 63.5v213c0 38.667 7.5 67 22.5 85s38.833 27 71.5 27
h42c6.66699 0 10 -3.33301 10 -10v-28c0 -6.66699 -3.33301 -10 -10 -10h-27c-19.333 0 -33.5 -6.16699 -42.5 -18.5s-13.5 -31.833 -13.5 -58.5v-201c0 -30 -3.66699 -53.667 -11 -71s-19 -30 -35 -38c-3.33301 -1.33301 -3.33301 -3 0 -5
c15.333 -8.66699 26.833 -21.834 34.5 -39.501s11.5 -41.167 11.5 -70.5v-208c0 -26.667 4.5 -46.167 13.5 -58.5s23.167 -18.5 42.5 -18.5h27c6.66699 0 10 -3.33301 10 -10v-27c0 -6.66699 -3.33301 -10 -10 -10h-42c-32.667 0 -56.5 8.83301 -71.5 26.5z" />
    <glyph glyph-name="bar" unicode="|" horiz-adv-x="133" 
d="M40 -70v820c0 6.66699 3.33301 10 10 10h33c6.66699 0 10 -3.33301 10 -10v-820c0 -6.66699 -3.33301 -10 -10 -10h-33c-6.66699 0 -10 3.33301 -10 10z" />
    <glyph glyph-name="braceright" unicode="}" horiz-adv-x="255" 
d="M35 -114c-6.66699 0 -10 3.33105 -10 9.99805v27c0 6.66699 3.33301 10 10 10h28c19.333 0 33.5 6.16699 42.5 18.5s13.5 31.833 13.5 58.5v208c0 29.333 3.66699 52.833 11 70.5s18.666 30.834 33.999 39.501c3.33301 2 3.33301 3.66699 0 5
c-15.333 8 -26.666 20.667 -33.999 38s-11 41 -11 71v201c0 26.667 -4.5 46.167 -13.5 58.5s-23.167 18.5 -42.5 18.5h-28c-6.66699 0 -10 3.33301 -10 10v28c0 6.66699 3.33301 10 10 10h43c32.667 0 56.5 -9 71.5 -27s22.5 -46.333 22.5 -85v-213
c0 -28 3.83301 -49.167 11.5 -63.5s19.834 -23.166 36.501 -26.499c6 -0.666992 9 -4 9 -10v-26c0 -5.33301 -3 -8.66602 -9 -9.99902c-16.667 -3.33301 -28.834 -12.333 -36.501 -27s-11.5 -36 -11.5 -64v-219c0 -38.667 -7.5 -66.834 -22.5 -84.501
s-38.833 -26.5 -71.5 -26.5h-43z" />
    <glyph glyph-name="asciitilde" unicode="~" horiz-adv-x="454" 
d="M268.5 248.5c-13.667 5.66699 -30.835 14.5 -51.502 26.5c-12.667 8 -24.5 14.167 -35.5 18.5s-22.833 6.5 -35.5 6.5c-30.667 0 -55 -14 -73 -42c-3.33301 -6.66699 -8 -8 -14 -4l-17 11c-5.33301 4 -6.66602 8.33301 -3.99902 13c10 21.333 24 38.333 42 51
s39 19 63 19c16 0 30 -2.33301 42 -7s25.333 -11.334 40 -20.001c18 -11.333 33.5 -19.666 46.5 -24.999s28.167 -8 45.5 -8c13.333 0 24.333 3.33301 33 10s18.667 16.667 30 30c4.66699 6 9.33398 7 14.001 3l17 -12c4.66699 -4 5.66699 -8.33301 3 -13
c-26 -44 -58 -66 -96 -66c-19.333 0 -35.833 2.83301 -49.5 8.5z" />
    <glyph glyph-name="uni00A0" unicode="&#xa0;" horiz-adv-x="200" 
 />
    <glyph glyph-name="exclamdown" unicode="&#xa1;" horiz-adv-x="244" 
d="M158 694c9.33301 -9.33301 14 -21.333 14 -36s-4.66699 -26.667 -14 -36s-21.333 -14 -36 -14s-26.667 4.66699 -36 14s-14 21.333 -14 36s4.66699 26.667 14 36s21.333 14 36 14s26.667 -4.66699 36 -14zM111 487h24c6.66699 0 10 -3.33301 10 -10l5 -455
c0 -6.66699 -3.33301 -10 -10 -10h-33c-6.66699 0 -10 3.33301 -10 10l4 455c0 6.66699 3.33301 10 10 10z" />
    <glyph glyph-name="cent" unicode="&#xa2;" horiz-adv-x="394" 
d="M342 452l-33 -2c-6.66699 0 -10 3.33301 -10 10v6c0 24 -9 44.833 -27 62.5s-41 26.5 -69 26.5s-50.833 -9.83301 -68.5 -29.5s-26.5 -45.167 -26.5 -76.5v-215c0 -30.667 8.83301 -55.834 26.5 -75.501s40.5 -29.5 68.5 -29.5s51 8.83301 69 26.5s27 38.5 27 62.5v5
c0 6.66699 3.33301 10 10 10h33c6.66699 0 10 -3.33301 10 -10v-8c0 -33.333 -11.167 -62.333 -33.5 -87s-52.166 -39.667 -89.499 -45c-2.66699 0 -4 -1.33301 -4 -4l1 -69c0 -6.66699 -3.33301 -10 -10 -10h-27c-6.66699 0 -10 3.33301 -10 10l2 69
c0 2.66699 -1.33301 4.33398 -4 5.00098c-37.333 5.33301 -67 21.333 -89 48s-33 60 -33 100v220c0 39.333 11 72.5 33 99.5s51.667 43.167 89 48.5c2.66699 0.666992 4 2.33398 4 5.00098l-2 68c0 6.66699 3.33301 10 10 10h27c6.66699 0 10 -3.33301 10 -10l-1 -68
c0 -2.66699 1.33301 -4.33398 4 -5.00098c37.333 -5.33301 67.166 -20.5 89.499 -45.5s33.5 -53.833 33.5 -86.5v-8c0 -5.33301 -3.33301 -8 -10 -8z" />
    <glyph glyph-name="sterling" unicode="&#xa3;" horiz-adv-x="499" 
d="M170 46l283.002 -0.00195312c6.66699 0 10 -3.33301 10 -10v-26c0 -6.66699 -3.33301 -10 -10 -10h-339c-6.66699 0 -10 3.33301 -10 10v28c0 5.33301 2 9.33301 6 12c13.333 10.667 23.666 27.334 30.999 50.001s11 48.667 11 78v132c0 2.66699 -1.33301 4 -4 4h-59
c-6.66699 0 -10 3.33301 -10 10v24c0 6.66699 3.33301 10 10 10h59c2.66699 0 4 1.33301 4 4v155c0 60 14.167 106.833 42.5 140.5s67.166 50.5 116.499 50.5c36 0 66 -10.833 90 -32.5s41.333 -53.5 52 -95.5v-2c0 -5.33301 -2.66699 -8.66602 -8 -9.99902l-31 -5h-2
c-5.33301 0 -8.66602 3 -9.99902 9c-14.667 60 -46.334 90 -95.001 90c-32.667 0 -58.167 -12.5 -76.5 -37.5s-27.5 -60.167 -27.5 -105.5v-157c0 -2.66699 1.33301 -4 4 -4h147c6.66699 0 10 -3.33301 10 -10v-24c0 -6.66699 -3.33301 -10 -10 -10h-147
c-2.66699 0 -4 -1.33301 -4 -4v-130c0 -28 -3.16699 -53 -9.5 -75s-14.833 -40 -25.5 -54c-2 -3.33301 -1.33301 -5 2 -5z" />
    <glyph glyph-name="currency" unicode="&#xa4;" horiz-adv-x="497" 
d="M399 186c-1.33301 -2.66699 -0.99707 -4.66699 1.00293 -6l65 -64c2 -2 3 -4 3 -6c0 -2.66699 -1.33301 -5.33398 -4 -8.00098l-21 -18c-2 -2 -4 -3 -6 -3c-2.66699 0 -5.33398 1.33301 -8.00098 4l-63 61c-2 2 -4 2.33301 -6 1c-34 -25.333 -72.333 -38 -115 -38
c-42 0 -79.333 11.667 -112 35c-2 1.33301 -4 1 -6 -1l-60 -58c-4.66699 -4.66699 -9.33398 -5 -14.001 -1l-20 18c-4.66699 5.33301 -5 10 -1 14l60 60c2 2 2.33301 4 1 6c-28 35.333 -42 75 -42 119c0 42.667 13.333 81 40 115c1.33301 2 1 4 -1 6l-65 65c-2 2 -3 4 -3 6
c0 2.66699 1.33301 5.33398 4 8.00098l21 18c2 2 4.33301 3 7 3s5 -1.33301 7 -4l62 -63c2 -2 4 -2.33301 6 -1c33.333 26 72 39 116 39c45.333 0 85 -14 119 -42c2 -1.33301 4 -1 6 1l66 66c2 2 4.33301 3.16699 7 3.5s5 -0.5 7 -2.5l20 -18
c5.33301 -4.66699 5.66602 -9.33398 0.999023 -14.001l-68 -68c-2 -2 -2.33301 -4 -1 -6c24 -32.667 36 -70 36 -112c0 -43.333 -13 -81.666 -39 -114.999zM118.503 228.5c13 -22.333 30.667 -39.999 53 -52.999s46.833 -19.5 73.5 -19.5c26 0 50.167 6.5 72.5 19.5
s40 30.5 53 52.5s19.5 46.333 19.5 73c0 26 -6.5 50.167 -19.5 72.5s-30.667 40.166 -53 53.499s-46.5 20 -72.5 20c-26.667 0 -51.167 -6.5 -73.5 -19.5s-40 -30.667 -53 -53s-19.5 -46.833 -19.5 -73.5c0 -26 6.5 -50.167 19.5 -72.5z" />
    <glyph glyph-name="yen" unicode="&#xa5;" horiz-adv-x="521" 
d="M427 307l-139.001 -0.000976562c-2.66699 0 -4 -1.33301 -4 -4v-74c0 -2.66699 1.33301 -4 4 -4h139c6.66699 0 10 -3.33301 10 -10v-16c0 -6.66699 -3.33301 -10 -10 -10h-139c-2.66699 0 -4 -1.33301 -4 -4v-175c0 -6.66699 -3.33301 -10 -10 -10h-33
c-6.66699 0 -10 3.33301 -10 10v175c0 2.66699 -1.33301 4 -4 4h-134c-6.66699 0 -10 3.33301 -10 10v16c0 6.66699 3.33301 10 10 10h134c2.66699 0 4 1.33301 4 4v74c0 2.66699 -1.33301 4 -4 4h-134c-6.66699 0 -10 3.33301 -10 10v15c0 6.66699 3.33301 10 10 10h126
c1.33301 0 2.33301 0.5 3 1.5s0.666992 2.16699 0 3.5l-130 341l-1 4c0 5.33301 3 8 9 8h34c6 0 10 -2.66699 12 -8l108 -306c0.666992 -1.33301 1.66699 -2 3 -2s2.33301 0.666992 3 2l108 306c2 5.33301 6 8 12 8h34c3.33301 0 5.83301 -1.16699 7.5 -3.5
s1.83398 -5.16602 0.500977 -8.49902l-129 -341c-0.666992 -1.33301 -0.666992 -2.5 0 -3.5s1.66699 -1.5 3 -1.5h131c6.66699 0 10 -3.33301 10 -10v-15c0 -6.66699 -3.33301 -10 -10 -10z" />
    <glyph glyph-name="brokenbar" unicode="&#xa6;" horiz-adv-x="133" 
d="M40 395v355c0 6.66699 3.33301 10 10 10h33c6.66699 0 10 -3.33301 10 -10v-355c0 -6.66699 -3.33301 -10 -10 -10h-33c-6.66699 0 -10 3.33301 -10 10zM40 -70v347c0 6.66699 3.33301 10 10 10h33c6.66699 0 10 -3.33301 10 -10v-347c0 -6.66699 -3.33301 -10 -10 -10
h-33c-6.66699 0 -10 3.33301 -10 10z" />
    <glyph glyph-name="section" unicode="&#xa7;" horiz-adv-x="375" 
d="M88.5 -164c-25 28.667 -37.502 65.9961 -37.502 111.996v14c0 6.66699 3.33301 10 10 10h33c6.66699 0 10 -3.33301 10 -10v-11c0.666992 -33.333 8.5 -60.166 23.5 -80.499s34.833 -30.5 59.5 -30.5s44.834 10.333 60.501 31s23.5 46.334 23.5 77.001
c0 25.333 -5.66699 46.333 -17 63s-24.166 29.334 -38.499 38.001s-32.5 17.667 -54.5 27c-26 11.333 -46.833 22.833 -62.5 34.5s-28.167 28.167 -37.5 49.5c-10.667 25.333 -16 54 -16 86c0 32.667 8 64 24 94c16.667 30.667 38 50.334 64 59.001
c3.33301 1.33301 3.33301 3 0 5c-24.667 12.667 -44.834 32.334 -60.501 59.001s-23.5 57.334 -23.5 92.001c0 44.667 12.667 81.334 38 110.001s58.333 43 99 43c40 0 72.333 -14.5 97 -43.5s37.334 -66.833 38.001 -113.5v-12c0 -6.66699 -3.33301 -10 -10 -10h-34
c-6.66699 0 -10 3.33301 -10 10v10c0 33.333 -7.5 60.333 -22.5 81s-34.833 31 -59.5 31s-44.667 -10.333 -60 -31s-23 -47.334 -23 -80.001c0 -33.333 8.5 -59.666 25.5 -78.999s43.5 -36.333 79.5 -51c24 -10 43.167 -19.667 57.5 -29s27.5 -23 39.5 -41
c17.333 -28.667 26 -61.334 26 -98.001s-6.66699 -68.334 -20 -95.001c-16 -32.667 -38.667 -53.334 -68 -62.001c-3.33301 -1.33301 -3.33301 -3 0 -5c24 -12.667 43.667 -31.167 59 -55.5s23 -53.833 23 -88.5c0 -44 -12.667 -80.5 -38 -109.5s-58.333 -43.5 -99 -43.5
s-73.5 14.333 -98.5 43zM232.498 139.496c12.333 8.33301 22.5 21.167 30.5 38.5c10 22 15 46.333 15 73c0 29.333 -7.66699 55.333 -23 78c-8 12 -18.167 21.5 -30.5 28.5s-25.5 10.5 -39.5 10.5c-17.333 0 -32.333 -5.16699 -45 -15.5s-22 -22.833 -28 -37.5
c-8.66699 -20 -13 -42.667 -13 -68c0 -26 4.33301 -49.333 13 -70c14.667 -33.333 39.667 -50 75 -50c18 0 33.167 4.16699 45.5 12.5z" />
    <glyph glyph-name="dieresis" unicode="&#xa8;" horiz-adv-x="290" 
d="M180 619c-9.33301 9.33301 -14 21.333 -14 36s4.66699 26.667 14 36s21.333 14 36 14s26.667 -4.66699 36 -14s14 -21.333 14 -36s-4.66699 -26.667 -14 -36s-21.333 -14 -36 -14s-26.667 4.66699 -36 14zM39 619c-9.33301 9.33301 -14 21.333 -14 36
s4.66699 26.667 14 36s21.333 14 36 14s26.667 -4.66699 36 -14s14 -21.333 14 -36s-4.66699 -26.667 -14 -36s-21.333 -14 -36 -14s-26.667 4.66699 -36 14z" />
    <glyph glyph-name="copyright" unicode="&#xa9;" horiz-adv-x="846" 
d="M238.5 39.5c-55 31.667 -98.333 74.834 -130 129.501s-47.5 114.667 -47.5 180c0 66 15.833 126.5 47.5 181.5s75 98.333 130 130s116.167 47.5 183.5 47.5c68 0 129.667 -15.833 185 -47.5s98.833 -75 130.5 -130s47.5 -115.5 47.5 -181.5
c0 -65.333 -15.833 -125.333 -47.5 -180s-75.167 -97.834 -130.5 -129.501s-117 -47.5 -185 -47.5c-67.333 0 -128.5 15.833 -183.5 47.5zM587.5 70.5c49.667 28.333 88.667 67.167 117 116.5s42.5 103.333 42.5 162c0 59.333 -14.167 113.666 -42.5 162.999
s-67.333 88.333 -117 117s-104.834 43 -165.501 43c-60 0 -114.833 -14.333 -164.5 -43s-88.667 -67.667 -117 -117s-42.5 -103.666 -42.5 -162.999c0 -58.667 14.167 -112.5 42.5 -161.5s67.333 -87.833 117 -116.5s104.5 -43 164.5 -43
c60.667 0 115.834 14.167 165.501 42.5zM363.5 202.001c-15 14 -22.5 32.667 -22.5 56v178c0 23.333 7.5 41.833 22.5 55.5s34.833 20.5 59.5 20.5c25.333 0 45.666 -7 60.999 -21s23 -32.333 23 -55v-7c0 -6.66699 -3.33301 -10 -10 -10l-16 -1
c-6.66699 0 -10 3.33301 -10 10v10c0 12.667 -4.33301 22.834 -13 30.501s-20.334 11.5 -35.001 11.5s-26.334 -3.83301 -35.001 -11.5s-13 -17.834 -13 -30.501v-182c0 -12.667 4.33301 -23 13 -31s20.334 -12 35.001 -12s26.334 4 35.001 12s13 18.333 13 31v10
c0 6.66699 3.33301 10 10 10l16 -1c6.66699 0 10 -3.33301 10 -10v-7c0 -22.667 -7.66699 -41.167 -23 -55.5s-35.666 -21.5 -60.999 -21.5c-24.667 0 -44.5 7 -59.5 21z" />
    <glyph glyph-name="ordfeminine" unicode="&#xaa;" horiz-adv-x="271" 
d="M186 561c2.66699 0 4.00293 1.33203 4.00293 3.99902v31c0 23.333 -5.16699 42 -15.5 56s-25.166 21 -44.499 21c-14 0 -26.333 -4.16699 -37 -12.5s-17.334 -19.5 -20.001 -33.5c-1.33301 -7.33301 -5 -10.333 -11 -9l-21 2c-6.66699 1.33301 -9.66699 5 -9 11
c3.33301 22.667 14.166 41.167 32.499 55.5s40.166 21.5 65.499 21.5c31.333 0 55.833 -9.83301 73.5 -29.5s26.5 -46.167 26.5 -79.5v-219c0 -6.66699 -3.33301 -10 -10 -10h-20c-6.66699 0 -10 3.33301 -10 10v17c0 1.33301 -0.5 2.33301 -1.5 3
s-2.16699 0.333984 -3.5 -0.999023c-16 -22.667 -39.667 -34 -71 -34c-24.667 0 -45.834 6.83301 -63.501 20.5s-26.5 38.167 -26.5 73.5c0 68 37.333 102 112 102h50zM169.003 416.499c14 11.667 21 28.834 21 51.501v56c0 2.66699 -1.33301 4 -4 4h-49
c-22 0 -39.5 -6 -52.5 -18s-19.5 -29 -19.5 -51c0 -20.667 5 -35.834 15 -45.501s23.333 -14.5 40 -14.5c18.667 0 35 5.83301 49 17.5zM33.0029 316.999h201c6.66699 0 10 -3.33301 10 -10v-19c0 -6.66699 -3.33301 -10 -10 -10h-201c-6.66699 0 -10 3.33301 -10 10v19
c0 6.66699 3.33301 10 10 10z" />
    <glyph glyph-name="guillemotleft" unicode="&#xab;" horiz-adv-x="475" 
d="M244 113c0 -1.33301 -0.666016 -2.66895 -1.99902 -4.00195s-3.33301 -2 -6 -2h-29c-5.33301 0 -9.33301 2 -12 6l-114 161c-2.66699 4.66699 -2.66699 9.33398 0 14.001l114 161c2.66699 4 6.66699 6 12 6h29c4 0 6.66699 -1.16699 8 -3.5
s0.666016 -5.16602 -2.00098 -8.49902l-112 -159c-0.666992 -2 -0.666992 -4 0 -6l112 -159c1.33301 -1.33301 2 -3.33301 2 -6zM390.001 112.997c0 -1.33301 -0.666016 -2.66895 -1.99902 -4.00195s-3.33301 -2 -6 -2h-29c-5.33301 0 -9.33301 2 -12 6l-114 161
c-2.66699 4.66699 -2.66699 9.33398 0 14.001l114 161c2.66699 4 6.66699 6 12 6h29c4 0 6.66699 -1.16699 8 -3.5s0.666016 -5.16602 -2.00098 -8.49902l-113 -159c-0.666992 -2 -0.666992 -4 0 -6l113 -159c1.33301 -1.33301 2 -3.33301 2 -6z" />
    <glyph glyph-name="logicalnot" unicode="&#xac;" horiz-adv-x="443" 
d="M408 330v-27v-6l-1 -2v-105c0 -6.66699 -3.33301 -10 -10 -10h-24c-6.66699 0 -10 3.33301 -10 10v103c0 2.66699 -1.33301 4 -4 4h-315c-6.66699 0 -10 3.33301 -10 10v23c0 6.66699 3.33301 10 10 10h354c6.66699 0 10 -3.33301 10 -10z" />
    <glyph glyph-name="uni00AD" unicode="&#xad;" horiz-adv-x="309" 
d="M34 301v27c0 6.66699 3.33301 10 10 10h221c6.66699 0 10 -3.33301 10 -10v-27c0 -6.66699 -3.33301 -10 -10 -10h-221c-6.66699 0 -10 3.33301 -10 10z" />
    <glyph glyph-name="registered" unicode="&#xae;" horiz-adv-x="439" 
d="M317.5 689c29.667 -17.333 53.167 -40.666 70.5 -69.999s26 -61.666 26 -96.999s-8.66699 -67.833 -26 -97.5s-40.833 -53 -70.5 -70s-62.5 -25.5 -98.5 -25.5c-35.333 0 -68 8.5 -98 25.5s-53.667 40.333 -71 70s-26 62.167 -26 97.5s8.66699 67.666 26 96.999
s41 52.666 71 69.999s62.667 26 98 26c36 0 68.833 -8.66699 98.5 -26zM301.5 381c25 14.667 44.833 34.5 59.5 59.5s22 52.167 22 81.5s-7.33301 56.5 -22 81.5s-34.5 44.667 -59.5 59s-52.5 21.5 -82.5 21.5s-57.5 -7.16699 -82.5 -21.5s-44.667 -34 -59 -59
s-21.5 -52.167 -21.5 -81.5s7.16699 -56.5 21.5 -81.5s34 -44.833 59 -59.5s52.5 -22 82.5 -22s57.5 7.33301 82.5 22zM274 529.5c-4.66699 -7.66699 -11.334 -13.166 -20.001 -16.499c-2 -1.33301 -2.66699 -3.33301 -2 -6l26 -63l1 -4c0 -5.33301 -3 -8 -9 -8h-8
c-5.33301 0 -9 2.66699 -11 8l-27 65c-0.666992 2 -2 3 -4 3h-19c-2.66699 0 -4 -1.33301 -4 -4v-62c0 -6.66699 -3.33301 -10 -10 -10h-7c-6.66699 0 -10 3.33301 -10 10v158c0 6.66699 3.33301 10 10 10h50c14.667 0 26.834 -5 36.501 -15s14.5 -22.667 14.5 -38
c0 -10.667 -2.33301 -19.834 -7 -27.501zM197 582.001v-49c0 -2.66699 1.33301 -4 4 -4h26c8 0 14.5 2.5 19.5 7.5s7.5 11.833 7.5 20.5s-2.5 15.667 -7.5 21s-11.5 8 -19.5 8h-26c-2.66699 0 -4 -1.33301 -4 -4z" />
    <glyph glyph-name="macron" unicode="&#xaf;" horiz-adv-x="531" 
d="M165 609v20c0 6.66699 3.33301 10 10 10h179c6.66699 0 10 -3.33301 10 -10v-20c0 -6.66699 -3.33301 -10 -10 -10h-179c-6.66699 0 -10 3.33301 -10 10z" />
    <glyph glyph-name="degree" unicode="&#xb0;" horiz-adv-x="358" 
d="M101 515c-24 14 -42.833 33 -56.5 57s-20.5 50.333 -20.5 79s6.83301 55 20.5 79s32.5 43 56.5 57s50 21 78 21s54 -7 78 -21s42.833 -33 56.5 -57s20.5 -50.333 20.5 -79s-6.83301 -55 -20.5 -79s-32.5 -43 -56.5 -57s-50 -21 -78 -21s-54 7 -78 21zM260.5 567.5
c22.333 23 33.5 50.833 33.5 83.5s-11.167 60.5 -33.5 83.5s-49.5 34.5 -81.5 34.5s-59.167 -11.5 -81.5 -34.5s-33.5 -50.833 -33.5 -83.5s11.167 -60.5 33.5 -83.5s49.5 -34.5 81.5 -34.5s59.167 11.5 81.5 34.5z" />
    <glyph glyph-name="plusminus" unicode="&#xb1;" horiz-adv-x="443" 
d="M408 352v-23c0 -6.66699 -3.33301 -10 -10 -10h-152c-2.66699 0 -4 -1.33301 -4 -4v-151c0 -6.66699 -3.33301 -10 -10 -10h-22c-6.66699 0 -10 3.33301 -10 10v151c0 2.66699 -1.33301 4 -4 4h-152c-6.66699 0 -10 3.33301 -10 10v23c0 6.66699 3.33301 10 10 10h152
c2.66699 0 4 1.33301 4 4v152c0 6.66699 3.33301 10 10 10h22c6.66699 0 10 -3.33301 10 -10v-152c0 -2.66699 1.33301 -4 4 -4h152c6.66699 0 10 -3.33301 10 -10zM34 42v23c0 6.66699 3.33301 10 10 10h354c6.66699 0 10 -3.33301 10 -10v-23
c0 -6.66699 -3.33301 -10 -10 -10h-354c-6.66699 0 -10 3.33301 -10 10z" />
    <glyph glyph-name="uni00B2" unicode="&#xb2;" horiz-adv-x="239" 
d="M24 459v18.0029c0 5.33301 1.33301 9.66602 4 12.999l59 96c16 24 31 48 45 72c24.667 43.333 37 80.333 37 111c0 21.333 -4.83301 38.166 -14.5 50.499s-22.5 18.5 -38.5 18.5c-15.333 0 -27.833 -6.16699 -37.5 -18.5s-14.5 -28.833 -14.5 -49.5v-19
c0 -6.66699 -3.33301 -10 -10 -10h-21c-6.66699 0 -10 3.33301 -10 10v20c0.666992 31.333 9.5 56.333 26.5 75s39.5 28 67.5 28s50.5 -9.33301 67.5 -28s25.5 -45 25.5 -79c0 -36.667 -12.667 -77.667 -38 -123c-20 -36.667 -50.667 -88.334 -92 -155.001
c-0.666992 -1.33301 -0.666992 -2.5 0 -3.5s1.66699 -1.5 3 -1.5h129c6.66699 0 10 -3.33301 10 -10v-15c0 -6.66699 -3.33301 -10 -10 -10h-178c-6.66699 0 -10 3.33301 -10 10z" />
    <glyph glyph-name="uni00B3" unicode="&#xb3;" horiz-adv-x="258" 
d="M218 575c0 -26.667 -3.33203 -48.6709 -9.99902 -66.0039c-5.33301 -20.667 -15.5 -36.667 -30.5 -48s-33.833 -17 -56.5 -17c-25.333 0 -46.666 8 -63.999 24s-27.666 37 -30.999 63c-1.33301 14.667 -2 26 -2 34c0 6.66699 3.33301 10 10 10h20
c6.66699 0 10 -3.33301 10 -10c0 -7.33301 0.666992 -15.666 2 -24.999c2.66699 -18.667 8.66699 -33.334 18 -44.001s21.666 -16 36.999 -16c24 0 40.667 13 50 39c6 20.667 9 40.667 9 60c0 20.667 -2 38.334 -6 53.001c-4 16 -10.5 28.167 -19.5 36.5
s-20.167 12.5 -33.5 12.5c-3.33301 0 -7 -0.666992 -11 -2l-6 -1c-3.33301 0 -6 1.33301 -8 4l-9 10c-3.33301 4.66699 -3.66602 9.33398 -0.999023 14.001l80 123c0.666992 0.666992 0.666992 1.66699 0 3s-1.66699 2 -3 2h-127c-6.66699 0 -10 3.33301 -10 10v15
c0 6.66699 3.33301 10 10 10h169c6.66699 0 10 -3.33301 10 -10v-18c0 -3.33301 -1.33301 -7.66602 -4 -12.999l-72 -113c-0.666992 -1.33301 -0.833984 -2.5 -0.500977 -3.5s1.16602 -1.5 2.49902 -1.5c17.333 -2 32.166 -9.66699 44.499 -23s20.833 -30.666 25.5 -51.999
c4.66699 -20.667 7 -40.667 7 -60z" />
    <glyph glyph-name="acute" unicode="&#xb4;" horiz-adv-x="170" 
d="M30 574.5c-1.33301 2.33301 -1 5.16602 1 8.49902l62 110c3.33301 4.66699 7.33301 7 12 7h27c4 0 6.66699 -1.16699 8 -3.5s1 -5.16602 -1 -8.49902l-69 -110c-3.33301 -4.66699 -7.33301 -7 -12 -7h-20c-4 0 -6.66699 1.16699 -8 3.5z" />
    <glyph glyph-name="uni00B5" unicode="&#xb5;" horiz-adv-x="424" 
d="M314 504l32.999 0.00195312c6.66699 0 10 -3.33301 10 -10v-484c0 -6.66699 -3.33301 -10 -10 -10h-33c-6.66699 0 -10 3.33301 -10 10v36c0 2 -0.5 3 -1.5 3s-2.16699 -0.666992 -3.5 -2c-21.333 -36 -55.333 -54 -102 -54c-28 0 -52 6 -72 18
c-1.33301 0.666992 -2.5 0.666992 -3.5 0s-1.5 -1.66699 -1.5 -3v-198c0 -6.66699 -3.33301 -10 -10 -10h-33c-6.66699 0 -10 3.33301 -10 10v684c0 6.66699 3.33301 10 10 10h33c6.66699 0 10 -3.33301 10 -10v-343c0 -36.667 7.83301 -64.334 23.5 -83.001
s37.834 -28 66.501 -28c29.333 0 52.333 10.667 69 32s25 50.666 25 87.999v334c0 6.66699 3.33301 10 10 10z" />
    <glyph glyph-name="paragraph" unicode="&#xb6;" horiz-adv-x="459" 
d="M370 700c6.66699 0 10 -3.33203 10 -9.99902v-880c0 -6.66699 -3.33301 -10 -10 -10h-26c-6.66699 0 -10 3.33301 -10 10v841c0 2.66699 -1.33301 4 -4 4h-86c-2.66699 0 -4 -1.33301 -4 -4v-841c0 -6.66699 -3.33301 -10 -10 -10h-27c-6.66699 0 -10 3.33301 -10 10v436
c0 2.66699 -1.33301 4 -4 4c-30.667 2.66699 -57.5 14.167 -80.5 34.5s-40.833 47.166 -53.5 80.499s-19 70 -19 110c0 42 6.83301 80.167 20.5 114.5s33.167 61.333 58.5 81s54.333 29.5 87 29.5h168z" />
    <glyph glyph-name="periodcentered" unicode="&#xb7;" horiz-adv-x="189" 
d="M58 240c-9.33301 9.33301 -14 21.333 -14 36s4.66699 26.667 14 36s21.333 14 36 14s26.667 -4.66699 36 -14s14 -21.333 14 -36s-4.66699 -26.667 -14 -36s-21.333 -14 -36 -14s-26.667 4.66699 -36 14z" />
    <glyph glyph-name="cedilla" unicode="&#xb8;" horiz-adv-x="113" 
d="M3 -169l3 12.999c0.666992 6.66699 4.66699 9 12 7c2.66699 -0.666992 6.33398 -1 11.001 -1c13.333 0 24.166 4 32.499 12s12.5 20.667 12.5 38c0 28 -14 57.333 -42 88c-2 2 -3 4 -3 6c0 4 2.66699 6 8 6h16c4.66699 0 8 -1 10 -3l4 -4
c30.667 -28.667 46 -60.667 46 -96c0 -29.333 -7.16699 -50.166 -21.5 -62.499s-32.5 -18.5 -54.5 -18.5c-10 0 -19 1 -27 3c-6 0.666992 -8.33301 4.66699 -7 12z" />
    <glyph glyph-name="uni00B9" unicode="&#xb9;" horiz-adv-x="142" 
d="M75 869h24c6.66699 0 10 -3.33301 10 -10v-400c0 -6.66699 -3.33301 -10 -10 -10h-21c-6.66699 0 -10 3.33301 -10 10v365c0 1.33301 -0.5 2.5 -1.5 3.5s-2.16699 1.16699 -3.5 0.5l-30 -10l-3 -1c-5.33301 0 -8 3.33301 -8 10v11c0 6 2.33301 10 7 12l33 16
c4 2 8.33301 3 13 3z" />
    <glyph glyph-name="ordmasculine" unicode="&#xba;" horiz-adv-x="276" 
d="M64.5 392.5c-18.333 18.333 -27.5 42.5 -27.5 72.5v143c0 30 9.16699 54.167 27.5 72.5s42.833 27.5 73.5 27.5s55.167 -9.16699 73.5 -27.5s27.5 -42.5 27.5 -72.5v-143c0 -30 -9.16699 -54.167 -27.5 -72.5s-42.833 -27.5 -73.5 -27.5s-55.167 9.16699 -73.5 27.5z
M182 418.5c11.333 12.333 17 28.166 17 47.499v139c0 20 -5.66699 36.333 -17 49s-26 19 -44 19s-32.667 -6.33301 -44 -19s-17 -29 -17 -49v-139c0 -19.333 5.66699 -35.166 17 -47.499s26 -18.5 44 -18.5s32.667 6.16699 44 18.5zM28 288v19c0 6.66699 3.33301 10 10 10
h201c6.66699 0 10 -3.33301 10 -10v-19c0 -6.66699 -3.33301 -10 -10 -10h-201c-6.66699 0 -10 3.33301 -10 10z" />
    <glyph glyph-name="guillemotright" unicode="&#xbb;" horiz-adv-x="475" 
d="M86 110.5c-1.33301 2.33301 -0.666992 5.16895 2 8.50195l112 159c1.33301 2 1.33301 4 0 6l-112 159c-1.33301 1.33301 -2 3.33301 -2 6c0 1.33301 0.666992 2.66602 2 3.99902s3.33301 2 6 2h29c5.33301 0 9.33301 -2 12 -6l113 -161
c2.66699 -4.66699 2.66699 -9.33398 0 -14.001l-113 -161c-2.66699 -4 -6.66699 -6 -12 -6h-29c-4 0 -6.66699 1.16699 -8 3.5zM231.999 110.503c-1.33301 2.33301 -0.666992 5.16895 2 8.50195l112 159c1.33301 2 1.33301 4 0 6l-112 159c-1.33301 1.33301 -2 3.33301 -2 6
c0 1.33301 0.666992 2.66602 2 3.99902s3.33301 2 6 2h29c5.33301 0 9.33301 -2 12 -6l113 -161c2.66699 -4.66699 2.66699 -9.33398 0 -14.001l-113 -161c-2.66699 -4 -6.66699 -6 -12 -6h-29c-4 0 -6.66699 1.16699 -8 3.5z" />
    <glyph glyph-name="onequarter" unicode="&#xbc;" horiz-adv-x="649" 
d="M75 700h24c6.66699 0 10 -3.33301 10 -10v-400c0 -6.66699 -3.33301 -10 -10 -10h-21c-6.66699 0 -10 3.33301 -10 10v365c0 1.33301 -0.5 2.5 -1.5 3.5s-2.16699 1.16699 -3.5 0.5l-30 -10l-3 -1c-5.33301 0 -8 3.33301 -8 10v11c0 6 2.33301 10 7 12l33 16
c4 2 8.33301 3 13 3zM69.5 3.5c-1 2.33301 -0.5 5.16602 1.5 8.49902l436 681c3.33301 4.66699 7.33301 7 12 7h21c4 0 6.5 -1.16699 7.5 -3.5s0.5 -5.16602 -1.5 -8.49902l-436 -681c-3.33301 -4.66699 -7.33301 -7 -12 -7h-21c-4 0 -6.5 1.16699 -7.5 3.5zM635 142v-17
c0 -6.66699 -3.33301 -10 -10 -10h-13c-2.66699 0 -4 -1.33301 -4 -4v-101c0 -6.66699 -3.33301 -10 -10 -10h-20c-6.66699 -0 -10 3.33301 -10 10v101c0 2.66699 -1.33301 4 -4 4h-130c-6.66699 0 -10 3.33301 -10 10v16c0 2.66699 0.666992 6.66699 2 12l88 259
c2 5.33301 6 8 12 8h22c7.33301 0 10 -3.66699 8 -11l-84 -252c-0.666992 -1.33301 -0.666992 -2.5 0 -3.5s1.66699 -1.5 3 -1.5h89c2.66699 0 4 1.33301 4 4v88c0 6.66699 3.33301 10 10 10h20c6.66699 0 10 -3.33301 10 -10v-88c0 -2.66699 1.33301 -4 4 -4h13
c6.66699 0 10 -3.33301 10 -10z" />
    <glyph glyph-name="onehalf" unicode="&#xbd;" horiz-adv-x="658" 
d="M75 700h24c6.66699 0 10 -3.33301 10 -10v-400c0 -6.66699 -3.33301 -10 -10 -10h-21c-6.66699 0 -10 3.33301 -10 10v365c0 1.33301 -0.5 2.5 -1.5 3.5s-2.16699 1.16699 -3.5 0.5l-30 -10l-3 -1c-5.33301 0 -8 3.33301 -8 10v11c0 6 2.33301 10 7 12l33 16
c4 2 8.33301 3 13 3zM69.5 3.5c-1 2.33301 -0.5 5.16602 1.5 8.49902l436 681c3.33301 4.66699 7.33301 7 12 7h21c4 0 6.5 -1.16699 7.5 -3.5s0.5 -5.16602 -1.5 -8.49902l-436 -681c-3.33301 -4.66699 -7.33301 -7 -12 -7h-21c-4 0 -6.5 1.16699 -7.5 3.5zM442 10v18.0029
c0 5.33301 1.33301 9.66602 4 12.999l59 96c16 24 31 48 45 72c24.667 43.333 37 80.333 37 111c0 21.333 -4.83301 38.166 -14.5 50.499s-22.5 18.5 -38.5 18.5c-15.333 0 -27.833 -6.16699 -37.5 -18.5s-14.5 -28.833 -14.5 -49.5v-19c0 -6.66699 -3.33301 -10 -10 -10
h-21c-6.66699 0 -10 3.33301 -10 10v20c0.666992 31.333 9.5 56.333 26.5 75s39.5 28 67.5 28s50.5 -9.33301 67.5 -28s25.5 -45 25.5 -79c0 -36.667 -12.667 -77.667 -38 -123c-20 -36.667 -50.667 -88.334 -92 -155.001c-0.666992 -1.33301 -0.666992 -2.5 0 -3.5
s1.66699 -1.5 3 -1.5h129c6.66699 0 10 -3.33301 10 -10v-15c0 -6.66699 -3.33301 -10 -10 -10h-178c-6.66699 -0 -10 3.33301 -10 10z" />
    <glyph glyph-name="threequarters" unicode="&#xbe;" horiz-adv-x="716" 
d="M218 404c0 -26.667 -3.33203 -48.6709 -9.99902 -66.0039c-5.33301 -20.667 -15.5 -36.667 -30.5 -48s-33.833 -17 -56.5 -17c-25.333 0 -46.666 8 -63.999 24s-27.666 37 -30.999 63c-1.33301 14.667 -2 26 -2 34c0 6.66699 3.33301 10 10 10h20
c6.66699 0 10 -3.33301 10 -10c0 -7.33301 0.666992 -15.666 2 -24.999c2.66699 -18.667 8.66699 -33.334 18 -44.001s21.666 -16 36.999 -16c24 0 40.667 13 50 39c6 20.667 9 40.667 9 60c0 20.667 -2 38.334 -6 53.001c-4 16 -10.5 28.167 -19.5 36.5
s-20.167 12.5 -33.5 12.5c-3.33301 0 -7 -0.666992 -11 -2l-6 -1c-3.33301 0 -6 1.33301 -8 4l-9 10c-3.33301 4.66699 -3.66602 9.33398 -0.999023 14.001l80 123c0.666992 0.666992 0.666992 1.66699 0 3s-1.66699 2 -3 2h-127c-6.66699 0 -10 3.33301 -10 10v15
c0 6.66699 3.33301 10 10 10h169c6.66699 0 10 -3.33301 10 -10v-18c0 -3.33301 -1.33301 -7.66602 -4 -12.999l-72 -113c-0.666992 -1.33301 -0.833984 -2.5 -0.500977 -3.5s1.16602 -1.5 2.49902 -1.5c17.333 -2 32.166 -9.66699 44.499 -23s20.833 -30.666 25.5 -51.999
c4.66699 -20.667 7 -40.667 7 -60zM136.501 3.49609c-1 2.33301 -0.5 5.16602 1.5 8.49902l436 681c3.33301 4.66699 7.33301 7 12 7h21c4 0 6.5 -1.16699 7.5 -3.5s0.5 -5.16602 -1.5 -8.49902l-436 -681c-3.33301 -4.66699 -7.33301 -7 -12 -7h-21
c-4 0 -6.5 1.16699 -7.5 3.5zM703.001 141.996v-17c0 -6.66699 -3.33301 -10 -10 -10h-13c-2.66699 0 -4 -1.33301 -4 -4v-101c0 -6.66699 -3.33301 -10 -10 -10h-20c-6.66699 0 -10 3.33301 -10 10v101c0 2.66699 -1.33301 4 -4 4h-130c-6.66699 0 -10 3.33301 -10 10v16
c0 2.66699 0.666992 6.66699 2 12l88 259c2 5.33301 6 8 12 8h22c7.33301 0 10 -3.66699 8 -11l-84 -252c-0.666992 -1.33301 -0.666992 -2.5 0 -3.5s1.66699 -1.5 3 -1.5h89c2.66699 0 4 1.33301 4 4v88c0 6.66699 3.33301 10 10 10h20c6.66699 0 10 -3.33301 10 -10v-88
c0 -2.66699 1.33301 -4 4 -4h13c6.66699 0 10 -3.33301 10 -10z" />
    <glyph glyph-name="questiondown" unicode="&#xbf;" horiz-adv-x="352" 
d="M225 483c9.33301 -9.33301 14 -21.333 14 -36s-4.66699 -26.667 -14 -36s-21.333 -14 -36 -14s-26.667 4.66699 -36 14s-14 21.333 -14 36s4.66699 26.667 14 36s21.333 14 36 14s26.667 -4.66699 36 -14zM217 295l-0.00195312 -65
c0 -27.333 -5.16699 -49.833 -15.5 -67.5s-26.166 -37.5 -47.499 -59.5c-22.667 -23.333 -39.667 -44.833 -51 -64.5s-17 -45.5 -17 -77.5c0 -36.667 8.16699 -66 24.5 -88s38.166 -33 65.499 -33c28 0 50.5 11.167 67.5 33.5s25.5 51.833 25.5 88.5v34
c0 6.66699 3.33301 10 10 10l33 -2c6.66699 0 10 -3.33301 10 -10v-32c0 -50.667 -13.667 -91.834 -41 -123.501s-62.666 -47.5 -105.999 -47.5s-77.833 15.5 -103.5 46.5s-38.5 72.5 -38.5 124.5c0 42 6.83301 75.333 20.5 100s32.834 49.334 57.501 74.001
c18 19.333 31.167 35.5 39.5 48.5s12.5 29.167 12.5 48.5v62c0 6.66699 3.33301 10 10 10h34c6.66699 0 10 -3.33301 10 -10z" />
    <glyph glyph-name="Agrave" unicode="&#xc0;" horiz-adv-x="391" 
d="M325 9l-27 131c0 1.33301 -0.5 2.33301 -1.5 3s-2.16699 1 -3.5 1h-196c-1.33301 0 -2.5 -0.333008 -3.5 -1s-1.5 -1.66699 -1.5 -3l-27 -131c-0.666992 -6 -4.33398 -9 -11.001 -9h-33c-3.33301 0 -5.83301 1 -7.5 3s-2.16699 4.66699 -1.5 8l152 680
c1.33301 6 5 9 11 9h40c6.66699 0 10.334 -3 11.001 -9l153 -680v-2c0 -6 -3 -9 -9 -9h-34c-6 0 -9.66699 3 -11 9zM106 188h177.002c2 0 3 1.33301 3 4l-89 423c-0.666992 2 -1.33398 3 -2.00098 3s-1.33398 -1 -2.00098 -3l-90 -423c0 -2.66699 1 -4 3 -4zM212.002 773
c0 -4 -3 -6 -9 -6h-21c-4.66699 0 -8.66699 2.33301 -12 7l-68 110c-1.33301 2.66699 -2 4.66699 -2 6c0 4 3 6 9 6h27c4.66699 0 8.66699 -2.33301 12 -7l62 -110c1.33301 -2.66699 2 -4.66699 2 -6z" />
    <glyph glyph-name="Aacute" unicode="&#xc1;" horiz-adv-x="391" 
d="M325 9l-27 131c0 1.33301 -0.5 2.33301 -1.5 3s-2.16699 1 -3.5 1h-196c-1.33301 0 -2.5 -0.333008 -3.5 -1s-1.5 -1.66699 -1.5 -3l-27 -131c-0.666992 -6 -4.33398 -9 -11.001 -9h-33c-3.33301 0 -5.83301 1 -7.5 3s-2.16699 4.66699 -1.5 8l152 680
c1.33301 6 5 9 11 9h40c6.66699 0 10.334 -3 11.001 -9l153 -680v-2c0 -6 -3 -9 -9 -9h-34c-6 0 -9.66699 3 -11 9zM106 188h177.002c2 0 3 1.33301 3 4l-89 423c-0.666992 2 -1.33398 3 -2.00098 3s-1.33398 -1 -2.00098 -3l-90 -423c0 -2.66699 1 -4 3 -4zM158.002 770.5
c-1.33301 2.33301 -1 5.16602 1 8.49902l62 110c3.33301 4.66699 7.33301 7 12 7h27c4 0 6.66699 -1.16699 8 -3.5s1 -5.16602 -1 -8.49902l-69 -110c-3.33301 -4.66699 -7.33301 -7 -12 -7h-20c-4 0 -6.66699 1.16699 -8 3.5z" />
    <glyph glyph-name="Acircumflex" unicode="&#xc2;" horiz-adv-x="391" 
d="M325 9l-27 131c0 1.33301 -0.5 2.33301 -1.5 3s-2.16699 1 -3.5 1h-196c-1.33301 0 -2.5 -0.333008 -3.5 -1s-1.5 -1.66699 -1.5 -3l-27 -131c-0.666992 -6 -4.33398 -9 -11.001 -9h-33c-3.33301 0 -5.83301 1 -7.5 3s-2.16699 4.66699 -1.5 8l152 680
c1.33301 6 5 9 11 9h40c6.66699 0 10.334 -3 11.001 -9l153 -680v-2c0 -6 -3 -9 -9 -9h-34c-6 0 -9.66699 3 -11 9zM106 188h177.002c2 0 3 1.33301 3 4l-89 423c-0.666992 2 -1.33398 3 -2.00098 3s-1.33398 -1 -2.00098 -3l-90 -423c0 -2.66699 1 -4 3 -4zM94.502 778.5
c-1 2.33301 -0.5 5.16699 1.5 8.5l65 102c3.33301 4.66699 7.33301 7 12 7h42c4.66699 0 8.66699 -2.33301 12 -7l67 -102c1.33301 -2.66699 2 -4.66699 2 -6c0 -4 -2.66699 -6 -8 -6h-31c-4.66699 0 -8.66699 2.33301 -12 7l-47 76c-0.666992 1.33301 -1.66699 2 -3 2
s-2.33301 -0.666992 -3 -2l-47 -76c-3.33301 -4.66699 -7.33301 -7 -12 -7h-31c-4 0 -6.5 1.16699 -7.5 3.5z" />
    <glyph glyph-name="Atilde" unicode="&#xc3;" horiz-adv-x="391" 
d="M325 9l-27 131c0 1.33301 -0.5 2.33301 -1.5 3s-2.16699 1 -3.5 1h-196c-1.33301 0 -2.5 -0.333008 -3.5 -1s-1.5 -1.66699 -1.5 -3l-27 -131c-0.666992 -6 -4.33398 -9 -11.001 -9h-33c-3.33301 0 -5.83301 1 -7.5 3s-2.16699 4.66699 -1.5 8l152 680
c1.33301 6 5 9 11 9h40c6.66699 0 10.334 -3 11.001 -9l153 -680v-2c0 -6 -3 -9 -9 -9h-34c-6 0 -9.66699 3 -11 9zM106 188h177.002c2 0 3 1.33301 3 4l-89 423c-0.666992 2 -1.33398 3 -2.00098 3s-1.33398 -1 -2.00098 -3l-90 -423c0 -2.66699 1 -4 3 -4zM229.502 815.5
c-7.66699 3.66699 -16.834 9.16992 -27.501 16.5029c-2 1.33301 -6 4.16602 -12 8.49902s-11.667 7.5 -17 9.5s-10.666 3 -15.999 3c-10 0 -18.333 -1.83301 -25 -5.5s-13.667 -10.834 -21 -21.501c-4 -6 -8.66699 -7 -14 -3l-12 9c-6 3.33301 -7.33301 7.66602 -4 12.999
c18 32 42.333 48 73 48c10 0 19 -2 27 -6s17.667 -9.66699 29 -17c3.33301 -2 8 -5.16699 14 -9.5s11.667 -7.5 17 -9.5s10.666 -3 15.999 -3c8.66699 0 16.5 2.16699 23.5 6.5s13.833 12.166 20.5 23.499c3.33301 6.66699 8 8 14 4l12 -7c2.66699 -2 4 -4.66699 4 -8
s-1.33301 -7.33301 -4 -12c-9.33301 -15.333 -20.666 -26.666 -33.999 -33.999s-26 -11 -38 -11c-9.33301 0 -17.833 1.83301 -25.5 5.5z" />
    <glyph glyph-name="Adieresis" unicode="&#xc4;" horiz-adv-x="391" 
d="M325 9l-27 131c0 1.33301 -0.5 2.33301 -1.5 3s-2.16699 1 -3.5 1h-196c-1.33301 0 -2.5 -0.333008 -3.5 -1s-1.5 -1.66699 -1.5 -3l-27 -131c-0.666992 -6 -4.33398 -9 -11.001 -9h-33c-3.33301 0 -5.83301 1 -7.5 3s-2.16699 4.66699 -1.5 8l152 680
c1.33301 6 5 9 11 9h40c6.66699 0 10.334 -3 11.001 -9l153 -680v-2c0 -6 -3 -9 -9 -9h-34c-6 0 -9.66699 3 -11 9zM106 188h177.002c2 0 3 1.33301 3 4l-89 423c-0.666992 2 -1.33398 3 -2.00098 3s-1.33398 -1 -2.00098 -3l-90 -423c0 -2.66699 1 -4 3 -4zM230.002 815
c-9.33301 9.33301 -14 21.333 -14 36s4.66699 26.667 14 36s21.333 14 36 14s26.667 -4.66699 36 -14s14 -21.333 14 -36s-4.66699 -26.667 -14 -36s-21.333 -14 -36 -14s-26.667 4.66699 -36 14zM89.002 815c-9.33301 9.33301 -14 21.333 -14 36s4.66699 26.667 14 36
s21.333 14 36 14s26.667 -4.66699 36 -14s14 -21.333 14 -36s-4.66699 -26.667 -14 -36s-21.333 -14 -36 -14s-26.667 4.66699 -36 14z" />
    <glyph glyph-name="Aring" unicode="&#xc5;" horiz-adv-x="391" 
d="M325 9l-27 131c0 1.33301 -0.5 2.33301 -1.5 3s-2.16699 1 -3.5 1h-196c-1.33301 0 -2.5 -0.333008 -3.5 -1s-1.5 -1.66699 -1.5 -3l-27 -131c-0.666992 -6 -4.33398 -9 -11.001 -9h-33c-3.33301 0 -5.83301 1 -7.5 3s-2.16699 4.66699 -1.5 8l152 680
c1.33301 6 5 9 11 9h40c6.66699 0 10.334 -3 11.001 -9l153 -680v-2c0 -6 -3 -9 -9 -9h-34c-6 0 -9.66699 3 -11 9zM106 188h177.002c2 0 3 1.33301 3 4l-89 423c-0.666992 2 -1.33398 3 -2.00098 3s-1.33398 -1 -2.00098 -3l-90 -423c0 -2.66699 1 -4 3 -4zM123.502 809.5
c-19.667 20.333 -29.5 44.833 -29.5 73.5s9.83301 53.167 29.5 73.5s43.5 30.5 71.5 30.5c28.667 0 52.834 -10 72.501 -30s29.5 -44.667 29.5 -74s-9.83301 -54 -29.5 -74s-43.834 -30 -72.501 -30c-28 0 -51.833 10.167 -71.5 30.5zM242.502 834
c13 13.333 19.5 29.666 19.5 48.999s-6.5 35.666 -19.5 48.999s-28.833 20 -47.5 20c-18 0 -33.667 -6.66699 -47 -20s-20 -29.666 -20 -48.999s6.66699 -35.666 20 -48.999s29 -20 47 -20c18.667 0 34.5 6.66699 47.5 20z" />
    <glyph glyph-name="AE" unicode="&#xc6;" horiz-adv-x="685" 
d="M631 653l-237 0.000976562c-2.66699 0 -4 -1.33301 -4 -4v-271c0 -2.66699 1.33301 -4 4 -4h152c6.66699 0 10 -3.33301 10 -10v-27c0 -6.66699 -3.33301 -10 -10 -10h-152c-2.66699 0 -4 -1.33301 -4 -4v-272c0 -2.66699 1.33301 -4 4 -4h237
c6.66699 0 10 -3.33301 10 -10v-27c0 -6.66699 -3.33301 -10 -10 -10h-285c-6.66699 0 -10 3.33301 -10 10v130c0 2.66699 -1.33301 4 -4 4h-201c-1.33301 0 -2.66602 -1 -3.99902 -3l-59 -133c-2 -5.33301 -5.66699 -8 -11 -8h-34c-3.33301 0 -5.83301 1.16699 -7.5 3.5
s-1.83398 5.16602 -0.500977 8.49902l302 680c2 5.33301 5.66699 8 11 8h303c6.66699 0 10 -3.33301 10 -10v-27c0 -6.66699 -3.33301 -10 -10 -10zM149 189.501c0.666992 -1 1.66699 -1.5 3 -1.5h180c2.66699 0 4 1.33301 4 4l1 420c0 2 -0.666992 3 -2 3
s-2.33301 -0.666992 -3 -2l-183 -420c-0.666992 -1.33301 -0.666992 -2.5 0 -3.5z" />
    <glyph glyph-name="Ccedilla" unicode="&#xc7;" horiz-adv-x="441" 
d="M383 516c-2 -2 -4.33496 -3.00098 -7.00195 -3.00098l-33 -2c-6.66699 0 -10 3.33301 -10 10v25c0 34.667 -10 62.5 -30 83.5s-46.667 31.5 -80 31.5c-32.667 0 -59 -10.5 -79 -31.5s-30 -48.833 -30 -83.5v-391c0 -34.667 10 -62.667 30 -84s46.333 -32 79 -32
s59.167 10.667 79.5 32s30.5 49.333 30.5 84v23c0 6.66699 3.33301 10 10 10l33 -2c6.66699 0 10 -3.33301 10 -10v-17c0 -46 -12.333 -83.667 -37 -113s-58 -46.666 -100 -51.999c-3.33301 -1.33301 -4 -3 -2 -5c28 -28 42 -58.667 42 -92
c0 -29.333 -7.16699 -50.333 -21.5 -63s-32.166 -19 -53.499 -19c-10 0 -19 1 -27 3c-6 0.666992 -8.33301 4.66699 -7 12l2 14c0.666992 3.33301 2.16699 5.5 4.5 6.5s4.83301 1.16699 7.5 0.5s7 -1 13 -1c12.667 0 23 4 31 12s12 21 12 39c0 28 -15.333 58 -46 90
c-1.33301 1.33301 -3 2 -5 2c-42 5.33301 -75.5 22.833 -100.5 52.5s-37.5 67.5 -37.5 113.5v384c0 50 14.833 90 44.5 120s68.834 45 117.501 45c49.333 0 88.833 -15 118.5 -45s44.5 -70 44.5 -120v-19c0 -3.33301 -1 -6 -3 -8z" />
    <glyph glyph-name="Egrave" unicode="&#xc8;" horiz-adv-x="427" 
d="M373 653h-237c-2.66699 0 -4 -1.33301 -4 -4v-271c0 -2.66699 1.33301 -4 4 -4h152c6.66699 0 10 -3.33301 10 -10v-27c0 -6.66699 -3.33301 -10 -10 -10h-152c-2.66699 0 -4 -1.33301 -4 -4v-272c0 -2.66699 1.33301 -4 4 -4h237c6.66699 0 10 -3.33301 10 -10v-27
c0 -6.66699 -3.33301 -10 -10 -10h-284c-6.66699 -0 -10 3.33301 -10 10v680c0 6.66699 3.33301 10 10 10h284c6.66699 0 10 -3.33301 10 -10v-27c0 -6.66699 -3.33301 -10 -10 -10zM248 773c0 -4 -3 -6 -9 -6h-21c-4.66699 0 -8.66699 2.33301 -12 7l-68 110
c-1.33301 2.66699 -2 4.66699 -2 6c0 4 3 6 9 6h27c4.66699 0 8.66699 -2.33301 12 -7l62 -110c1.33301 -2.66699 2 -4.66699 2 -6z" />
    <glyph glyph-name="Eacute" unicode="&#xc9;" horiz-adv-x="427" 
d="M373 653h-237c-2.66699 0 -4 -1.33301 -4 -4v-271c0 -2.66699 1.33301 -4 4 -4h152c6.66699 0 10 -3.33301 10 -10v-27c0 -6.66699 -3.33301 -10 -10 -10h-152c-2.66699 0 -4 -1.33301 -4 -4v-272c0 -2.66699 1.33301 -4 4 -4h237c6.66699 0 10 -3.33301 10 -10v-27
c0 -6.66699 -3.33301 -10 -10 -10h-284c-6.66699 -0 -10 3.33301 -10 10v680c0 6.66699 3.33301 10 10 10h284c6.66699 0 10 -3.33301 10 -10v-27c0 -6.66699 -3.33301 -10 -10 -10zM194 770.5c-1.33301 2.33301 -1 5.16602 1 8.49902l62 110
c3.33301 4.66699 7.33301 7 12 7h27c4 0 6.66699 -1.16699 8 -3.5s1 -5.16602 -1 -8.49902l-69 -110c-3.33301 -4.66699 -7.33301 -7 -12 -7h-20c-4 0 -6.66699 1.16699 -8 3.5z" />
    <glyph glyph-name="Ecircumflex" unicode="&#xca;" horiz-adv-x="427" 
d="M373 653h-237c-2.66699 0 -4 -1.33301 -4 -4v-271c0 -2.66699 1.33301 -4 4 -4h152c6.66699 0 10 -3.33301 10 -10v-27c0 -6.66699 -3.33301 -10 -10 -10h-152c-2.66699 0 -4 -1.33301 -4 -4v-272c0 -2.66699 1.33301 -4 4 -4h237c6.66699 0 10 -3.33301 10 -10v-27
c0 -6.66699 -3.33301 -10 -10 -10h-284c-6.66699 -0 -10 3.33301 -10 10v680c0 6.66699 3.33301 10 10 10h284c6.66699 0 10 -3.33301 10 -10v-27c0 -6.66699 -3.33301 -10 -10 -10zM130.5 778.5c-1 2.33301 -0.5 5.16699 1.5 8.5l65 102c3.33301 4.66699 7.33301 7 12 7h42
c4.66699 0 8.66699 -2.33301 12 -7l67 -102c1.33301 -2.66699 2 -4.66699 2 -6c0 -4 -2.66699 -6 -8 -6h-31c-4.66699 0 -8.66699 2.33301 -12 7l-47 76c-0.666992 1.33301 -1.66699 2 -3 2s-2.33301 -0.666992 -3 -2l-47 -76c-3.33301 -4.66699 -7.33301 -7 -12 -7h-31
c-4 0 -6.5 1.16699 -7.5 3.5z" />
    <glyph glyph-name="Edieresis" unicode="&#xcb;" horiz-adv-x="427" 
d="M373 653h-237c-2.66699 0 -4 -1.33301 -4 -4v-271c0 -2.66699 1.33301 -4 4 -4h152c6.66699 0 10 -3.33301 10 -10v-27c0 -6.66699 -3.33301 -10 -10 -10h-152c-2.66699 0 -4 -1.33301 -4 -4v-272c0 -2.66699 1.33301 -4 4 -4h237c6.66699 0 10 -3.33301 10 -10v-27
c0 -6.66699 -3.33301 -10 -10 -10h-284c-6.66699 -0 -10 3.33301 -10 10v680c0 6.66699 3.33301 10 10 10h284c6.66699 0 10 -3.33301 10 -10v-27c0 -6.66699 -3.33301 -10 -10 -10zM266 815c-9.33301 9.33301 -14 21.333 -14 36s4.66699 26.667 14 36s21.333 14 36 14
s26.667 -4.66699 36 -14s14 -21.333 14 -36s-4.66699 -26.667 -14 -36s-21.333 -14 -36 -14s-26.667 4.66699 -36 14zM125 815c-9.33301 9.33301 -14 21.333 -14 36s4.66699 26.667 14 36s21.333 14 36 14s26.667 -4.66699 36 -14s14 -21.333 14 -36
s-4.66699 -26.667 -14 -36s-21.333 -14 -36 -14s-26.667 4.66699 -36 14z" />
    <glyph glyph-name="Igrave" unicode="&#xcc;" horiz-adv-x="211" 
d="M79 10v680c0 6.66699 3.33301 10 10 10h33c6.66699 0 10 -3.33301 10 -10v-680c0 -6.66699 -3.33301 -10 -10 -10h-33c-6.66699 -0 -10 3.33301 -10 10zM123 773c0 -4 -3 -6 -9 -6h-21c-4.66699 0 -8.66699 2.33301 -12 7l-68 110c-1.33301 2.66699 -2 4.66699 -2 6
c0 4 3 6 9 6h27c4.66699 0 8.66699 -2.33301 12 -7l62 -110c1.33301 -2.66699 2 -4.66699 2 -6z" />
    <glyph glyph-name="Iacute" unicode="&#xcd;" horiz-adv-x="211" 
d="M79 10v680c0 6.66699 3.33301 10 10 10h33c6.66699 0 10 -3.33301 10 -10v-680c0 -6.66699 -3.33301 -10 -10 -10h-33c-6.66699 -0 -10 3.33301 -10 10zM68 770.5c-1.33301 2.33301 -1 5.16602 1 8.49902l62 110c3.33301 4.66699 7.33301 7 12 7h27
c4 0 6.66699 -1.16699 8 -3.5s1 -5.16602 -1 -8.49902l-69 -110c-3.33301 -4.66699 -7.33301 -7 -12 -7h-20c-4 0 -6.66699 1.16699 -8 3.5z" />
    <glyph glyph-name="Icircumflex" unicode="&#xce;" horiz-adv-x="211" 
d="M79 10v680c0 6.66699 3.33301 10 10 10h33c6.66699 0 10 -3.33301 10 -10v-680c0 -6.66699 -3.33301 -10 -10 -10h-33c-6.66699 -0 -10 3.33301 -10 10zM4.5 778.5c-1 2.33301 -0.5 5.16699 1.5 8.5l65 102c3.33301 4.66699 7.33301 7 12 7h42
c4.66699 0 8.66699 -2.33301 12 -7l67 -102c1.33301 -2.66699 2 -4.66699 2 -6c0 -4 -2.66699 -6 -8 -6h-31c-4.66699 0 -8.66699 2.33301 -12 7l-47 76c-0.666992 1.33301 -1.66699 2 -3 2s-2.33301 -0.666992 -3 -2l-47 -76c-3.33301 -4.66699 -7.33301 -7 -12 -7h-31
c-4 0 -6.5 1.16699 -7.5 3.5z" />
    <glyph glyph-name="Idieresis" unicode="&#xcf;" horiz-adv-x="211" 
d="M79 10v680c0 6.66699 3.33301 10 10 10h33c6.66699 0 10 -3.33301 10 -10v-680c0 -6.66699 -3.33301 -10 -10 -10h-33c-6.66699 -0 -10 3.33301 -10 10zM140 815c-9.33301 9.33301 -14 21.333 -14 36s4.66699 26.667 14 36s21.333 14 36 14s26.667 -4.66699 36 -14
s14 -21.333 14 -36s-4.66699 -26.667 -14 -36s-21.333 -14 -36 -14s-26.667 4.66699 -36 14zM-1 815c-9.33301 9.33301 -14 21.333 -14 36s4.66699 26.667 14 36s21.333 14 36 14s26.667 -4.66699 36 -14s14 -21.333 14 -36s-4.66699 -26.667 -14 -36s-21.333 -14 -36 -14
s-26.667 4.66699 -36 14z" />
    <glyph glyph-name="Eth" unicode="&#xd0;" horiz-adv-x="509" 
d="M399 650.5c28.667 -33 43 -77.833 43 -134.5v-332c0 -56.667 -14.333 -101.5 -43 -134.5s-67.667 -49.5 -117 -49.5h-147c-6.66699 -0 -10 3.33301 -10 10v333c0 2.66699 -1.33301 4 -4 4h-32c-6.66699 0 -10 3.33301 -10 10v17c0 6.66699 3.33301 10 10 10h32
c2.66699 0 4 1.33301 4 4v302c0 6.66699 3.33301 10 10 10h147c49.333 0 88.333 -16.5 117 -49.5zM389 514c0 42.667 -9.5 76.5 -28.5 101.5s-45.167 37.5 -78.5 37.5h-100c-2.66699 0 -4 -1.33301 -4 -4v-261c0 -2.66699 1.33301 -4 4 -4h85c6.66699 0 10 -3.33301 10 -10
v-17c0 -6.66699 -3.33301 -10 -10 -10h-85c-2.66699 0 -4 -1.33301 -4 -4v-292c0 -2.66699 1.33301 -4 4 -4h100c32.667 0.666992 58.5 13.167 77.5 37.5s28.833 57.833 29.5 100.5v329z" />
    <glyph glyph-name="Ntilde" unicode="&#xd1;" horiz-adv-x="488" 
d="M367 700h32c6.66699 0 10 -3.33301 10 -10v-680c0 -6.66699 -3.33301 -10 -10 -10h-39c-5.33301 0 -9 2.66699 -11 8l-213 560c-0.666992 2 -1.66699 2.83301 -3 2.5s-2 -1.5 -2 -3.5l1 -557c0 -6.66699 -3.33301 -10 -10 -10h-33c-6.66699 -0 -10 3.33301 -10 10v680
c0 6.66699 3.33301 10 10 10h38c5.33301 0 9 -2.66699 11 -8l214 -557c0.666992 -2 1.66699 -2.83301 3 -2.5s2 1.5 2 3.5v554c0 6.66699 3.33301 10 10 10zM278.5 823.5c-7.66699 3.66699 -16.834 9.16992 -27.501 16.5029c-2 1.33301 -6 4.16602 -12 8.49902
s-11.667 7.5 -17 9.5s-10.666 3 -15.999 3c-10 0 -18.333 -1.83301 -25 -5.5s-13.667 -10.834 -21 -21.501c-4 -6 -8.66699 -7 -14 -3l-12 9c-6 3.33301 -7.33301 7.66602 -4 12.999c18 32 42.333 48 73 48c10 0 19 -2 27 -6s17.667 -9.66699 29 -17
c3.33301 -2 8 -5.16699 14 -9.5s11.667 -7.5 17 -9.5s10.666 -3 15.999 -3c8.66699 0 16.5 2.16699 23.5 6.5s13.833 12.166 20.5 23.499c3.33301 6.66699 8 8 14 4l12 -7c2.66699 -2 4 -4.66699 4 -8s-1.33301 -7.33301 -4 -12
c-9.33301 -15.333 -20.666 -26.666 -33.999 -33.999s-26 -11 -38 -11c-9.33301 0 -17.833 1.83301 -25.5 5.5z" />
    <glyph glyph-name="Ograve" unicode="&#xd2;" horiz-adv-x="451" 
d="M106.5 38.5c-30.333 31 -45.5 71.5 -45.5 121.5v379c0 50.667 15 91.5 45 122.5s69.667 46.5 119 46.5s89.333 -15.5 120 -46.5s46 -71.833 46 -122.5v-379c0 -50 -15.333 -90.5 -46 -121.5s-70.667 -46.5 -120 -46.5c-48.667 0 -88.167 15.5 -118.5 46.5zM306.5 72
c21 22 31.5 50.667 31.5 86v383c0 35.333 -10.5 64.166 -31.5 86.499s-48.167 33.5 -81.5 33.5c-32.667 0 -59.334 -11.167 -80.001 -33.5s-31 -51.166 -31 -86.499v-383c0 -35.333 10.333 -64 31 -86s47.334 -33 80.001 -33c33.333 0 60.5 11 81.5 33zM242 772
c0 -4 -3 -6 -9 -6h-21c-4.66699 0 -8.66699 2.33301 -12 7l-68 110c-1.33301 2.66699 -2 4.66699 -2 6c0 4 3 6 9 6h27c4.66699 0 8.66699 -2.33301 12 -7l62 -110c1.33301 -2.66699 2 -4.66699 2 -6z" />
    <glyph glyph-name="Oacute" unicode="&#xd3;" horiz-adv-x="451" 
d="M106.5 38.5c-30.333 31 -45.5 71.5 -45.5 121.5v379c0 50.667 15 91.5 45 122.5s69.667 46.5 119 46.5s89.333 -15.5 120 -46.5s46 -71.833 46 -122.5v-379c0 -50 -15.333 -90.5 -46 -121.5s-70.667 -46.5 -120 -46.5c-48.667 0 -88.167 15.5 -118.5 46.5zM306.5 72
c21 22 31.5 50.667 31.5 86v383c0 35.333 -10.5 64.166 -31.5 86.499s-48.167 33.5 -81.5 33.5c-32.667 0 -59.334 -11.167 -80.001 -33.5s-31 -51.166 -31 -86.499v-383c0 -35.333 10.333 -64 31 -86s47.334 -33 80.001 -33c33.333 0 60.5 11 81.5 33zM188 769.5
c-1.33301 2.33301 -1 5.16602 1 8.49902l62 110c3.33301 4.66699 7.33301 7 12 7h27c4 0 6.66699 -1.16699 8 -3.5s1 -5.16602 -1 -8.49902l-69 -110c-3.33301 -4.66699 -7.33301 -7 -12 -7h-20c-4 0 -6.66699 1.16699 -8 3.5z" />
    <glyph glyph-name="Ocircumflex" unicode="&#xd4;" horiz-adv-x="451" 
d="M106.5 38.5c-30.333 31 -45.5 71.5 -45.5 121.5v379c0 50.667 15 91.5 45 122.5s69.667 46.5 119 46.5s89.333 -15.5 120 -46.5s46 -71.833 46 -122.5v-379c0 -50 -15.333 -90.5 -46 -121.5s-70.667 -46.5 -120 -46.5c-48.667 0 -88.167 15.5 -118.5 46.5zM306.5 72
c21 22 31.5 50.667 31.5 86v383c0 35.333 -10.5 64.166 -31.5 86.499s-48.167 33.5 -81.5 33.5c-32.667 0 -59.334 -11.167 -80.001 -33.5s-31 -51.166 -31 -86.499v-383c0 -35.333 10.333 -64 31 -86s47.334 -33 80.001 -33c33.333 0 60.5 11 81.5 33zM124.5 777.5
c-1 2.33301 -0.5 5.16699 1.5 8.5l65 102c3.33301 4.66699 7.33301 7 12 7h42c4.66699 0 8.66699 -2.33301 12 -7l67 -102c1.33301 -2.66699 2 -4.66699 2 -6c0 -4 -2.66699 -6 -8 -6h-31c-4.66699 0 -8.66699 2.33301 -12 7l-47 76c-0.666992 1.33301 -1.66699 2 -3 2
s-2.33301 -0.666992 -3 -2l-47 -76c-3.33301 -4.66699 -7.33301 -7 -12 -7h-31c-4 0 -6.5 1.16699 -7.5 3.5z" />
    <glyph glyph-name="Otilde" unicode="&#xd5;" horiz-adv-x="451" 
d="M106.5 38.5c-30.333 31 -45.5 71.5 -45.5 121.5v379c0 50.667 15 91.5 45 122.5s69.667 46.5 119 46.5s89.333 -15.5 120 -46.5s46 -71.833 46 -122.5v-379c0 -50 -15.333 -90.5 -46 -121.5s-70.667 -46.5 -120 -46.5c-48.667 0 -88.167 15.5 -118.5 46.5zM306.5 72
c21 22 31.5 50.667 31.5 86v383c0 35.333 -10.5 64.166 -31.5 86.499s-48.167 33.5 -81.5 33.5c-32.667 0 -59.334 -11.167 -80.001 -33.5s-31 -51.166 -31 -86.499v-383c0 -35.333 10.333 -64 31 -86s47.334 -33 80.001 -33c33.333 0 60.5 11 81.5 33zM259.5 814.5
c-7.66699 3.66699 -16.834 9.16992 -27.501 16.5029c-2 1.33301 -6 4.16602 -12 8.49902s-11.667 7.5 -17 9.5s-10.666 3 -15.999 3c-10 0 -18.333 -1.83301 -25 -5.5s-13.667 -10.834 -21 -21.501c-4 -6 -8.66699 -7 -14 -3l-12 9c-6 3.33301 -7.33301 7.66602 -4 12.999
c18 32 42.333 48 73 48c10 0 19 -2 27 -6s17.667 -9.66699 29 -17c3.33301 -2 8 -5.16699 14 -9.5s11.667 -7.5 17 -9.5s10.666 -3 15.999 -3c8.66699 0 16.5 2.16699 23.5 6.5s13.833 12.166 20.5 23.499c3.33301 6.66699 8 8 14 4l12 -7c2.66699 -2 4 -4.66699 4 -8
s-1.33301 -7.33301 -4 -12c-9.33301 -15.333 -20.666 -26.666 -33.999 -33.999s-26 -11 -38 -11c-9.33301 0 -17.833 1.83301 -25.5 5.5z" />
    <glyph glyph-name="Odieresis" unicode="&#xd6;" horiz-adv-x="451" 
d="M106.5 38.5c-30.333 31 -45.5 71.5 -45.5 121.5v379c0 50.667 15 91.5 45 122.5s69.667 46.5 119 46.5s89.333 -15.5 120 -46.5s46 -71.833 46 -122.5v-379c0 -50 -15.333 -90.5 -46 -121.5s-70.667 -46.5 -120 -46.5c-48.667 0 -88.167 15.5 -118.5 46.5zM306.5 72
c21 22 31.5 50.667 31.5 86v383c0 35.333 -10.5 64.166 -31.5 86.499s-48.167 33.5 -81.5 33.5c-32.667 0 -59.334 -11.167 -80.001 -33.5s-31 -51.166 -31 -86.499v-383c0 -35.333 10.333 -64 31 -86s47.334 -33 80.001 -33c33.333 0 60.5 11 81.5 33zM259 814
c-9.33301 9.33301 -14 21.333 -14 36s4.66699 26.667 14 36s21.333 14 36 14s26.667 -4.66699 36 -14s14 -21.333 14 -36s-4.66699 -26.667 -14 -36s-21.333 -14 -36 -14s-26.667 4.66699 -36 14zM118 814c-9.33301 9.33301 -14 21.333 -14 36s4.66699 26.667 14 36
s21.333 14 36 14s26.667 -4.66699 36 -14s14 -21.333 14 -36s-4.66699 -26.667 -14 -36s-21.333 -14 -36 -14s-26.667 4.66699 -36 14z" />
    <glyph glyph-name="multiply" unicode="&#xd7;" horiz-adv-x="363" 
d="M324 429c0 -2.66699 -1 -5 -3 -7l-107 -107c-2 -2 -2 -4 0 -6l107 -108c2 -2 3 -4.33301 3 -7s-1 -5 -3 -7l-16 -16c-2 -2 -4.33301 -3 -7 -3s-5 1 -7 3l-107 107c-2 2 -4 2 -6 0l-107 -107c-2 -2 -4.33301 -3 -7 -3s-5 1 -7 3l-16 16c-2 2 -3 4.33301 -3 7s1 5 3 7
l107 108c2 2 2 4 0 6l-107 107c-2 2 -3 4.33301 -3 7s1 5 3 7l16 16c2 2 4.33301 3 7 3s5 -1 7 -3l107 -107c2 -2 4 -2 6 0l107 107c2 2 4.33301 3 7 3s5 -1 7 -3l16 -16c2 -2 3 -4.33301 3 -7z" />
    <glyph glyph-name="Oslash" unicode="&#xd8;" horiz-adv-x="494" 
d="M394 703l-26.9971 -64.9971c-0.666992 -1.33301 -0.333984 -3.33301 0.999023 -6c16 -24.667 24 -55.667 24 -93v-379c0 -50 -15.333 -90.5 -46 -121.5s-70.667 -46.5 -120 -46.5c-42 0 -77 11.333 -105 34c-2.66699 2 -4.66699 1.66699 -6 -1l-20 -49
c-2 -6.66699 -6.33301 -8.33398 -13 -5.00098l-20 10c-5.33301 3.33301 -7 7.66602 -5 12.999l28 68c1.33301 2 1 4 -1 6c-15.333 25.333 -23 56 -23 92v379c0 50.667 15.167 91.5 45.5 122.5s70.166 46.5 119.499 46.5c42 0 77.333 -11.667 106 -35
c2.66699 -2 4.66699 -1.66699 6 1l20 49c1.33301 3.33301 3.16602 5.5 5.49902 6.5s4.83301 0.5 7.5 -1.5l19 -11c4.66699 -2.66699 6 -7.33398 4 -14.001zM115.003 146.003c0 -2 0.666016 -3.00098 1.99902 -3.00098s2.33301 0.666992 3 2l194 471
c0.666992 2 0.333984 3.66699 -0.999023 5c-10 12.667 -22.5 22.5 -37.5 29.5s-31.5 10.5 -49.5 10.5c-33.333 0 -60.333 -11.167 -81 -33.5s-31 -51.166 -31 -86.499v-383c0 -5.33301 0.333008 -9.33301 1 -12zM338.002 554.002c0 2 -0.666016 3 -1.99902 3
s-2.33301 -0.666992 -3 -2l-194 -471c-0.666992 -2 -0.333984 -3.66699 0.999023 -5c21.333 -26.667 50 -40 86 -40c33.333 0 60.5 11.167 81.5 33.5s31.5 50.833 31.5 85.5v383c0 6 -0.333008 10.333 -1 13z" />
    <glyph glyph-name="Ugrave" unicode="&#xd9;" horiz-adv-x="475" 
d="M118 43.5c-30 34.333 -44.999 80.168 -44.999 137.501v509c0 6.66699 3.33301 10 10 10h33c6.66699 0 10 -3.33301 10 -10v-515c0 -40.667 10.167 -73.5 30.5 -98.5s47.166 -37.5 80.499 -37.5s60.5 12.5 81.5 37.5s31.5 57.833 31.5 98.5v515
c0 6.66699 3.33301 10 10 10h33c6.66699 0 10 -3.33301 10 -10v-509c0 -56.667 -15.333 -102.334 -46 -137.001s-70.667 -52 -120 -52s-89 17.167 -119 51.5zM254.001 773.002c0 -4 -3 -6 -9 -6h-21c-4.66699 0 -8.66699 2.33301 -12 7l-68 110
c-1.33301 2.66699 -2 4.66699 -2 6c0 4 3 6 9 6h27c4.66699 0 8.66699 -2.33301 12 -7l62 -110c1.33301 -2.66699 2 -4.66699 2 -6z" />
    <glyph glyph-name="Uacute" unicode="&#xda;" horiz-adv-x="475" 
d="M118 43.5c-30 34.333 -44.999 80.168 -44.999 137.501v509c0 6.66699 3.33301 10 10 10h33c6.66699 0 10 -3.33301 10 -10v-515c0 -40.667 10.167 -73.5 30.5 -98.5s47.166 -37.5 80.499 -37.5s60.5 12.5 81.5 37.5s31.5 57.833 31.5 98.5v515
c0 6.66699 3.33301 10 10 10h33c6.66699 0 10 -3.33301 10 -10v-509c0 -56.667 -15.333 -102.334 -46 -137.001s-70.667 -52 -120 -52s-89 17.167 -119 51.5zM200.001 770.502c-1.33301 2.33301 -1 5.16602 1 8.49902l62 110c3.33301 4.66699 7.33301 7 12 7h27
c4 0 6.66699 -1.16699 8 -3.5s1 -5.16602 -1 -8.49902l-69 -110c-3.33301 -4.66699 -7.33301 -7 -12 -7h-20c-4 0 -6.66699 1.16699 -8 3.5z" />
    <glyph glyph-name="Ucircumflex" unicode="&#xdb;" horiz-adv-x="475" 
d="M118 43.5c-30 34.333 -44.999 80.168 -44.999 137.501v509c0 6.66699 3.33301 10 10 10h33c6.66699 0 10 -3.33301 10 -10v-515c0 -40.667 10.167 -73.5 30.5 -98.5s47.166 -37.5 80.499 -37.5s60.5 12.5 81.5 37.5s31.5 57.833 31.5 98.5v515
c0 6.66699 3.33301 10 10 10h33c6.66699 0 10 -3.33301 10 -10v-509c0 -56.667 -15.333 -102.334 -46 -137.001s-70.667 -52 -120 -52s-89 17.167 -119 51.5zM136.501 778.502c-1 2.33301 -0.5 5.16699 1.5 8.5l65 102c3.33301 4.66699 7.33301 7 12 7h42
c4.66699 0 8.66699 -2.33301 12 -7l67 -102c1.33301 -2.66699 2 -4.66699 2 -6c0 -4 -2.66699 -6 -8 -6h-31c-4.66699 0 -8.66699 2.33301 -12 7l-47 76c-0.666992 1.33301 -1.66699 2 -3 2s-2.33301 -0.666992 -3 -2l-47 -76c-3.33301 -4.66699 -7.33301 -7 -12 -7h-31
c-4 0 -6.5 1.16699 -7.5 3.5z" />
    <glyph glyph-name="Udieresis" unicode="&#xdc;" horiz-adv-x="475" 
d="M118 43.5c-30 34.333 -44.999 80.168 -44.999 137.501v509c0 6.66699 3.33301 10 10 10h33c6.66699 0 10 -3.33301 10 -10v-515c0 -40.667 10.167 -73.5 30.5 -98.5s47.166 -37.5 80.499 -37.5s60.5 12.5 81.5 37.5s31.5 57.833 31.5 98.5v515
c0 6.66699 3.33301 10 10 10h33c6.66699 0 10 -3.33301 10 -10v-509c0 -56.667 -15.333 -102.334 -46 -137.001s-70.667 -52 -120 -52s-89 17.167 -119 51.5zM271.001 815.002c-9.33301 9.33301 -14 21.333 -14 36s4.66699 26.667 14 36s21.333 14 36 14
s26.667 -4.66699 36 -14s14 -21.333 14 -36s-4.66699 -26.667 -14 -36s-21.333 -14 -36 -14s-26.667 4.66699 -36 14zM130.001 815.002c-9.33301 9.33301 -14 21.333 -14 36s4.66699 26.667 14 36s21.333 14 36 14s26.667 -4.66699 36 -14s14 -21.333 14 -36
s-4.66699 -26.667 -14 -36s-21.333 -14 -36 -14s-26.667 4.66699 -36 14z" />
    <glyph glyph-name="Yacute" unicode="&#xdd;" horiz-adv-x="411" 
d="M179 10l-0.000976562 309.999c0 2.66699 -0.333008 4.33398 -1 5.00098l-138 363l-1 4c0 5.33301 3 8 9 8h35c6 0 10 -2.66699 12 -8l108 -306c0.666992 -1.33301 1.66699 -2 3 -2s2.33301 0.666992 3 2l107 306c2 5.33301 6 8 12 8h35
c3.33301 0 5.83301 -1.16699 7.5 -3.5s1.83398 -5.16602 0.500977 -8.49902l-138 -363c-0.666992 -0.666992 -1 -2.33398 -1 -5.00098v-310c0 -6.66699 -3.33301 -10 -10 -10h-33c-6.66699 -0 -10 3.33301 -10 10zM168.999 770.499c-1.33301 2.33301 -1 5.16602 1 8.49902
l62 110c3.33301 4.66699 7.33301 7 12 7h27c4 0 6.66699 -1.16699 8 -3.5s1 -5.16602 -1 -8.49902l-69 -110c-3.33301 -4.66699 -7.33301 -7 -12 -7h-20c-4 0 -6.66699 1.16699 -8 3.5z" />
    <glyph glyph-name="Thorn" unicode="&#xde;" horiz-adv-x="436" 
d="M357 487.5c28.667 -35 43 -80.833 43 -137.5c0 -56 -14.167 -101.167 -42.5 -135.5s-65.833 -51.5 -112.5 -51.5h-110c-2.66699 0 -4 -1.33301 -4 -4v-149c0 -6.66699 -3.33301 -10 -10 -10h-33c-6.66699 -0 -10 3.33301 -10 10v680c0 6.66699 3.33301 10 10 10h33
c6.66699 0 10 -3.33301 10 -10v-146c0 -2.66699 1.33301 -4 4 -4h108c47.333 0 85.333 -17.5 114 -52.5zM317 246.5c20 25.667 30 59.833 30 102.5c0 44 -10 79 -30 105s-46.667 39 -80 39h-102c-2.66699 0 -4 -1.33301 -4 -4v-277c0 -2.66699 1.33301 -4 4 -4h102
c33.333 0 60 12.833 80 38.5z" />
    <glyph glyph-name="germandbls" unicode="&#xdf;" horiz-adv-x="422" 
d="M67 10l0.000976562 506.999c0 60 12.667 107 38 141s60.333 51 105 51c47.333 0 84.5 -17.167 111.5 -51.5s40.5 -80.833 40.5 -139.5c0 -36.667 -6.16699 -67.667 -18.5 -93s-29.166 -43.333 -50.499 -54c-3.33301 -1.33301 -3.33301 -3 0 -5
c23.333 -12.667 41.666 -34.167 54.999 -64.5s20 -66.833 20 -109.5c0 -60 -14.333 -107 -43 -141s-68.667 -51 -120 -51h-35c-6.66699 0 -10 3.33301 -10 10v26c0 6.66699 3.33301 10 10 10l36 1c35.333 0.666992 62.5 13.834 81.5 39.501s28.5 62.167 28.5 109.5
s-8.33301 84 -25 110s-40 39.667 -70 41h-36c-6.66699 0 -10 3.33301 -10 10v24c0 6.66699 3.33301 10 10 10h36c28.667 0 50.667 11.167 66 33.5s23 53.833 23 94.5c0 45.333 -8.83301 80.5 -26.5 105.5s-41.834 37.5 -72.501 37.5c-28.667 0 -51 -12.167 -67 -36.5
s-24 -58.833 -24 -103.5v-512c0 -6.66699 -3.33301 -10 -10 -10h-33c-6.66699 -0 -10 3.33301 -10 10z" />
    <glyph glyph-name="agrave" unicode="&#xe0;" horiz-adv-x="403" 
d="M310.5 466.5c25.667 -30.333 38.501 -70.833 38.501 -121.5v-335c0 -6.66699 -3.33301 -10 -10 -10h-33c-6.66699 -0 -10 3.33301 -10 10v36c0 2 -0.5 3.16699 -1.5 3.5s-2.16699 -0.166992 -3.5 -1.5c-24.667 -37.333 -63.334 -56 -116.001 -56
c-35.333 0 -66 10.333 -92 31s-39 57 -39 109c0 55.333 15.5 96 46.5 122s72.167 39 123.5 39h78c2.66699 0 4 1.33301 4 4v46c0 37.333 -8.33301 67 -25 89s-39.667 33 -69 33c-22.667 0 -42.5 -7.33301 -59.5 -22s-26.833 -33.667 -29.5 -57
c0 -6.66699 -3.33301 -10 -10 -10l-36 2c-3.33301 0 -5.83301 1 -7.5 3s-2.16699 4.33301 -1.5 7c4 37.333 19.667 67.333 47 90s60.333 34 99 34c45.333 0 80.833 -15.167 106.5 -45.5zM263.501 68c21.667 19.333 32.5 46.667 32.5 82v95c0 2.66699 -1.33301 4 -4 4h-78
c-34.667 0 -62.5 -9.5 -83.5 -28.5s-31.5 -47.167 -31.5 -84.5c0 -32.667 8 -57 24 -73s37 -24 63 -24c30 0 55.833 9.66699 77.5 29zM219.001 577.001c0 -4 -3 -6 -9 -6h-21c-4.66699 0 -8.66699 2.33301 -12 7l-68 110c-1.33301 2.66699 -2 4.66699 -2 6c0 4 3 6 9 6h27
c4.66699 0 8.66699 -2.33301 12 -7l62 -110c1.33301 -2.66699 2 -4.66699 2 -6z" />
    <glyph glyph-name="aacute" unicode="&#xe1;" horiz-adv-x="403" 
d="M310.5 466.5c25.667 -30.333 38.501 -70.833 38.501 -121.5v-335c0 -6.66699 -3.33301 -10 -10 -10h-33c-6.66699 -0 -10 3.33301 -10 10v36c0 2 -0.5 3.16699 -1.5 3.5s-2.16699 -0.166992 -3.5 -1.5c-24.667 -37.333 -63.334 -56 -116.001 -56
c-35.333 0 -66 10.333 -92 31s-39 57 -39 109c0 55.333 15.5 96 46.5 122s72.167 39 123.5 39h78c2.66699 0 4 1.33301 4 4v46c0 37.333 -8.33301 67 -25 89s-39.667 33 -69 33c-22.667 0 -42.5 -7.33301 -59.5 -22s-26.833 -33.667 -29.5 -57
c0 -6.66699 -3.33301 -10 -10 -10l-36 2c-3.33301 0 -5.83301 1 -7.5 3s-2.16699 4.33301 -1.5 7c4 37.333 19.667 67.333 47 90s60.333 34 99 34c45.333 0 80.833 -15.167 106.5 -45.5zM263.501 68c21.667 19.333 32.5 46.667 32.5 82v95c0 2.66699 -1.33301 4 -4 4h-78
c-34.667 0 -62.5 -9.5 -83.5 -28.5s-31.5 -47.167 -31.5 -84.5c0 -32.667 8 -57 24 -73s37 -24 63 -24c30 0 55.833 9.66699 77.5 29zM164.001 574.501c-1.33301 2.33301 -1 5.16602 1 8.49902l62 110c3.33301 4.66699 7.33301 7 12 7h27c4 0 6.66699 -1.16699 8 -3.5
s1 -5.16602 -1 -8.49902l-69 -110c-3.33301 -4.66699 -7.33301 -7 -12 -7h-20c-4 0 -6.66699 1.16699 -8 3.5z" />
    <glyph glyph-name="acircumflex" unicode="&#xe2;" horiz-adv-x="403" 
d="M310.5 466.5c25.667 -30.333 38.501 -70.833 38.501 -121.5v-335c0 -6.66699 -3.33301 -10 -10 -10h-33c-6.66699 -0 -10 3.33301 -10 10v36c0 2 -0.5 3.16699 -1.5 3.5s-2.16699 -0.166992 -3.5 -1.5c-24.667 -37.333 -63.334 -56 -116.001 -56
c-35.333 0 -66 10.333 -92 31s-39 57 -39 109c0 55.333 15.5 96 46.5 122s72.167 39 123.5 39h78c2.66699 0 4 1.33301 4 4v46c0 37.333 -8.33301 67 -25 89s-39.667 33 -69 33c-22.667 0 -42.5 -7.33301 -59.5 -22s-26.833 -33.667 -29.5 -57
c0 -6.66699 -3.33301 -10 -10 -10l-36 2c-3.33301 0 -5.83301 1 -7.5 3s-2.16699 4.33301 -1.5 7c4 37.333 19.667 67.333 47 90s60.333 34 99 34c45.333 0 80.833 -15.167 106.5 -45.5zM263.501 68c21.667 19.333 32.5 46.667 32.5 82v95c0 2.66699 -1.33301 4 -4 4h-78
c-34.667 0 -62.5 -9.5 -83.5 -28.5s-31.5 -47.167 -31.5 -84.5c0 -32.667 8 -57 24 -73s37 -24 63 -24c30 0 55.833 9.66699 77.5 29zM100.501 582.501c-1 2.33301 -0.5 5.16699 1.5 8.5l65 102c3.33301 4.66699 7.33301 7 12 7h42c4.66699 0 8.66699 -2.33301 12 -7
l67 -102c1.33301 -2.66699 2 -4.66699 2 -6c0 -4 -2.66699 -6 -8 -6h-31c-4.66699 0 -8.66699 2.33301 -12 7l-47 76c-0.666992 1.33301 -1.66699 2 -3 2s-2.33301 -0.666992 -3 -2l-47 -76c-3.33301 -4.66699 -7.33301 -7 -12 -7h-31c-4 0 -6.5 1.16699 -7.5 3.5z" />
    <glyph glyph-name="atilde" unicode="&#xe3;" horiz-adv-x="403" 
d="M310.5 466.5c25.667 -30.333 38.501 -70.833 38.501 -121.5v-335c0 -6.66699 -3.33301 -10 -10 -10h-33c-6.66699 -0 -10 3.33301 -10 10v36c0 2 -0.5 3.16699 -1.5 3.5s-2.16699 -0.166992 -3.5 -1.5c-24.667 -37.333 -63.334 -56 -116.001 -56
c-35.333 0 -66 10.333 -92 31s-39 57 -39 109c0 55.333 15.5 96 46.5 122s72.167 39 123.5 39h78c2.66699 0 4 1.33301 4 4v46c0 37.333 -8.33301 67 -25 89s-39.667 33 -69 33c-22.667 0 -42.5 -7.33301 -59.5 -22s-26.833 -33.667 -29.5 -57
c0 -6.66699 -3.33301 -10 -10 -10l-36 2c-3.33301 0 -5.83301 1 -7.5 3s-2.16699 4.33301 -1.5 7c4 37.333 19.667 67.333 47 90s60.333 34 99 34c45.333 0 80.833 -15.167 106.5 -45.5zM263.501 68c21.667 19.333 32.5 46.667 32.5 82v95c0 2.66699 -1.33301 4 -4 4h-78
c-34.667 0 -62.5 -9.5 -83.5 -28.5s-31.5 -47.167 -31.5 -84.5c0 -32.667 8 -57 24 -73s37 -24 63 -24c30 0 55.833 9.66699 77.5 29zM236.501 619.501c-7.66699 3.66699 -16.834 9.16992 -27.501 16.5029c-2 1.33301 -6 4.16602 -12 8.49902s-11.667 7.5 -17 9.5
s-10.666 3 -15.999 3c-10 0 -18.333 -1.83301 -25 -5.5s-13.667 -10.834 -21 -21.501c-4 -6 -8.66699 -7 -14 -3l-12 9c-6 3.33301 -7.33301 7.66602 -4 12.999c18 32 42.333 48 73 48c10 0 19 -2 27 -6s17.667 -9.66699 29 -17c3.33301 -2 8 -5.16699 14 -9.5
s11.667 -7.5 17 -9.5s10.666 -3 15.999 -3c8.66699 0 16.5 2.16699 23.5 6.5s13.833 12.166 20.5 23.499c3.33301 6.66699 8 8 14 4l12 -7c2.66699 -2 4 -4.66699 4 -8s-1.33301 -7.33301 -4 -12c-9.33301 -15.333 -20.666 -26.666 -33.999 -33.999s-26 -11 -38 -11
c-9.33301 0 -17.833 1.83301 -25.5 5.5z" />
    <glyph glyph-name="adieresis" unicode="&#xe4;" horiz-adv-x="403" 
d="M310.5 466.5c25.667 -30.333 38.501 -70.833 38.501 -121.5v-335c0 -6.66699 -3.33301 -10 -10 -10h-33c-6.66699 -0 -10 3.33301 -10 10v36c0 2 -0.5 3.16699 -1.5 3.5s-2.16699 -0.166992 -3.5 -1.5c-24.667 -37.333 -63.334 -56 -116.001 -56
c-35.333 0 -66 10.333 -92 31s-39 57 -39 109c0 55.333 15.5 96 46.5 122s72.167 39 123.5 39h78c2.66699 0 4 1.33301 4 4v46c0 37.333 -8.33301 67 -25 89s-39.667 33 -69 33c-22.667 0 -42.5 -7.33301 -59.5 -22s-26.833 -33.667 -29.5 -57
c0 -6.66699 -3.33301 -10 -10 -10l-36 2c-3.33301 0 -5.83301 1 -7.5 3s-2.16699 4.33301 -1.5 7c4 37.333 19.667 67.333 47 90s60.333 34 99 34c45.333 0 80.833 -15.167 106.5 -45.5zM263.501 68c21.667 19.333 32.5 46.667 32.5 82v95c0 2.66699 -1.33301 4 -4 4h-78
c-34.667 0 -62.5 -9.5 -83.5 -28.5s-31.5 -47.167 -31.5 -84.5c0 -32.667 8 -57 24 -73s37 -24 63 -24c30 0 55.833 9.66699 77.5 29zM236.001 619.001c-9.33301 9.33301 -14 21.333 -14 36s4.66699 26.667 14 36s21.333 14 36 14s26.667 -4.66699 36 -14s14 -21.333 14 -36
s-4.66699 -26.667 -14 -36s-21.333 -14 -36 -14s-26.667 4.66699 -36 14zM95.001 619.001c-9.33301 9.33301 -14 21.333 -14 36s4.66699 26.667 14 36s21.333 14 36 14s26.667 -4.66699 36 -14s14 -21.333 14 -36s-4.66699 -26.667 -14 -36s-21.333 -14 -36 -14
s-26.667 4.66699 -36 14z" />
    <glyph glyph-name="aring" unicode="&#xe5;" horiz-adv-x="403" 
d="M310.5 466.5c25.667 -30.333 38.501 -70.833 38.501 -121.5v-335c0 -6.66699 -3.33301 -10 -10 -10h-33c-6.66699 -0 -10 3.33301 -10 10v36c0 2 -0.5 3.16699 -1.5 3.5s-2.16699 -0.166992 -3.5 -1.5c-24.667 -37.333 -63.334 -56 -116.001 -56
c-35.333 0 -66 10.333 -92 31s-39 57 -39 109c0 55.333 15.5 96 46.5 122s72.167 39 123.5 39h78c2.66699 0 4 1.33301 4 4v46c0 37.333 -8.33301 67 -25 89s-39.667 33 -69 33c-22.667 0 -42.5 -7.33301 -59.5 -22s-26.833 -33.667 -29.5 -57
c0 -6.66699 -3.33301 -10 -10 -10l-36 2c-3.33301 0 -5.83301 1 -7.5 3s-2.16699 4.33301 -1.5 7c4 37.333 19.667 67.333 47 90s60.333 34 99 34c45.333 0 80.833 -15.167 106.5 -45.5zM263.501 68c21.667 19.333 32.5 46.667 32.5 82v95c0 2.66699 -1.33301 4 -4 4h-78
c-34.667 0 -62.5 -9.5 -83.5 -28.5s-31.5 -47.167 -31.5 -84.5c0 -32.667 8 -57 24 -73s37 -24 63 -24c30 0 55.833 9.66699 77.5 29zM130.501 613.501c-19.667 20.333 -29.5 44.833 -29.5 73.5s9.83301 53.167 29.5 73.5s43.5 30.5 71.5 30.5
c28.667 0 52.834 -10 72.501 -30s29.5 -44.667 29.5 -74s-9.83301 -54 -29.5 -74s-43.834 -30 -72.501 -30c-28 0 -51.833 10.167 -71.5 30.5zM249.501 638.001c13 13.333 19.5 29.666 19.5 48.999s-6.5 35.666 -19.5 48.999s-28.833 20 -47.5 20
c-18 0 -33.667 -6.66699 -47 -20s-20 -29.666 -20 -48.999s6.66699 -35.666 20 -48.999s29 -20 47 -20c18.667 0 34.5 6.66699 47.5 20z" />
    <glyph glyph-name="ae" unicode="&#xe6;" horiz-adv-x="644" 
d="M82 22.5c-25.333 20.333 -37.9951 56.502 -37.9951 108.502c0 102 55 153 165 153h82c2.66699 0 4 1.33301 4 4v55c0 37.333 -8.16699 67 -24.5 89s-39.5 33 -69.5 33c-23.333 0 -44 -7.33301 -62 -22s-28.333 -33.667 -31 -57c-0.666992 -6 -4.33398 -9 -11.001 -9
l-33 2c-3.33301 0 -5.83301 1 -7.5 3s-2.16699 4.33301 -1.5 7c3.33301 37.333 18.833 67.166 46.5 89.499s60.834 33.5 99.501 33.5c54.667 0 93.667 -24.333 117 -73c2 -2.66699 4 -2.66699 6 0c12 22.667 28.667 40.5 50 53.5s46 19.5 74 19.5
c43.333 0 78.666 -14 105.999 -42s41 -64 41 -108v-114c0 -6.66699 -3.33301 -10 -10 -10h-230c-2.66699 0 -4 -1.33301 -4 -4v-90c0 -29.333 8.83301 -53.666 26.5 -72.999s40.5 -29 68.5 -29c23.333 0 43.333 6.83301 60 20.5s27.667 31.5 33 53.5
c1.33301 3.33301 2.66602 5.66602 3.99902 6.99902s3.66602 1.66602 6.99902 0.999023l33 -2c2.66699 0 5 -1 7 -3s2.66699 -4.66699 2 -8c-6.66699 -36.667 -22.667 -65.667 -48 -87s-57 -32 -95 -32c-31.333 0 -58.5 7.5 -81.5 22.5s-38.5 34.167 -46.5 57.5
c-0.666992 1.33301 -1.33398 2.16602 -2.00098 2.49902s-1.33398 -0.166992 -2.00098 -1.5c-10 -25.333 -27.833 -45.166 -53.5 -59.499s-55.5 -21.5 -89.5 -21.5c-36 0 -66.667 10.167 -92 30.5zM355.005 283.002h183.001c2.66699 0 4 1.33301 4 4v72
c0 31.333 -8.83301 56.833 -26.5 76.5s-40.834 29.5 -69.501 29.5c-28 0 -50.833 -9.83301 -68.5 -29.5s-26.5 -45.167 -26.5 -76.5v-72c0 -2.66699 1.33301 -4 4 -4zM262.506 64.002c21.667 18.667 32.5 45.333 32.5 80v89c0 2.66699 -1.33301 4 -4 4h-78
c-35.333 0 -63.333 -8.5 -84 -25.5s-31 -43.167 -31 -78.5c0 -32.667 8.16699 -57 24.5 -73s37.5 -24 63.5 -24c29.333 0 54.833 9.33301 76.5 28z" />
    <glyph glyph-name="ccedilla" unicode="&#xe7;" horiz-adv-x="394" 
d="M342 362l-33 -2.00098c-6.66699 0 -10 3.33301 -10 10v6c0 24 -9 44.833 -27 62.5s-41 26.5 -69 26.5s-50.833 -9.83301 -68.5 -29.5s-26.5 -45.167 -26.5 -76.5v-215c0 -30.667 8.83301 -55.834 26.5 -75.501s40.5 -29.5 68.5 -29.5s51 8.83301 69 26.5s27 38.5 27 62.5
v5c0 6.66699 3.33301 10 10 10h33c6.66699 0 10 -3.33301 10 -10v-8c0 -33.333 -11.167 -62.333 -33.5 -87s-52.166 -39.334 -89.499 -44.001c-4 -1.33301 -4.33301 -3 -1 -5c28 -27.333 42 -58.333 42 -93c0 -29.333 -7.33301 -50.166 -22 -62.499s-32.667 -18.5 -54 -18.5
c-10 0 -19 1 -27 3c-6 0.666992 -8.33301 4.66699 -7 12l2 14c0.666992 3.33301 2.16699 5.5 4.5 6.5s4.83301 1.16699 7.5 0.5c3.33301 -0.666992 7.66602 -1 12.999 -1c28.667 0 43 17 43 51c0 28 -15.333 58 -46 90c-1.33301 1.33301 -3 2 -5 2
c-37.333 5.33301 -67.333 21.333 -90 48s-34 60.334 -34 101.001v220c0 44 13.667 80 41 108s63 42 107 42c29.333 0 55.333 -6.16699 78 -18.5s40.167 -28.666 52.5 -48.999s18.5 -42.5 18.5 -66.5v-8c0 -5.33301 -3.33301 -8 -10 -8z" />
    <glyph glyph-name="egrave" unicode="&#xe8;" horiz-adv-x="401" 
d="M342 233l-230.001 0.000976562c-2.66699 0 -4 -1.33301 -4 -4v-85c0 -30.667 8.83301 -55.834 26.5 -75.501s40.5 -29.5 68.5 -29.5c23.333 0 43.333 7 60 21s27.667 32.333 33 55c2 6 5.66699 9 11 9l32 -2c2.66699 0 5 -0.666992 7 -2s2.66699 -3.33301 2 -6v-4
c-6.66699 -36.667 -22.667 -65.5 -48 -86.5s-57.666 -31.5 -96.999 -31.5c-44 0 -79.667 13.833 -107 41.5s-41 63.5 -41 107.5v221c0 44 13.667 80 41 108s63 42 107 42c44.667 0 80.667 -14 108 -42s41 -64 41 -108v-119c0 -6.66699 -3.33301 -10 -10 -10z
M134.499 435.501c-17.667 -19.667 -26.499 -45.167 -26.499 -76.5v-76c0 -2.66699 1.33301 -4 4 -4h183c2.66699 0 4 1.33301 4 4v76c0 31.333 -8.83301 56.833 -26.5 76.5s-40.834 29.5 -69.501 29.5c-28 0 -50.833 -9.83301 -68.5 -29.5zM217 577.001c0 -4 -3 -6 -9 -6
h-21c-4.66699 0 -8.66699 2.33301 -12 7l-68 110c-1.33301 2.66699 -2 4.66699 -2 6c0 4 3 6 9 6h27c4.66699 0 8.66699 -2.33301 12 -7l62 -110c1.33301 -2.66699 2 -4.66699 2 -6z" />
    <glyph glyph-name="eacute" unicode="&#xe9;" horiz-adv-x="401" 
d="M342 233l-230.001 0.000976562c-2.66699 0 -4 -1.33301 -4 -4v-85c0 -30.667 8.83301 -55.834 26.5 -75.501s40.5 -29.5 68.5 -29.5c23.333 0 43.333 7 60 21s27.667 32.333 33 55c2 6 5.66699 9 11 9l32 -2c2.66699 0 5 -0.666992 7 -2s2.66699 -3.33301 2 -6v-4
c-6.66699 -36.667 -22.667 -65.5 -48 -86.5s-57.666 -31.5 -96.999 -31.5c-44 0 -79.667 13.833 -107 41.5s-41 63.5 -41 107.5v221c0 44 13.667 80 41 108s63 42 107 42c44.667 0 80.667 -14 108 -42s41 -64 41 -108v-119c0 -6.66699 -3.33301 -10 -10 -10z
M134.499 435.501c-17.667 -19.667 -26.499 -45.167 -26.499 -76.5v-76c0 -2.66699 1.33301 -4 4 -4h183c2.66699 0 4 1.33301 4 4v76c0 31.333 -8.83301 56.833 -26.5 76.5s-40.834 29.5 -69.501 29.5c-28 0 -50.833 -9.83301 -68.5 -29.5zM163 574.501
c-1.33301 2.33301 -1 5.16602 1 8.49902l62 110c3.33301 4.66699 7.33301 7 12 7h27c4 0 6.66699 -1.16699 8 -3.5s1 -5.16602 -1 -8.49902l-69 -110c-3.33301 -4.66699 -7.33301 -7 -12 -7h-20c-4 0 -6.66699 1.16699 -8 3.5z" />
    <glyph glyph-name="ecircumflex" unicode="&#xea;" horiz-adv-x="401" 
d="M342 233l-230.001 0.000976562c-2.66699 0 -4 -1.33301 -4 -4v-85c0 -30.667 8.83301 -55.834 26.5 -75.501s40.5 -29.5 68.5 -29.5c23.333 0 43.333 7 60 21s27.667 32.333 33 55c2 6 5.66699 9 11 9l32 -2c2.66699 0 5 -0.666992 7 -2s2.66699 -3.33301 2 -6v-4
c-6.66699 -36.667 -22.667 -65.5 -48 -86.5s-57.666 -31.5 -96.999 -31.5c-44 0 -79.667 13.833 -107 41.5s-41 63.5 -41 107.5v221c0 44 13.667 80 41 108s63 42 107 42c44.667 0 80.667 -14 108 -42s41 -64 41 -108v-119c0 -6.66699 -3.33301 -10 -10 -10z
M134.499 435.501c-17.667 -19.667 -26.499 -45.167 -26.499 -76.5v-76c0 -2.66699 1.33301 -4 4 -4h183c2.66699 0 4 1.33301 4 4v76c0 31.333 -8.83301 56.833 -26.5 76.5s-40.834 29.5 -69.501 29.5c-28 0 -50.833 -9.83301 -68.5 -29.5zM99.5 582.501
c-1 2.33301 -0.5 5.16699 1.5 8.5l65 102c3.33301 4.66699 7.33301 7 12 7h42c4.66699 0 8.66699 -2.33301 12 -7l67 -102c1.33301 -2.66699 2 -4.66699 2 -6c0 -4 -2.66699 -6 -8 -6h-31c-4.66699 0 -8.66699 2.33301 -12 7l-47 76c-0.666992 1.33301 -1.66699 2 -3 2
s-2.33301 -0.666992 -3 -2l-47 -76c-3.33301 -4.66699 -7.33301 -7 -12 -7h-31c-4 0 -6.5 1.16699 -7.5 3.5z" />
    <glyph glyph-name="edieresis" unicode="&#xeb;" horiz-adv-x="401" 
d="M342 233l-230.001 0.000976562c-2.66699 0 -4 -1.33301 -4 -4v-85c0 -30.667 8.83301 -55.834 26.5 -75.501s40.5 -29.5 68.5 -29.5c23.333 0 43.333 7 60 21s27.667 32.333 33 55c2 6 5.66699 9 11 9l32 -2c2.66699 0 5 -0.666992 7 -2s2.66699 -3.33301 2 -6v-4
c-6.66699 -36.667 -22.667 -65.5 -48 -86.5s-57.666 -31.5 -96.999 -31.5c-44 0 -79.667 13.833 -107 41.5s-41 63.5 -41 107.5v221c0 44 13.667 80 41 108s63 42 107 42c44.667 0 80.667 -14 108 -42s41 -64 41 -108v-119c0 -6.66699 -3.33301 -10 -10 -10z
M134.499 435.501c-17.667 -19.667 -26.499 -45.167 -26.499 -76.5v-76c0 -2.66699 1.33301 -4 4 -4h183c2.66699 0 4 1.33301 4 4v76c0 31.333 -8.83301 56.833 -26.5 76.5s-40.834 29.5 -69.501 29.5c-28 0 -50.833 -9.83301 -68.5 -29.5zM235 619.001
c-9.33301 9.33301 -14 21.333 -14 36s4.66699 26.667 14 36s21.333 14 36 14s26.667 -4.66699 36 -14s14 -21.333 14 -36s-4.66699 -26.667 -14 -36s-21.333 -14 -36 -14s-26.667 4.66699 -36 14zM94 619.001c-9.33301 9.33301 -14 21.333 -14 36s4.66699 26.667 14 36
s21.333 14 36 14s26.667 -4.66699 36 -14s14 -21.333 14 -36s-4.66699 -26.667 -14 -36s-21.333 -14 -36 -14s-26.667 4.66699 -36 14z" />
    <glyph glyph-name="igrave" unicode="&#xec;" horiz-adv-x="163" 
d="M55 10v484c0 6.66699 3.33301 10 10 10h33c6.66699 0 10 -3.33301 10 -10v-484c0 -6.66699 -3.33301 -10 -10 -10h-33c-6.66699 -0 -10 3.33301 -10 10zM99 577c0 -4 -3 -6 -9 -6h-21c-4.66699 0 -8.66699 2.33301 -12 7l-68 110c-1.33301 2.66699 -2 4.66699 -2 6
c0 4 3 6 9 6h27c4.66699 0 8.66699 -2.33301 12 -7l62 -110c1.33301 -2.66699 2 -4.66699 2 -6z" />
    <glyph glyph-name="iacute" unicode="&#xed;" horiz-adv-x="163" 
d="M55 10v484c0 6.66699 3.33301 10 10 10h33c6.66699 0 10 -3.33301 10 -10v-484c0 -6.66699 -3.33301 -10 -10 -10h-33c-6.66699 -0 -10 3.33301 -10 10zM44 574.5c-1.33301 2.33301 -1 5.16602 1 8.49902l62 110c3.33301 4.66699 7.33301 7 12 7h27
c4 0 6.66699 -1.16699 8 -3.5s1 -5.16602 -1 -8.49902l-69 -110c-3.33301 -4.66699 -7.33301 -7 -12 -7h-20c-4 0 -6.66699 1.16699 -8 3.5z" />
    <glyph glyph-name="icircumflex" unicode="&#xee;" horiz-adv-x="163" 
d="M55 10v484c0 6.66699 3.33301 10 10 10h33c6.66699 0 10 -3.33301 10 -10v-484c0 -6.66699 -3.33301 -10 -10 -10h-33c-6.66699 -0 -10 3.33301 -10 10zM-19.5 582.5c-1 2.33301 -0.5 5.16699 1.5 8.5l65 102c3.33301 4.66699 7.33301 7 12 7h42
c4.66699 0 8.66699 -2.33301 12 -7l67 -102c1.33301 -2.66699 2 -4.66699 2 -6c0 -4 -2.66699 -6 -8 -6h-31c-4.66699 0 -8.66699 2.33301 -12 7l-47 76c-0.666992 1.33301 -1.66699 2 -3 2s-2.33301 -0.666992 -3 -2l-47 -76c-3.33301 -4.66699 -7.33301 -7 -12 -7h-31
c-4 0 -6.5 1.16699 -7.5 3.5z" />
    <glyph glyph-name="idieresis" unicode="&#xef;" horiz-adv-x="163" 
d="M55 10v484c0 6.66699 3.33301 10 10 10h33c6.66699 0 10 -3.33301 10 -10v-484c0 -6.66699 -3.33301 -10 -10 -10h-33c-6.66699 -0 -10 3.33301 -10 10zM116 619c-9.33301 9.33301 -14 21.333 -14 36s4.66699 26.667 14 36s21.333 14 36 14s26.667 -4.66699 36 -14
s14 -21.333 14 -36s-4.66699 -26.667 -14 -36s-21.333 -14 -36 -14s-26.667 4.66699 -36 14zM-25 619c-9.33301 9.33301 -14 21.333 -14 36s4.66699 26.667 14 36s21.333 14 36 14s26.667 -4.66699 36 -14s14 -21.333 14 -36s-4.66699 -26.667 -14 -36s-21.333 -14 -36 -14
s-26.667 4.66699 -36 14z" />
    <glyph glyph-name="eth" unicode="&#xf0;" horiz-adv-x="428" 
d="M290 598c39.333 -66.667 60.3311 -147.667 62.998 -243v-34v-73v-106c0 -44.667 -13.667 -80.834 -41 -108.501s-63.666 -41.5 -108.999 -41.5c-44.667 0 -80.5 13.833 -107.5 41.5s-40.5 63.834 -40.5 108.501v213c0 43.333 13.333 79 40 107s60.667 42 102 42
c38.667 0 69.334 -13 92.001 -39c1.33301 -1.33301 2.5 -1.83301 3.5 -1.5s1.16699 1.16602 0.5 2.49902c-6.66699 40.667 -21.334 80.667 -44.001 120c-1.33301 2.66699 -3 3.33398 -5 2.00098l-73 -23l-4 -1c-4 0 -7 2.66699 -9 8l-3 11v3c0 4 2.33301 7 7 9l62 20
c2.66699 1.33301 3.33398 3 2.00098 5c-14 20.667 -33.333 43.334 -58 68.001c-2 2 -3 4.33301 -3 7c0 3.33301 2.66699 5 8 5h30c4.66699 0 8.66699 -1.66699 12 -5c24 -25.333 41.667 -46.333 53 -63c1.33301 -2.66699 3 -3.33398 5 -2.00098l82 25l4 1
c4 0 7 -2.66699 9 -8l3 -11v-3c0 -4 -2.33301 -7 -7 -9l-72 -22c-2 -1.33301 -2.66699 -3 -2 -5zM272.998 427.5c-18 19.667 -41.333 29.5 -70 29.5c-28 0 -50.833 -9.83301 -68.5 -29.5s-26.5 -44.834 -26.5 -75.501v-208c0 -30.667 8.83301 -55.834 26.5 -75.501
s40.5 -29.5 68.5 -29.5c28.667 0 52 9.83301 70 29.5s27 44.834 27 75.501v208c0 30.667 -9 55.834 -27 75.501z" />
    <glyph glyph-name="ntilde" unicode="&#xf1;" 
d="M159 651.5c-6 -3.66699 -12.0029 -10.5029 -18.0029 -20.5029c-4.66699 -6.66699 -9.33398 -7.66699 -14.001 -3l-8 7c-4.66699 4.66699 -5.66699 9.33398 -3 14.001c14.667 32 35.334 48 62.001 48c8.66699 0 16.5 -2 23.5 -6s15.167 -9.66699 24.5 -17
c2 -1.33301 5.66699 -4.16602 11 -8.49902s10.333 -7.66602 15 -9.99902s9.33398 -3.5 14.001 -3.5c8 0 14.833 2 20.5 6s11.167 11.667 16.5 23c4.66699 6.66699 9.33398 8 14.001 4l9 -6c4.66699 -3.33301 6 -8 4 -14c-8 -18 -18 -31 -30 -39s-23.667 -12 -35 -12
c-13.333 0 -28.666 7.33301 -45.999 22c-9.33301 8 -16.333 13.5 -21 16.5s-10.667 4.5 -18 4.5c-8 0 -15 -1.83301 -21 -5.5zM324.997 469.997c22 -27.333 33 -65.668 33 -115.001v-345c0 -6.66699 -3.33301 -10 -10 -10h-33c-6.66699 0 -10 3.33301 -10 10v340
c0 36 -8 64 -24 84s-38.333 30 -67 30c-29.333 0 -52.333 -10.667 -69 -32s-25 -50.666 -25 -87.999v-334c0 -6.66699 -3.33301 -10 -10 -10h-33c-6.66699 0 -10 3.33301 -10 10v484c0 6.66699 3.33301 10 10 10h33c6.66699 0 10 -3.33301 10 -10v-38c0 -2 0.5 -3 1.5 -3
s2.16699 0.666992 3.5 2c22.667 37.333 58 56 106 56c40.667 0 72 -13.667 94 -41z" />
    <glyph glyph-name="ograve" unicode="&#xf2;" horiz-adv-x="407" 
d="M95.5 33.5c-27 27.667 -40.5 63.835 -40.5 108.502v220c0 44 13.667 80 41 108s63 42 107 42c45.333 0 81.666 -13.833 108.999 -41.5s41 -63.834 41 -108.501v-220c0 -44.667 -13.667 -80.834 -41 -108.501s-63.666 -41.5 -108.999 -41.5
c-44.667 0 -80.5 13.833 -107.5 41.5zM273 68.501c18 19.667 27 44.834 27 75.501v215c0 31.333 -9 56.833 -27 76.5s-41.333 29.5 -70 29.5c-28 0 -50.833 -9.83301 -68.5 -29.5s-26.5 -45.167 -26.5 -76.5v-215c0 -30.667 8.83301 -55.834 26.5 -75.501
s40.5 -29.5 68.5 -29.5c28.667 0 52 9.83301 70 29.5zM220 577.001c0 -4 -3 -6 -9 -6h-21c-4.66699 0 -8.66699 2.33301 -12 7l-68 110c-1.33301 2.66699 -2 4.66699 -2 6c0 4 3 6 9 6h27c4.66699 0 8.66699 -2.33301 12 -7l62 -110c1.33301 -2.66699 2 -4.66699 2 -6z" />
    <glyph glyph-name="oacute" unicode="&#xf3;" horiz-adv-x="407" 
d="M95.5 33.5c-27 27.667 -40.5 63.835 -40.5 108.502v220c0 44 13.667 80 41 108s63 42 107 42c45.333 0 81.666 -13.833 108.999 -41.5s41 -63.834 41 -108.501v-220c0 -44.667 -13.667 -80.834 -41 -108.501s-63.666 -41.5 -108.999 -41.5
c-44.667 0 -80.5 13.833 -107.5 41.5zM273 68.501c18 19.667 27 44.834 27 75.501v215c0 31.333 -9 56.833 -27 76.5s-41.333 29.5 -70 29.5c-28 0 -50.833 -9.83301 -68.5 -29.5s-26.5 -45.167 -26.5 -76.5v-215c0 -30.667 8.83301 -55.834 26.5 -75.501
s40.5 -29.5 68.5 -29.5c28.667 0 52 9.83301 70 29.5zM166 574.501c-1.33301 2.33301 -1 5.16602 1 8.49902l62 110c3.33301 4.66699 7.33301 7 12 7h27c4 0 6.66699 -1.16699 8 -3.5s1 -5.16602 -1 -8.49902l-69 -110c-3.33301 -4.66699 -7.33301 -7 -12 -7h-20
c-4 0 -6.66699 1.16699 -8 3.5z" />
    <glyph glyph-name="ocircumflex" unicode="&#xf4;" horiz-adv-x="407" 
d="M95.5 33.5c-27 27.667 -40.5 63.835 -40.5 108.502v220c0 44 13.667 80 41 108s63 42 107 42c45.333 0 81.666 -13.833 108.999 -41.5s41 -63.834 41 -108.501v-220c0 -44.667 -13.667 -80.834 -41 -108.501s-63.666 -41.5 -108.999 -41.5
c-44.667 0 -80.5 13.833 -107.5 41.5zM273 68.501c18 19.667 27 44.834 27 75.501v215c0 31.333 -9 56.833 -27 76.5s-41.333 29.5 -70 29.5c-28 0 -50.833 -9.83301 -68.5 -29.5s-26.5 -45.167 -26.5 -76.5v-215c0 -30.667 8.83301 -55.834 26.5 -75.501
s40.5 -29.5 68.5 -29.5c28.667 0 52 9.83301 70 29.5zM102.5 582.501c-1 2.33301 -0.5 5.16699 1.5 8.5l65 102c3.33301 4.66699 7.33301 7 12 7h42c4.66699 0 8.66699 -2.33301 12 -7l67 -102c1.33301 -2.66699 2 -4.66699 2 -6c0 -4 -2.66699 -6 -8 -6h-31
c-4.66699 0 -8.66699 2.33301 -12 7l-47 76c-0.666992 1.33301 -1.66699 2 -3 2s-2.33301 -0.666992 -3 -2l-47 -76c-3.33301 -4.66699 -7.33301 -7 -12 -7h-31c-4 0 -6.5 1.16699 -7.5 3.5z" />
    <glyph glyph-name="otilde" unicode="&#xf5;" horiz-adv-x="407" 
d="M95.5 33.5c-27 27.667 -40.5 63.835 -40.5 108.502v220c0 44 13.667 80 41 108s63 42 107 42c45.333 0 81.666 -13.833 108.999 -41.5s41 -63.834 41 -108.501v-220c0 -44.667 -13.667 -80.834 -41 -108.501s-63.666 -41.5 -108.999 -41.5
c-44.667 0 -80.5 13.833 -107.5 41.5zM273 68.501c18 19.667 27 44.834 27 75.501v215c0 31.333 -9 56.833 -27 76.5s-41.333 29.5 -70 29.5c-28 0 -50.833 -9.83301 -68.5 -29.5s-26.5 -45.167 -26.5 -76.5v-215c0 -30.667 8.83301 -55.834 26.5 -75.501
s40.5 -29.5 68.5 -29.5c28.667 0 52 9.83301 70 29.5zM238.5 619.501c-7.66699 3.66699 -16.834 9.16992 -27.501 16.5029c-2 1.33301 -6 4.16602 -12 8.49902s-11.667 7.5 -17 9.5s-10.666 3 -15.999 3c-10 0 -18.333 -1.83301 -25 -5.5s-13.667 -10.834 -21 -21.501
c-4 -6 -8.66699 -7 -14 -3l-12 9c-6 3.33301 -7.33301 7.66602 -4 12.999c18 32 42.333 48 73 48c10 0 19 -2 27 -6s17.667 -9.66699 29 -17c3.33301 -2 8 -5.16699 14 -9.5s11.667 -7.5 17 -9.5s10.666 -3 15.999 -3c8.66699 0 16.5 2.16699 23.5 6.5
s13.833 12.166 20.5 23.499c3.33301 6.66699 8 8 14 4l12 -7c2.66699 -2 4 -4.66699 4 -8s-1.33301 -7.33301 -4 -12c-9.33301 -15.333 -20.666 -26.666 -33.999 -33.999s-26 -11 -38 -11c-9.33301 0 -17.833 1.83301 -25.5 5.5z" />
    <glyph glyph-name="odieresis" unicode="&#xf6;" horiz-adv-x="407" 
d="M95.5 33.5c-27 27.667 -40.5 63.835 -40.5 108.502v220c0 44 13.667 80 41 108s63 42 107 42c45.333 0 81.666 -13.833 108.999 -41.5s41 -63.834 41 -108.501v-220c0 -44.667 -13.667 -80.834 -41 -108.501s-63.666 -41.5 -108.999 -41.5
c-44.667 0 -80.5 13.833 -107.5 41.5zM273 68.501c18 19.667 27 44.834 27 75.501v215c0 31.333 -9 56.833 -27 76.5s-41.333 29.5 -70 29.5c-28 0 -50.833 -9.83301 -68.5 -29.5s-26.5 -45.167 -26.5 -76.5v-215c0 -30.667 8.83301 -55.834 26.5 -75.501
s40.5 -29.5 68.5 -29.5c28.667 0 52 9.83301 70 29.5zM238 619.001c-9.33301 9.33301 -14 21.333 -14 36s4.66699 26.667 14 36s21.333 14 36 14s26.667 -4.66699 36 -14s14 -21.333 14 -36s-4.66699 -26.667 -14 -36s-21.333 -14 -36 -14s-26.667 4.66699 -36 14z
M97 619.001c-9.33301 9.33301 -14 21.333 -14 36s4.66699 26.667 14 36s21.333 14 36 14s26.667 -4.66699 36 -14s14 -21.333 14 -36s-4.66699 -26.667 -14 -36s-21.333 -14 -36 -14s-26.667 4.66699 -36 14z" />
    <glyph glyph-name="divide" unicode="&#xf7;" horiz-adv-x="443" 
d="M186.5 444c-9.66699 9.33301 -14.5 20.666 -14.5 33.999c0 12.667 4.83301 23.667 14.5 33s21.167 14 34.5 14s24.833 -4.66699 34.5 -14s14.5 -20.333 14.5 -33c0 -13.333 -4.83301 -24.666 -14.5 -33.999s-21.167 -14 -34.5 -14s-24.833 4.66699 -34.5 14zM34 318v22
c0 6.66699 3.33301 10 10 10h354c6.66699 0 10 -3.33301 10 -10v-22c0 -6.66699 -3.33301 -10 -10 -10h-354c-6.66699 0 -10 3.33301 -10 10zM186.5 148c-9.66699 9.33301 -14.5 20.668 -14.5 34.001c0 12.667 4.83301 23.834 14.5 33.501s21.167 14.5 34.5 14.5
s24.833 -4.83301 34.5 -14.5s14.5 -20.834 14.5 -33.501s-4.83301 -23.834 -14.5 -33.501s-21.167 -14.5 -34.5 -14.5s-24.833 4.66699 -34.5 14z" />
    <glyph glyph-name="oslash" unicode="&#xf8;" horiz-adv-x="417" 
d="M323 459c20.667 -26 30.998 -58.333 30.998 -97v-220c0 -44.667 -13.667 -80.834 -41 -108.501s-63.666 -41.5 -108.999 -41.5c-27.333 0 -51 5 -71 15c-3.33301 1.33301 -5.33301 0.666016 -6 -2.00098l-20 -47c-1.33301 -3.33301 -3.16602 -5.5 -5.49902 -6.5
s-4.83301 -0.5 -7.5 1.5l-22 12c-4.66699 2.66699 -6 7.33398 -4 14.001l24 56c0.666992 2 0.333984 3.66699 -0.999023 5c-23.333 26.667 -35 60.667 -35 102v220c0 44 13.667 80 41 108s63 42 107 42c29.333 0 55 -6 77 -18c3.33301 -1.33301 5.33301 -0.666016 6 2.00098
l22 53c2 6.66699 6.33301 8.33398 13 5.00098l23 -12c4.66699 -2.66699 6 -7.33398 4 -14.001l-27 -64c-0.666992 -2 -0.333984 -3.66699 0.999023 -5zM114.998 104c0.666992 -2 1.66699 -2.83203 3 -2.49902s2.33301 1.16602 3 2.49902l142 337c0.666992 2 0 3.66699 -2 5
c-16 12.667 -35 19 -57 19c-28 0 -50.833 -9.83301 -68.5 -29.5s-26.5 -45.167 -26.5 -76.5v-215c0 -14.667 2 -28 6 -40zM296.998 391.001c-0.666992 2 -1.5 2.99902 -2.5 2.99902s-1.83301 -0.666992 -2.5 -2l-142 -333c-0.666992 -2 0 -3.66699 2 -5
c14 -10 31.333 -15 52 -15c28.667 0 52 9.83301 70 29.5s27 44.834 27 75.501v215c0 13.333 -1.33301 24 -4 32z" />
    <glyph glyph-name="ugrave" unicode="&#xf9;" 
d="M308 504l32.999 0.00195312c6.66699 0 10 -3.33301 10 -10v-484c0 -6.66699 -3.33301 -10 -10 -10h-33c-6.66699 0 -10 3.33301 -10 10v36c0 2 -0.5 3.16699 -1.5 3.5s-2.16699 -0.166992 -3.5 -1.5c-21.333 -36.667 -55.333 -55 -102 -55c-40 0 -71.667 12.167 -95 36.5
s-35 60.833 -35 109.5v355c0 6.66699 3.33301 10 10 10h33c6.66699 0 10 -3.33301 10 -10v-343c0 -36.667 7.83301 -64.334 23.5 -83.001s37.834 -28 66.501 -28c29.333 0 52.333 10.667 69 32s25 50.666 25 87.999v334c0 6.66699 3.33301 10 10 10zM222.999 577.002
c0 -4 -3 -6 -9 -6h-21c-4.66699 0 -8.66699 2.33301 -12 7l-68 110c-1.33301 2.66699 -2 4.66699 -2 6c0 4 3 6 9 6h27c4.66699 0 8.66699 -2.33301 12 -7l62 -110c1.33301 -2.66699 2 -4.66699 2 -6z" />
    <glyph glyph-name="uacute" unicode="&#xfa;" 
d="M308 504l32.999 0.00195312c6.66699 0 10 -3.33301 10 -10v-484c0 -6.66699 -3.33301 -10 -10 -10h-33c-6.66699 0 -10 3.33301 -10 10v36c0 2 -0.5 3.16699 -1.5 3.5s-2.16699 -0.166992 -3.5 -1.5c-21.333 -36.667 -55.333 -55 -102 -55c-40 0 -71.667 12.167 -95 36.5
s-35 60.833 -35 109.5v355c0 6.66699 3.33301 10 10 10h33c6.66699 0 10 -3.33301 10 -10v-343c0 -36.667 7.83301 -64.334 23.5 -83.001s37.834 -28 66.501 -28c29.333 0 52.333 10.667 69 32s25 50.666 25 87.999v334c0 6.66699 3.33301 10 10 10zM167.999 574.502
c-1.33301 2.33301 -1 5.16602 1 8.49902l62 110c3.33301 4.66699 7.33301 7 12 7h27c4 0 6.66699 -1.16699 8 -3.5s1 -5.16602 -1 -8.49902l-69 -110c-3.33301 -4.66699 -7.33301 -7 -12 -7h-20c-4 0 -6.66699 1.16699 -8 3.5z" />
    <glyph glyph-name="ucircumflex" unicode="&#xfb;" 
d="M308 504l32.999 0.00195312c6.66699 0 10 -3.33301 10 -10v-484c0 -6.66699 -3.33301 -10 -10 -10h-33c-6.66699 0 -10 3.33301 -10 10v36c0 2 -0.5 3.16699 -1.5 3.5s-2.16699 -0.166992 -3.5 -1.5c-21.333 -36.667 -55.333 -55 -102 -55c-40 0 -71.667 12.167 -95 36.5
s-35 60.833 -35 109.5v355c0 6.66699 3.33301 10 10 10h33c6.66699 0 10 -3.33301 10 -10v-343c0 -36.667 7.83301 -64.334 23.5 -83.001s37.834 -28 66.501 -28c29.333 0 52.333 10.667 69 32s25 50.666 25 87.999v334c0 6.66699 3.33301 10 10 10zM104.499 582.502
c-1 2.33301 -0.5 5.16699 1.5 8.5l65 102c3.33301 4.66699 7.33301 7 12 7h42c4.66699 0 8.66699 -2.33301 12 -7l67 -102c1.33301 -2.66699 2 -4.66699 2 -6c0 -4 -2.66699 -6 -8 -6h-31c-4.66699 0 -8.66699 2.33301 -12 7l-47 76c-0.666992 1.33301 -1.66699 2 -3 2
s-2.33301 -0.666992 -3 -2l-47 -76c-3.33301 -4.66699 -7.33301 -7 -12 -7h-31c-4 0 -6.5 1.16699 -7.5 3.5z" />
    <glyph glyph-name="udieresis" unicode="&#xfc;" 
d="M308 504l32.999 0.00195312c6.66699 0 10 -3.33301 10 -10v-484c0 -6.66699 -3.33301 -10 -10 -10h-33c-6.66699 0 -10 3.33301 -10 10v36c0 2 -0.5 3.16699 -1.5 3.5s-2.16699 -0.166992 -3.5 -1.5c-21.333 -36.667 -55.333 -55 -102 -55c-40 0 -71.667 12.167 -95 36.5
s-35 60.833 -35 109.5v355c0 6.66699 3.33301 10 10 10h33c6.66699 0 10 -3.33301 10 -10v-343c0 -36.667 7.83301 -64.334 23.5 -83.001s37.834 -28 66.501 -28c29.333 0 52.333 10.667 69 32s25 50.666 25 87.999v334c0 6.66699 3.33301 10 10 10zM239.999 619.002
c-9.33301 9.33301 -14 21.333 -14 36s4.66699 26.667 14 36s21.333 14 36 14s26.667 -4.66699 36 -14s14 -21.333 14 -36s-4.66699 -26.667 -14 -36s-21.333 -14 -36 -14s-26.667 4.66699 -36 14zM98.999 619.002c-9.33301 9.33301 -14 21.333 -14 36s4.66699 26.667 14 36
s21.333 14 36 14s26.667 -4.66699 36 -14s14 -21.333 14 -36s-4.66699 -26.667 -14 -36s-21.333 -14 -36 -14s-26.667 4.66699 -36 14z" />
    <glyph glyph-name="yacute" unicode="&#xfd;" horiz-adv-x="353" 
d="M41 -197c-1.33301 2 -2.00586 4.33105 -2.00586 6.99805v26c0 6.66699 3.33301 10 10 10h1c20 0.666992 35.5 4.83398 46.5 12.501s20.333 21.834 28 42.501s15.834 52.667 24.501 96c0.666992 1.33301 0.833984 2.5 0.500977 3.5s-0.5 1.83301 -0.5 2.5l-128 490l-1 3
c0 5.33301 3.33301 8 10 8h35c6 0 9.66699 -3 11 -9l99 -417c0.666992 -2 1.33398 -3 2.00098 -3s1.33398 1 2.00098 3l98 417c1.33301 6 5 9 11 9l36 -1c3.33301 0 5.83301 -1 7.5 -3s1.83398 -4.66699 0.500977 -8l-141 -543c-11.333 -43.333 -22.5 -75.333 -33.5 -96
s-24.5 -34.667 -40.5 -42s-38.333 -11 -67 -11h-5c-1.33301 0 -2.66602 1 -3.99902 3zM139.994 574.498c-1.33301 2.33301 -1 5.16602 1 8.49902l62 110c3.33301 4.66699 7.33301 7 12 7h27c4 0 6.66699 -1.16699 8 -3.5s1 -5.16602 -1 -8.49902l-69 -110
c-3.33301 -4.66699 -7.33301 -7 -12 -7h-20c-4 0 -6.66699 1.16699 -8 3.5z" />
    <glyph glyph-name="thorn" unicode="&#xfe;" horiz-adv-x="411" 
d="M320 470.5c24 -27.667 36 -63.834 36 -108.501v-220c0 -45.333 -12 -81.666 -36 -108.999s-56.667 -41 -98 -41c-22 0 -42 5 -60 15s-32.333 24.333 -43 43c-0.666992 2 -1.66699 2.83301 -3 2.5s-2 -1.5 -2 -3.5v-239c0 -6.66699 -3.33301 -10 -10 -10h-33
c-6.66699 0 -10 3.33301 -10 10v880c0 6.66699 3.33301 10 10 10h33c6.66699 0 10 -3.33301 10 -10v-235c0 -2 0.666992 -3.16699 2 -3.5s2.33301 0.5 3 2.5c10.667 18.667 25 33 43 43s38 15 60 15c41.333 0 74 -13.833 98 -41.5zM276.5 435.5
c-17.667 19.667 -40.834 29.5 -69.501 29.5c-27.333 0 -49.666 -9.83301 -66.999 -29.5s-26 -45.167 -26 -76.5v-215c0 -31.333 8.66699 -56.666 26 -75.999s39.666 -29 66.999 -29c28.667 0 51.834 9.66699 69.501 29s26.5 44.666 26.5 75.999v215
c0 31.333 -8.83301 56.833 -26.5 76.5z" />
    <glyph glyph-name="ydieresis" unicode="&#xff;" horiz-adv-x="353" 
d="M41 -197c-1.33301 2 -2.00586 4.33105 -2.00586 6.99805v26c0 6.66699 3.33301 10 10 10h1c20 0.666992 35.5 4.83398 46.5 12.501s20.333 21.834 28 42.501s15.834 52.667 24.501 96c0.666992 1.33301 0.833984 2.5 0.500977 3.5s-0.5 1.83301 -0.5 2.5l-128 490l-1 3
c0 5.33301 3.33301 8 10 8h35c6 0 9.66699 -3 11 -9l99 -417c0.666992 -2 1.33398 -3 2.00098 -3s1.33398 1 2.00098 3l98 417c1.33301 6 5 9 11 9l36 -1c3.33301 0 5.83301 -1 7.5 -3s1.83398 -4.66699 0.500977 -8l-141 -543c-11.333 -43.333 -22.5 -75.333 -33.5 -96
s-24.5 -34.667 -40.5 -42s-38.333 -11 -67 -11h-5c-1.33301 0 -2.66602 1 -3.99902 3zM211.994 618.998c-9.33301 9.33301 -14 21.333 -14 36s4.66699 26.667 14 36s21.333 14 36 14s26.667 -4.66699 36 -14s14 -21.333 14 -36s-4.66699 -26.667 -14 -36
s-21.333 -14 -36 -14s-26.667 4.66699 -36 14zM70.9941 618.998c-9.33301 9.33301 -14 21.333 -14 36s4.66699 26.667 14 36s21.333 14 36 14s26.667 -4.66699 36 -14s14 -21.333 14 -36s-4.66699 -26.667 -14 -36s-21.333 -14 -36 -14s-26.667 4.66699 -36 14z" />
    <glyph glyph-name="Amacron" unicode="&#x100;" horiz-adv-x="391" 
d="M325 9l-27 131c0 1.33301 -0.5 2.33301 -1.5 3s-2.16699 1 -3.5 1h-196c-1.33301 0 -2.5 -0.333008 -3.5 -1s-1.5 -1.66699 -1.5 -3l-27 -131c-0.666992 -6 -4.33398 -9 -11.001 -9h-33c-3.33301 0 -5.83301 1 -7.5 3s-2.16699 4.66699 -1.5 8l152 680
c1.33301 6 5 9 11 9h40c6.66699 0 10.334 -3 11.001 -9l153 -680v-2c0 -6 -3 -9 -9 -9h-34c-6 0 -9.66699 3 -11 9zM106 188h177.002c2 0 3 1.33301 3 4l-89 423c-0.666992 2 -1.33398 3 -2.00098 3s-1.33398 -1 -2.00098 -3l-90 -423c0 -2.66699 1 -4 3 -4zM95.002 805v20
c0 6.66699 3.33301 10 10 10h179c6.66699 0 10 -3.33301 10 -10v-20c0 -6.66699 -3.33301 -10 -10 -10h-179c-6.66699 0 -10 3.33301 -10 10z" />
    <glyph glyph-name="amacron" unicode="&#x101;" horiz-adv-x="403" 
d="M310.5 466.5c25.667 -30.333 38.501 -70.833 38.501 -121.5v-335c0 -6.66699 -3.33301 -10 -10 -10h-33c-6.66699 -0 -10 3.33301 -10 10v36c0 2 -0.5 3.16699 -1.5 3.5s-2.16699 -0.166992 -3.5 -1.5c-24.667 -37.333 -63.334 -56 -116.001 -56
c-35.333 0 -66 10.333 -92 31s-39 57 -39 109c0 55.333 15.5 96 46.5 122s72.167 39 123.5 39h78c2.66699 0 4 1.33301 4 4v46c0 37.333 -8.33301 67 -25 89s-39.667 33 -69 33c-22.667 0 -42.5 -7.33301 -59.5 -22s-26.833 -33.667 -29.5 -57
c0 -6.66699 -3.33301 -10 -10 -10l-36 2c-3.33301 0 -5.83301 1 -7.5 3s-2.16699 4.33301 -1.5 7c4 37.333 19.667 67.333 47 90s60.333 34 99 34c45.333 0 80.833 -15.167 106.5 -45.5zM263.501 68c21.667 19.333 32.5 46.667 32.5 82v95c0 2.66699 -1.33301 4 -4 4h-78
c-34.667 0 -62.5 -9.5 -83.5 -28.5s-31.5 -47.167 -31.5 -84.5c0 -32.667 8 -57 24 -73s37 -24 63 -24c30 0 55.833 9.66699 77.5 29zM102.001 609.001v20c0 6.66699 3.33301 10 10 10h179c6.66699 0 10 -3.33301 10 -10v-20c0 -6.66699 -3.33301 -10 -10 -10h-179
c-6.66699 0 -10 3.33301 -10 10z" />
    <glyph glyph-name="Abreve" unicode="&#x102;" horiz-adv-x="391" 
d="M325 9l-27 131c0 1.33301 -0.5 2.33301 -1.5 3s-2.16699 1 -3.5 1h-196c-1.33301 0 -2.5 -0.333008 -3.5 -1s-1.5 -1.66699 -1.5 -3l-27 -131c-0.666992 -6 -4.33398 -9 -11.001 -9h-33c-3.33301 0 -5.83301 1 -7.5 3s-2.16699 4.66699 -1.5 8l152 680
c1.33301 6 5 9 11 9h40c6.66699 0 10.334 -3 11.001 -9l153 -680v-2c0 -6 -3 -9 -9 -9h-34c-6 0 -9.66699 3 -11 9zM106 188h177.002c2 0 3 1.33301 3 4l-89 423c-0.666992 2 -1.33398 3 -2.00098 3s-1.33398 -1 -2.00098 -3l-90 -423c0 -2.66699 1 -4 3 -4zM126.502 782
c-19 17.333 -29.834 39.333 -32.501 66c0 6.66699 3.33301 10 10 10h15c6.66699 0 10.334 -3.33301 11.001 -10c2 -17.333 9.16699 -31.666 21.5 -42.999s26.833 -17 43.5 -17s31.167 5.66699 43.5 17s19.5 25.666 21.5 42.999c0.666992 6.66699 4.33398 10 11.001 10h15
c6.66699 0 10 -3.33301 10 -10c-2.66699 -26.667 -13.334 -48.667 -32.001 -66s-41.667 -26 -69 -26c-26.667 0 -49.5 8.66699 -68.5 26z" />
    <glyph glyph-name="abreve" unicode="&#x103;" horiz-adv-x="403" 
d="M310.5 466.5c25.667 -30.333 38.501 -70.833 38.501 -121.5v-335c0 -6.66699 -3.33301 -10 -10 -10h-33c-6.66699 -0 -10 3.33301 -10 10v36c0 2 -0.5 3.16699 -1.5 3.5s-2.16699 -0.166992 -3.5 -1.5c-24.667 -37.333 -63.334 -56 -116.001 -56
c-35.333 0 -66 10.333 -92 31s-39 57 -39 109c0 55.333 15.5 96 46.5 122s72.167 39 123.5 39h78c2.66699 0 4 1.33301 4 4v46c0 37.333 -8.33301 67 -25 89s-39.667 33 -69 33c-22.667 0 -42.5 -7.33301 -59.5 -22s-26.833 -33.667 -29.5 -57
c0 -6.66699 -3.33301 -10 -10 -10l-36 2c-3.33301 0 -5.83301 1 -7.5 3s-2.16699 4.33301 -1.5 7c4 37.333 19.667 67.333 47 90s60.333 34 99 34c45.333 0 80.833 -15.167 106.5 -45.5zM263.501 68c21.667 19.333 32.5 46.667 32.5 82v95c0 2.66699 -1.33301 4 -4 4h-78
c-34.667 0 -62.5 -9.5 -83.5 -28.5s-31.5 -47.167 -31.5 -84.5c0 -32.667 8 -57 24 -73s37 -24 63 -24c30 0 55.833 9.66699 77.5 29zM132.501 586.001c-19 17.333 -29.834 39.333 -32.501 66c0 6.66699 3.33301 10 10 10h15c6.66699 0 10.334 -3.33301 11.001 -10
c2 -17.333 9.16699 -31.666 21.5 -42.999s26.833 -17 43.5 -17s31.167 5.66699 43.5 17s19.5 25.666 21.5 42.999c0.666992 6.66699 4.33398 10 11.001 10h15c6.66699 0 10 -3.33301 10 -10c-2.66699 -26.667 -13.334 -48.667 -32.001 -66s-41.667 -26 -69 -26
c-26.667 0 -49.5 8.66699 -68.5 26z" />
    <glyph glyph-name="Aogonek" unicode="&#x104;" horiz-adv-x="391" 
d="M325 9l-27 131c0 1.33301 -0.5 2.33301 -1.5 3s-2.16699 1 -3.5 1h-196c-1.33301 0 -2.5 -0.333008 -3.5 -1s-1.5 -1.66699 -1.5 -3l-27 -131c-0.666992 -6 -4.33398 -9 -11.001 -9h-33c-3.33301 0 -5.83301 1 -7.5 3s-2.16699 4.66699 -1.5 8l152 680
c1.33301 6 5 9 11 9h40c6.66699 0 10.334 -3 11.001 -9l153 -680v-2c0 -6 -3 -9 -9 -9h-34c-6 0 -9.66699 3 -11 9zM106 188h177.002c2 0 3 1.33301 3 4l-89 423c-0.666992 2 -1.33398 3 -2.00098 3s-1.33398 -1 -2.00098 -3l-90 -423c0 -2.66699 1 -4 3 -4zM397.002 -173
c0 -4.66699 -2.33203 -7.33301 -6.99902 -8c-8 -2 -17 -3 -27 -3c-20.667 0 -38.5 6.16699 -53.5 18.5s-22.5 33.166 -22.5 62.499c0 35.333 15.333 67.333 46 96l4 4c2 2 5.33301 3 10 3h17c4.66699 0 7.5 -1.16699 8.5 -3.5s-0.166992 -5.16602 -3.5 -8.49902
c-28 -29.333 -42 -58.333 -42 -87c0 -20 5 -33.833 15 -41.5s23 -10.5 39 -8.5c2 0 3.33301 0.333008 4 1c5.33301 0 8.66602 -2.66699 9.99902 -8l2 -14v-3z" />
    <glyph glyph-name="aogonek" unicode="&#x105;" horiz-adv-x="403" 
d="M354 -148c4 0 6.66895 -2.66504 8.00195 -7.99805l2 -14v-3c0 -4.66699 -2.33301 -7.33398 -7 -8.00098c-8 -2 -17 -3 -27 -3c-21.333 0 -39.333 6.16699 -54 18.5s-22 33.166 -22 62.499c0 36.667 16.333 69.667 49 99c1.33301 2 2.66602 3.33301 3.99902 4h-1
c-6.66699 -0 -10 3.33301 -10 10v36c0 2 -0.5 3.16699 -1.5 3.5s-2.16699 -0.166992 -3.5 -1.5c-24.667 -37.333 -63.334 -56 -116.001 -56c-35.333 0 -66 10.333 -92 31s-39 57 -39 109c0 55.333 15.5 96 46.5 122s72.167 39 123.5 39h78c2.66699 0 4 1.33301 4 4v46
c0 37.333 -8.33301 67 -25 89s-39.667 33 -69 33c-22.667 0 -42.5 -7.33301 -59.5 -22s-26.833 -33.667 -29.5 -57c0 -6.66699 -3.33301 -10 -10 -10l-36 2c-3.33301 0 -5.83301 1 -7.5 3s-2.16699 4.33301 -1.5 7c4 37.333 19.667 67.333 47 90s60.333 34 99 34
c45.333 0 80.833 -15.167 106.5 -45.5s38.5 -70.833 38.5 -121.5v-338v-7l-3 -2c-34.667 -32 -52 -64.333 -52 -97c0 -34 14.667 -51 44 -51c5.33301 0 9.33301 0.333008 12 1zM263.502 68.002c21.667 19.333 32.5 46.667 32.5 82v95c0 2.66699 -1.33301 4 -4 4h-78
c-34.667 0 -62.5 -9.5 -83.5 -28.5s-31.5 -47.167 -31.5 -84.5c0 -32.667 8 -57 24 -73s37 -24 63 -24c30 0 55.833 9.66699 77.5 29z" />
    <glyph glyph-name="Cacute" unicode="&#x106;" horiz-adv-x="441" 
d="M105.5 37.5c-29.667 30.333 -44.5 70.833 -44.5 121.5v384c0 50 14.833 90 44.5 120s68.834 45 117.501 45c49.333 0 88.833 -15 118.5 -45s44.5 -70 44.5 -120v-19c0 -3.33301 -1 -6 -3 -8s-4.33301 -3 -7 -3l-33 -2c-6.66699 0 -10 3.33301 -10 10v25
c0 34.667 -10 62.5 -30 83.5s-46.667 31.5 -80 31.5c-32.667 0 -59 -10.5 -79 -31.5s-30 -48.833 -30 -83.5v-391c0 -34.667 10 -62.667 30 -84s46.333 -32 79 -32s59.167 10.667 79.5 32s30.5 49.333 30.5 84v23c0 6.66699 3.33301 10 10 10l33 -2
c6.66699 0 10 -3.33301 10 -10v-17c0 -50.667 -14.833 -91.167 -44.5 -121.5s-69.167 -45.5 -118.5 -45.5c-48.667 0 -87.834 15.167 -117.501 45.5zM186 770.5c-1.33301 2.33301 -1 5.16602 1 8.49902l62 110c3.33301 4.66699 7.33301 7 12 7h27
c4 0 6.66699 -1.16699 8 -3.5s1 -5.16602 -1 -8.49902l-69 -110c-3.33301 -4.66699 -7.33301 -7 -12 -7h-20c-4 0 -6.66699 1.16699 -8 3.5z" />
    <glyph glyph-name="cacute" unicode="&#x107;" horiz-adv-x="394" 
d="M95.5 33.5c-27 27.667 -40.5 63.833 -40.5 108.5v220c0 44 13.667 80 41 108s63 42 107 42c29.333 0 55.333 -6.16699 78 -18.5s40.167 -28.666 52.5 -48.999s18.5 -42.5 18.5 -66.5v-6c0 -6.66699 -3.33301 -10 -10 -10l-33 -2c-6.66699 0 -10 3.33301 -10 10v6
c0 24 -9 44.833 -27 62.5s-41 26.5 -69 26.5s-50.833 -9.83301 -68.5 -29.5s-26.5 -45.167 -26.5 -76.5v-215c0 -30.667 8.83301 -55.834 26.5 -75.501s40.5 -29.5 68.5 -29.5s51 8.83301 69 26.5s27 38.5 27 62.5v5c0 6.66699 3.33301 10 10 10h33
c6.66699 0 10 -3.33301 10 -10v-8c0 -24 -6.16699 -46.167 -18.5 -66.5s-29.833 -36.5 -52.5 -48.5s-48.667 -18 -78 -18c-44.667 0 -80.5 13.833 -107.5 41.5zM166 574.499c-1.33301 2.33301 -1 5.16602 1 8.49902l62 110c3.33301 4.66699 7.33301 7 12 7h27
c4 0 6.66699 -1.16699 8 -3.5s1 -5.16602 -1 -8.49902l-69 -110c-3.33301 -4.66699 -7.33301 -7 -12 -7h-20c-4 0 -6.66699 1.16699 -8 3.5z" />
    <glyph glyph-name="Ccircumflex" unicode="&#x108;" horiz-adv-x="441" 
d="M105.5 37.5c-29.667 30.333 -44.5 70.833 -44.5 121.5v384c0 50 14.833 90 44.5 120s68.834 45 117.501 45c49.333 0 88.833 -15 118.5 -45s44.5 -70 44.5 -120v-19c0 -3.33301 -1 -6 -3 -8s-4.33301 -3 -7 -3l-33 -2c-6.66699 0 -10 3.33301 -10 10v25
c0 34.667 -10 62.5 -30 83.5s-46.667 31.5 -80 31.5c-32.667 0 -59 -10.5 -79 -31.5s-30 -48.833 -30 -83.5v-391c0 -34.667 10 -62.667 30 -84s46.333 -32 79 -32s59.167 10.667 79.5 32s30.5 49.333 30.5 84v23c0 6.66699 3.33301 10 10 10l33 -2
c6.66699 0 10 -3.33301 10 -10v-17c0 -50.667 -14.833 -91.167 -44.5 -121.5s-69.167 -45.5 -118.5 -45.5c-48.667 0 -87.834 15.167 -117.501 45.5zM122.5 778.5c-1 2.33301 -0.5 5.16699 1.5 8.5l65 102c3.33301 4.66699 7.33301 7 12 7h42
c4.66699 0 8.66699 -2.33301 12 -7l67 -102c1.33301 -2.66699 2 -4.66699 2 -6c0 -4 -2.66699 -6 -8 -6h-31c-4.66699 0 -8.66699 2.33301 -12 7l-47 76c-0.666992 1.33301 -1.66699 2 -3 2s-2.33301 -0.666992 -3 -2l-47 -76c-3.33301 -4.66699 -7.33301 -7 -12 -7h-31
c-4 0 -6.5 1.16699 -7.5 3.5z" />
    <glyph glyph-name="ccircumflex" unicode="&#x109;" horiz-adv-x="394" 
d="M95.5 33.5c-27 27.667 -40.5 63.833 -40.5 108.5v220c0 44 13.667 80 41 108s63 42 107 42c29.333 0 55.333 -6.16699 78 -18.5s40.167 -28.666 52.5 -48.999s18.5 -42.5 18.5 -66.5v-6c0 -6.66699 -3.33301 -10 -10 -10l-33 -2c-6.66699 0 -10 3.33301 -10 10v6
c0 24 -9 44.833 -27 62.5s-41 26.5 -69 26.5s-50.833 -9.83301 -68.5 -29.5s-26.5 -45.167 -26.5 -76.5v-215c0 -30.667 8.83301 -55.834 26.5 -75.501s40.5 -29.5 68.5 -29.5s51 8.83301 69 26.5s27 38.5 27 62.5v5c0 6.66699 3.33301 10 10 10h33
c6.66699 0 10 -3.33301 10 -10v-8c0 -24 -6.16699 -46.167 -18.5 -66.5s-29.833 -36.5 -52.5 -48.5s-48.667 -18 -78 -18c-44.667 0 -80.5 13.833 -107.5 41.5zM102.5 582.499c-1 2.33301 -0.5 5.16699 1.5 8.5l65 102c3.33301 4.66699 7.33301 7 12 7h42
c4.66699 0 8.66699 -2.33301 12 -7l67 -102c1.33301 -2.66699 2 -4.66699 2 -6c0 -4 -2.66699 -6 -8 -6h-31c-4.66699 0 -8.66699 2.33301 -12 7l-47 76c-0.666992 1.33301 -1.66699 2 -3 2s-2.33301 -0.666992 -3 -2l-47 -76c-3.33301 -4.66699 -7.33301 -7 -12 -7h-31
c-4 0 -6.5 1.16699 -7.5 3.5z" />
    <glyph glyph-name="Cdotaccent" unicode="&#x10a;" horiz-adv-x="441" 
d="M105.5 37.5c-29.667 30.333 -44.5 70.833 -44.5 121.5v384c0 50 14.833 90 44.5 120s68.834 45 117.501 45c49.333 0 88.833 -15 118.5 -45s44.5 -70 44.5 -120v-19c0 -3.33301 -1 -6 -3 -8s-4.33301 -3 -7 -3l-33 -2c-6.66699 0 -10 3.33301 -10 10v25
c0 34.667 -10 62.5 -30 83.5s-46.667 31.5 -80 31.5c-32.667 0 -59 -10.5 -79 -31.5s-30 -48.833 -30 -83.5v-391c0 -34.667 10 -62.667 30 -84s46.333 -32 79 -32s59.167 10.667 79.5 32s30.5 49.333 30.5 84v23c0 6.66699 3.33301 10 10 10l33 -2
c6.66699 0 10 -3.33301 10 -10v-17c0 -50.667 -14.833 -91.167 -44.5 -121.5s-69.167 -45.5 -118.5 -45.5c-48.667 0 -87.834 15.167 -117.501 45.5zM187 815c-9.33301 9.33301 -14 21.333 -14 36s4.66699 26.667 14 36s21.333 14 36 14s26.667 -4.66699 36 -14
s14 -21.333 14 -36s-4.66699 -26.667 -14 -36s-21.333 -14 -36 -14s-26.667 4.66699 -36 14z" />
    <glyph glyph-name="cdotaccent" unicode="&#x10b;" horiz-adv-x="394" 
d="M95.5 33.5c-27 27.667 -40.5 63.833 -40.5 108.5v220c0 44 13.667 80 41 108s63 42 107 42c29.333 0 55.333 -6.16699 78 -18.5s40.167 -28.666 52.5 -48.999s18.5 -42.5 18.5 -66.5v-6c0 -6.66699 -3.33301 -10 -10 -10l-33 -2c-6.66699 0 -10 3.33301 -10 10v6
c0 24 -9 44.833 -27 62.5s-41 26.5 -69 26.5s-50.833 -9.83301 -68.5 -29.5s-26.5 -45.167 -26.5 -76.5v-215c0 -30.667 8.83301 -55.834 26.5 -75.501s40.5 -29.5 68.5 -29.5s51 8.83301 69 26.5s27 38.5 27 62.5v5c0 6.66699 3.33301 10 10 10h33
c6.66699 0 10 -3.33301 10 -10v-8c0 -24 -6.16699 -46.167 -18.5 -66.5s-29.833 -36.5 -52.5 -48.5s-48.667 -18 -78 -18c-44.667 0 -80.5 13.833 -107.5 41.5zM167 618.999c-9.33301 9.33301 -14 21.333 -14 36s4.66699 26.667 14 36s21.333 14 36 14
s26.667 -4.66699 36 -14s14 -21.333 14 -36s-4.66699 -26.667 -14 -36s-21.333 -14 -36 -14s-26.667 4.66699 -36 14z" />
    <glyph glyph-name="Ccaron" unicode="&#x10c;" horiz-adv-x="441" 
d="M105.5 37.5c-29.667 30.333 -44.5 70.833 -44.5 121.5v384c0 50 14.833 90 44.5 120s68.834 45 117.501 45c49.333 0 88.833 -15 118.5 -45s44.5 -70 44.5 -120v-19c0 -3.33301 -1 -6 -3 -8s-4.33301 -3 -7 -3l-33 -2c-6.66699 0 -10 3.33301 -10 10v25
c0 34.667 -10 62.5 -30 83.5s-46.667 31.5 -80 31.5c-32.667 0 -59 -10.5 -79 -31.5s-30 -48.833 -30 -83.5v-391c0 -34.667 10 -62.667 30 -84s46.333 -32 79 -32s59.167 10.667 79.5 32s30.5 49.333 30.5 84v23c0 6.66699 3.33301 10 10 10l33 -2
c6.66699 0 10 -3.33301 10 -10v-17c0 -50.667 -14.833 -91.167 -44.5 -121.5s-69.167 -45.5 -118.5 -45.5c-48.667 0 -87.834 15.167 -117.501 45.5zM123 890c0 4 2.66699 5.99902 8 5.99902h31c4.66699 0 8.66699 -2.33301 12 -7l47 -76
c0.666992 -0.666992 1.66699 -1 3 -1s2.33301 0.333008 3 1l47 76c3.33301 4.66699 7.33301 7 12 7h31c4 0 6.5 -1.16699 7.5 -3.5s0.5 -5.16602 -1.5 -8.49902l-67 -102c-3.33301 -4.66699 -7.33301 -7 -12 -7h-42c-4.66699 0 -8.66699 2.33301 -12 7l-65 102
c-1.33301 2.66699 -2 4.66699 -2 6z" />
    <glyph glyph-name="ccaron" unicode="&#x10d;" horiz-adv-x="394" 
d="M95.5 33.5c-27 27.667 -40.5 63.833 -40.5 108.5v220c0 44 13.667 80 41 108s63 42 107 42c29.333 0 55.333 -6.16699 78 -18.5s40.167 -28.666 52.5 -48.999s18.5 -42.5 18.5 -66.5v-6c0 -6.66699 -3.33301 -10 -10 -10l-33 -2c-6.66699 0 -10 3.33301 -10 10v6
c0 24 -9 44.833 -27 62.5s-41 26.5 -69 26.5s-50.833 -9.83301 -68.5 -29.5s-26.5 -45.167 -26.5 -76.5v-215c0 -30.667 8.83301 -55.834 26.5 -75.501s40.5 -29.5 68.5 -29.5s51 8.83301 69 26.5s27 38.5 27 62.5v5c0 6.66699 3.33301 10 10 10h33
c6.66699 0 10 -3.33301 10 -10v-8c0 -24 -6.16699 -46.167 -18.5 -66.5s-29.833 -36.5 -52.5 -48.5s-48.667 -18 -78 -18c-44.667 0 -80.5 13.833 -107.5 41.5zM104 693.999c0 4 2.66699 5.99902 8 5.99902h31c4.66699 0 8.66699 -2.33301 12 -7l47 -76
c0.666992 -0.666992 1.66699 -1 3 -1s2.33301 0.333008 3 1l47 76c3.33301 4.66699 7.33301 7 12 7h31c4 0 6.5 -1.16699 7.5 -3.5s0.5 -5.16602 -1.5 -8.49902l-67 -102c-3.33301 -4.66699 -7.33301 -7 -12 -7h-42c-4.66699 0 -8.66699 2.33301 -12 7l-65 102
c-1.33301 2.66699 -2 4.66699 -2 6z" />
    <glyph glyph-name="Dcaron" unicode="&#x10e;" horiz-adv-x="463" 
d="M79 10v680c0 6.66699 3.33301 10 10 10h147c49.333 0 88.333 -16.5 117 -49.5s43 -77.833 43 -134.5v-332c0 -56.667 -14.333 -101.5 -43 -134.5s-67.667 -49.5 -117 -49.5h-147c-6.66699 -0 -10 3.33301 -10 10zM136 47h100c32.667 0.666992 58.5 13.167 77.5 37.5
s28.5 57.833 28.5 100.5v329c0 43.333 -9.5 77.333 -28.5 102s-45.167 37 -78.5 37h-99c-2.66699 0 -4 -1.33301 -4 -4v-598c0 -2.66699 1.33301 -4 4 -4zM129 888c0 4 2.66699 5.99902 8 5.99902h31c4.66699 0 8.66699 -2.33301 12 -7l47 -76
c0.666992 -0.666992 1.66699 -1 3 -1s2.33301 0.333008 3 1l47 76c3.33301 4.66699 7.33301 7 12 7h31c4 0 6.5 -1.16699 7.5 -3.5s0.5 -5.16602 -1.5 -8.49902l-67 -102c-3.33301 -4.66699 -7.33301 -7 -12 -7h-42c-4.66699 0 -8.66699 2.33301 -12 7l-65 102
c-1.33301 2.66699 -2 4.66699 -2 6z" />
    <glyph glyph-name="dcaron" unicode="&#x10f;" horiz-adv-x="417" 
d="M307 700l33 0.000976562c6.66699 0 10 -3.33301 10 -10v-680c0 -6.66699 -3.33301 -10 -10 -10h-33c-6.66699 0 -10 3.33301 -10 10v28c0 1.33301 -0.5 2.16602 -1.5 2.49902s-2.16699 -0.166992 -3.5 -1.5c-12 -15.333 -26.667 -27 -44 -35s-36 -12 -56 -12
c-41.333 0 -74.5 13.833 -99.5 41.5s-37.5 63.5 -37.5 107.5v221c0 44.667 12.5 80.834 37.5 108.501s58.167 41.5 99.5 41.5c20 0 38.667 -4 56 -12s32 -19.667 44 -35c1.33301 -1.33301 2.5 -1.83301 3.5 -1.5s1.5 1.16602 1.5 2.49902v224c0 6.66699 3.33301 10 10 10z
M271 68.001c17.333 19.333 26 44.668 26 76.001v215c0 31.333 -8.66699 56.833 -26 76.5s-39.666 29.5 -66.999 29.5c-28.667 0 -52 -9.83301 -70 -29.5s-27 -45.167 -27 -76.5v-215c0 -30.667 9 -55.834 27 -75.501s41.333 -29.5 70 -29.5
c27.333 0 49.666 9.66699 66.999 29zM417 574.503c-1.33301 2.33301 -1 5.16602 1 8.49902l62 110c3.33301 4.66699 7.33301 7 12 7h27c4 0 6.66699 -1.16699 8 -3.5s1 -5.16602 -1 -8.49902l-69 -110c-3.33301 -4.66699 -7.33301 -7 -12 -7h-20
c-4 0 -6.66699 1.16699 -8 3.5z" />
    <glyph glyph-name="Dcroat" unicode="&#x110;" horiz-adv-x="509" 
d="M399 650.5c28.667 -33 43 -77.833 43 -134.5v-332c0 -56.667 -14.333 -101.5 -43 -134.5s-67.667 -49.5 -117 -49.5h-147c-6.66699 -0 -10 3.33301 -10 10v333c0 2.66699 -1.33301 4 -4 4h-32c-6.66699 0 -10 3.33301 -10 10v17c0 6.66699 3.33301 10 10 10h32
c2.66699 0 4 1.33301 4 4v302c0 6.66699 3.33301 10 10 10h147c49.333 0 88.333 -16.5 117 -49.5zM389 514c0 42.667 -9.5 76.5 -28.5 101.5s-45.167 37.5 -78.5 37.5h-100c-2.66699 0 -4 -1.33301 -4 -4v-261c0 -2.66699 1.33301 -4 4 -4h85c6.66699 0 10 -3.33301 10 -10
v-17c0 -6.66699 -3.33301 -10 -10 -10h-85c-2.66699 0 -4 -1.33301 -4 -4v-292c0 -2.66699 1.33301 -4 4 -4h100c32.667 0.666992 58.5 13.167 77.5 37.5s28.833 57.833 29.5 100.5v329z" />
    <glyph glyph-name="dcroat" unicode="&#x111;" horiz-adv-x="417" 
d="M400 598v-16.999c0 -6.66699 -3.33301 -10 -10 -10h-36c-2.66699 0 -4 -1.33301 -4 -4v-557c0 -6.66699 -3.33301 -10 -10 -10h-33c-6.66699 0 -10 3.33301 -10 10v28c0 1.33301 -0.5 2.16602 -1.5 2.49902s-2.16699 -0.166992 -3.5 -1.5
c-12 -15.333 -26.667 -27 -44 -35s-36 -12 -56 -12c-41.333 0 -74.5 13.833 -99.5 41.5s-37.5 63.5 -37.5 107.5v221c0 44.667 12.5 80.834 37.5 108.501s58.167 41.5 99.5 41.5c20 0 38.667 -4 56 -12s32 -19.667 44 -35c1.33301 -1.33301 2.5 -1.83301 3.5 -1.5
s1.5 1.16602 1.5 2.49902v101c0 2.66699 -1.33301 4 -4 4h-145c-6.66699 0 -10 3.33301 -10 10v17c0 6.66699 3.33301 10 10 10h145c2.66699 0 4 1.33301 4 4v78c0 6.66699 3.33301 10 10 10h33c6.66699 0 10 -3.33301 10 -10v-78c0 -2.66699 1.33301 -4 4 -4h36
c6.66699 0 10 -3.33301 10 -10zM271 68.001c17.333 19.333 26 44.668 26 76.001v215c0 31.333 -8.66699 56.833 -26 76.5s-39.666 29.5 -66.999 29.5c-28.667 0 -52 -9.83301 -70 -29.5s-27 -45.167 -27 -76.5v-215c0 -30.667 9 -55.834 27 -75.501s41.333 -29.5 70 -29.5
c27.333 0 49.666 9.66699 66.999 29z" />
    <glyph glyph-name="Emacron" unicode="&#x112;" horiz-adv-x="427" 
d="M373 653h-237c-2.66699 0 -4 -1.33301 -4 -4v-271c0 -2.66699 1.33301 -4 4 -4h152c6.66699 0 10 -3.33301 10 -10v-27c0 -6.66699 -3.33301 -10 -10 -10h-152c-2.66699 0 -4 -1.33301 -4 -4v-272c0 -2.66699 1.33301 -4 4 -4h237c6.66699 0 10 -3.33301 10 -10v-27
c0 -6.66699 -3.33301 -10 -10 -10h-284c-6.66699 -0 -10 3.33301 -10 10v680c0 6.66699 3.33301 10 10 10h284c6.66699 0 10 -3.33301 10 -10v-27c0 -6.66699 -3.33301 -10 -10 -10zM131 805v20c0 6.66699 3.33301 10 10 10h179c6.66699 0 10 -3.33301 10 -10v-20
c0 -6.66699 -3.33301 -10 -10 -10h-179c-6.66699 0 -10 3.33301 -10 10z" />
    <glyph glyph-name="emacron" unicode="&#x113;" horiz-adv-x="401" 
d="M342 233l-230.001 0.000976562c-2.66699 0 -4 -1.33301 -4 -4v-85c0 -30.667 8.83301 -55.834 26.5 -75.501s40.5 -29.5 68.5 -29.5c23.333 0 43.333 7 60 21s27.667 32.333 33 55c2 6 5.66699 9 11 9l32 -2c2.66699 0 5 -0.666992 7 -2s2.66699 -3.33301 2 -6v-4
c-6.66699 -36.667 -22.667 -65.5 -48 -86.5s-57.666 -31.5 -96.999 -31.5c-44 0 -79.667 13.833 -107 41.5s-41 63.5 -41 107.5v221c0 44 13.667 80 41 108s63 42 107 42c44.667 0 80.667 -14 108 -42s41 -64 41 -108v-119c0 -6.66699 -3.33301 -10 -10 -10z
M134.499 435.501c-17.667 -19.667 -26.499 -45.167 -26.499 -76.5v-76c0 -2.66699 1.33301 -4 4 -4h183c2.66699 0 4 1.33301 4 4v76c0 31.333 -8.83301 56.833 -26.5 76.5s-40.834 29.5 -69.501 29.5c-28 0 -50.833 -9.83301 -68.5 -29.5zM101 638.001v20
c0 6.66699 3.33301 10 10 10h178c6.66699 0 10 -3.33301 10 -10v-20c0 -6.66699 -3.33301 -10 -10 -10h-178c-6.66699 0 -10 3.33301 -10 10z" />
    <glyph glyph-name="Edotaccent" unicode="&#x116;" horiz-adv-x="427" 
d="M373 653h-237c-2.66699 0 -4 -1.33301 -4 -4v-271c0 -2.66699 1.33301 -4 4 -4h152c6.66699 0 10 -3.33301 10 -10v-27c0 -6.66699 -3.33301 -10 -10 -10h-152c-2.66699 0 -4 -1.33301 -4 -4v-272c0 -2.66699 1.33301 -4 4 -4h237c6.66699 0 10 -3.33301 10 -10v-27
c0 -6.66699 -3.33301 -10 -10 -10h-284c-6.66699 -0 -10 3.33301 -10 10v680c0 6.66699 3.33301 10 10 10h284c6.66699 0 10 -3.33301 10 -10v-27c0 -6.66699 -3.33301 -10 -10 -10zM195 815c-9.33301 9.33301 -14 21.333 -14 36s4.66699 26.667 14 36s21.333 14 36 14
s26.667 -4.66699 36 -14s14 -21.333 14 -36s-4.66699 -26.667 -14 -36s-21.333 -14 -36 -14s-26.667 4.66699 -36 14z" />
    <glyph glyph-name="edotaccent" unicode="&#x117;" horiz-adv-x="401" 
d="M342 233l-230.001 0.000976562c-2.66699 0 -4 -1.33301 -4 -4v-85c0 -30.667 8.83301 -55.834 26.5 -75.501s40.5 -29.5 68.5 -29.5c23.333 0 43.333 7 60 21s27.667 32.333 33 55c2 6 5.66699 9 11 9l32 -2c2.66699 0 5 -0.666992 7 -2s2.66699 -3.33301 2 -6v-4
c-6.66699 -36.667 -22.667 -65.5 -48 -86.5s-57.666 -31.5 -96.999 -31.5c-44 0 -79.667 13.833 -107 41.5s-41 63.5 -41 107.5v221c0 44 13.667 80 41 108s63 42 107 42c44.667 0 80.667 -14 108 -42s41 -64 41 -108v-119c0 -6.66699 -3.33301 -10 -10 -10z
M134.499 435.501c-17.667 -19.667 -26.499 -45.167 -26.499 -76.5v-76c0 -2.66699 1.33301 -4 4 -4h183c2.66699 0 4 1.33301 4 4v76c0 31.333 -8.83301 56.833 -26.5 76.5s-40.834 29.5 -69.501 29.5c-28 0 -50.833 -9.83301 -68.5 -29.5zM164 619.001
c-9.33301 9.33301 -14 21.333 -14 36s4.66699 26.667 14 36s21.333 14 36 14s26.667 -4.66699 36 -14s14 -21.333 14 -36s-4.66699 -26.667 -14 -36s-21.333 -14 -36 -14s-26.667 4.66699 -36 14z" />
    <glyph glyph-name="Eogonek" unicode="&#x118;" horiz-adv-x="427" 
d="M373 653l-237.002 0.00195312c-2.66699 0 -4 -1.33301 -4 -4v-271c0 -2.66699 1.33301 -4 4 -4h152c6.66699 0 10 -3.33301 10 -10v-27c0 -6.66699 -3.33301 -10 -10 -10h-152c-2.66699 0 -4 -1.33301 -4 -4v-272c0 -2.66699 1.33301 -4 4 -4h237
c6.66699 0 10 -3.33301 10 -10v-27c0 -6.66699 -3.33301 -10 -10 -10h-121c-2 0 -3.66699 -0.666992 -5 -2c-30.667 -30.667 -46 -61 -46 -91c0 -5.33301 0.333008 -9.33301 1 -12c2.66699 -26 17 -39 43 -39c5.33301 0 9.33301 0.333008 12 1l4 1
c4 0 6.66699 -2.66699 8 -8l2 -14v-3c0 -4.66699 -2.33301 -7.33398 -7 -8.00098c-9.33301 -2 -18.666 -3 -27.999 -3c-21.333 0 -39.166 6.16699 -53.499 18.5s-21.5 33.166 -21.5 62.499c0 34 13.667 64.667 41 92c2 3.33301 1.33301 5 -2 5h-111
c-6.66699 -0 -10 3.33301 -10 10v680c0 6.66699 3.33301 10 10 10h284c6.66699 0 10 -3.33301 10 -10v-27c0 -6.66699 -3.33301 -10 -10 -10z" />
    <glyph glyph-name="eogonek" unicode="&#x119;" horiz-adv-x="401" 
d="M342 233l-230 0.00195312c-2.66699 0 -4 -1.33301 -4 -4v-85c0 -30.667 8.83301 -55.834 26.5 -75.501s40.5 -29.5 68.5 -29.5c23.333 0 43.333 7 60 21s27.667 32.333 33 55c2 6 5.66699 9 11 9l32 -2c2.66699 0 5 -0.666992 7 -2s2.66699 -3.33301 2 -6v-4
c-6.66699 -34 -21.5 -61.5 -44.5 -82.5s-52.167 -32.833 -87.5 -35.5c-2 0 -3.66699 -0.666992 -5 -2c-25.333 -28.667 -38 -56.334 -38 -83.001c0 -18 4.16699 -31 12.5 -39s19.166 -12 32.499 -12c4.66699 0 8.33398 0.333008 11.001 1l4 1c4 0 6.66699 -2.66699 8 -8
l2 -14v-3c0 -4.66699 -2.33301 -7.33398 -7 -8.00098c-8.66699 -2 -18 -3 -28 -3c-21.333 0 -39 6.16699 -53 18.5s-21 33.5 -21 63.5c0 32 11.667 60.667 35 86c2.66699 2.66699 2 4.33398 -2 5.00098c-34 7.33301 -61.167 24 -81.5 50s-30.5 58 -30.5 96v221
c0 44 13.667 80 41 108s63 42 107 42c44.667 0 80.667 -14 108 -42s41 -64 41 -108v-119c0 -6.66699 -3.33301 -10 -10 -10zM134.5 435.502c-17.667 -19.667 -26.499 -45.167 -26.499 -76.5v-76c0 -2.66699 1.33301 -4 4 -4h183c2.66699 0 4 1.33301 4 4v76
c0 31.333 -8.83301 56.833 -26.5 76.5s-40.834 29.5 -69.501 29.5c-28 0 -50.833 -9.83301 -68.5 -29.5z" />
    <glyph glyph-name="Ecaron" unicode="&#x11a;" horiz-adv-x="427" 
d="M373 653h-237c-2.66699 0 -4 -1.33301 -4 -4v-271c0 -2.66699 1.33301 -4 4 -4h152c6.66699 0 10 -3.33301 10 -10v-27c0 -6.66699 -3.33301 -10 -10 -10h-152c-2.66699 0 -4 -1.33301 -4 -4v-272c0 -2.66699 1.33301 -4 4 -4h237c6.66699 0 10 -3.33301 10 -10v-27
c0 -6.66699 -3.33301 -10 -10 -10h-284c-6.66699 -0 -10 3.33301 -10 10v680c0 6.66699 3.33301 10 10 10h284c6.66699 0 10 -3.33301 10 -10v-27c0 -6.66699 -3.33301 -10 -10 -10zM132 890c0 4 2.66699 5.99902 8 5.99902h31c4.66699 0 8.66699 -2.33301 12 -7l47 -76
c0.666992 -0.666992 1.66699 -1 3 -1s2.33301 0.333008 3 1l47 76c3.33301 4.66699 7.33301 7 12 7h31c4 0 6.5 -1.16699 7.5 -3.5s0.5 -5.16602 -1.5 -8.49902l-67 -102c-3.33301 -4.66699 -7.33301 -7 -12 -7h-42c-4.66699 0 -8.66699 2.33301 -12 7l-65 102
c-1.33301 2.66699 -2 4.66699 -2 6z" />
    <glyph glyph-name="ecaron" unicode="&#x11b;" horiz-adv-x="401" 
d="M342 233l-230.001 0.000976562c-2.66699 0 -4 -1.33301 -4 -4v-85c0 -30.667 8.83301 -55.834 26.5 -75.501s40.5 -29.5 68.5 -29.5c23.333 0 43.333 7 60 21s27.667 32.333 33 55c2 6 5.66699 9 11 9l32 -2c2.66699 0 5 -0.666992 7 -2s2.66699 -3.33301 2 -6v-4
c-6.66699 -36.667 -22.667 -65.5 -48 -86.5s-57.666 -31.5 -96.999 -31.5c-44 0 -79.667 13.833 -107 41.5s-41 63.5 -41 107.5v221c0 44 13.667 80 41 108s63 42 107 42c44.667 0 80.667 -14 108 -42s41 -64 41 -108v-119c0 -6.66699 -3.33301 -10 -10 -10z
M134.499 435.501c-17.667 -19.667 -26.499 -45.167 -26.499 -76.5v-76c0 -2.66699 1.33301 -4 4 -4h183c2.66699 0 4 1.33301 4 4v76c0 31.333 -8.83301 56.833 -26.5 76.5s-40.834 29.5 -69.501 29.5c-28 0 -50.833 -9.83301 -68.5 -29.5zM101 692.001
c0 4 2.66699 5.99902 8 5.99902h31c4.66699 0 8.66699 -2.33301 12 -7l47 -76c0.666992 -0.666992 1.66699 -1 3 -1s2.33301 0.333008 3 1l47 76c3.33301 4.66699 7.33301 7 12 7h31c4 0 6.5 -1.16699 7.5 -3.5s0.5 -5.16602 -1.5 -8.49902l-67 -102
c-3.33301 -4.66699 -7.33301 -7 -12 -7h-42c-4.66699 0 -8.66699 2.33301 -12 7l-65 102c-1.33301 2.66699 -2 4.66699 -2 6z" />
    <glyph glyph-name="Gcircumflex" unicode="&#x11c;" horiz-adv-x="446" 
d="M105.5 36.5c-29.667 29.667 -44.5 68.834 -44.5 117.501v392c0 48.667 14.833 87.834 44.5 117.501s68.834 44.5 117.501 44.5s88 -14.833 118 -44.5s45 -68.834 45 -117.501v-44c0 -6.66699 -3.33301 -10 -10 -10h-33c-6.66699 0 -10 3.33301 -10 10v45
c0 34.667 -10 62.334 -30 83.001s-46.667 31 -80 31s-60 -10.333 -80 -31s-30 -48.334 -30 -83.001v-394c0 -34.667 10 -62.334 30 -83.001s46.667 -31 80 -31s60 10.333 80 31s30 48.334 30 83.001v141c0 2.66699 -1.33301 4 -4 4h-94c-6.66699 0 -10 3.33301 -10 10v27
c0 6.66699 3.33301 10 10 10h141c6.66699 0 10 -3.33301 10 -10v-181c0 -48.667 -15 -87.834 -45 -117.501s-69.333 -44.5 -118 -44.5s-87.834 14.833 -117.501 44.5zM122.5 778.5c-1 2.33301 -0.5 5.16699 1.5 8.5l65 102c3.33301 4.66699 7.33301 7 12 7h42
c4.66699 0 8.66699 -2.33301 12 -7l67 -102c1.33301 -2.66699 2 -4.66699 2 -6c0 -4 -2.66699 -6 -8 -6h-31c-4.66699 0 -8.66699 2.33301 -12 7l-47 76c-0.666992 1.33301 -1.66699 2 -3 2s-2.33301 -0.666992 -3 -2l-47 -76c-3.33301 -4.66699 -7.33301 -7 -12 -7h-31
c-4 0 -6.5 1.16699 -7.5 3.5z" />
    <glyph glyph-name="gcircumflex" unicode="&#x11d;" horiz-adv-x="406" 
d="M307 504l33.998 -0.00292969c6.66699 0 10 -3.33301 10 -10v-488c0 -68.667 -15.667 -121 -47 -157s-81.666 -52.667 -150.999 -50c-6.66699 0 -10 3.33301 -10 10v27c0 6.66699 4.33301 10 13 10c50.667 0 86.834 13.667 108.501 41s32.5 68.333 32.5 123v38
c0 2 -0.666992 3.16699 -2 3.5s-2.33301 -0.5 -3 -2.5c-11.333 -18 -25.833 -31.5 -43.5 -40.5s-37.167 -13.5 -58.5 -13.5c-41.333 0 -74.166 13.833 -98.499 41.5s-36.5 63.834 -36.5 108.501v217c0 44.667 12.167 80.834 36.5 108.501s57.166 41.5 98.499 41.5
c21.333 0 41 -4.66699 59 -14s32.333 -22.666 43 -39.999c1.33301 -1.33301 2.5 -2 3.5 -2s1.5 1 1.5 3v35c0 6.66699 3.33301 10 10 10zM270.998 70.9971c17.333 19.333 26 44.668 26 76.001v212c0 31.333 -8.66699 56.833 -26 76.5s-39.666 29.5 -66.999 29.5
c-28 0 -51 -9.83301 -69 -29.5s-27 -45.167 -27 -76.5v-212c0 -30.667 9 -55.834 27 -75.501s41 -29.5 69 -29.5c27.333 0 49.666 9.66699 66.999 29zM102.498 582.499c-1 2.33301 -0.5 5.16699 1.5 8.5l65 102c3.33301 4.66699 7.33301 7 12 7h42
c4.66699 0 8.66699 -2.33301 12 -7l67 -102c1.33301 -2.66699 2 -4.66699 2 -6c0 -4 -2.66699 -6 -8 -6h-31c-4.66699 0 -8.66699 2.33301 -12 7l-47 76c-0.666992 1.33301 -1.66699 2 -3 2s-2.33301 -0.666992 -3 -2l-47 -76c-3.33301 -4.66699 -7.33301 -7 -12 -7h-31
c-4 0 -6.5 1.16699 -7.5 3.5z" />
    <glyph glyph-name="Gbreve" unicode="&#x11e;" horiz-adv-x="446" 
d="M105.5 36.5c-29.667 29.667 -44.5 68.834 -44.5 117.501v392c0 48.667 14.833 87.834 44.5 117.501s68.834 44.5 117.501 44.5s88 -14.833 118 -44.5s45 -68.834 45 -117.501v-44c0 -6.66699 -3.33301 -10 -10 -10h-33c-6.66699 0 -10 3.33301 -10 10v45
c0 34.667 -10 62.334 -30 83.001s-46.667 31 -80 31s-60 -10.333 -80 -31s-30 -48.334 -30 -83.001v-394c0 -34.667 10 -62.334 30 -83.001s46.667 -31 80 -31s60 10.333 80 31s30 48.334 30 83.001v141c0 2.66699 -1.33301 4 -4 4h-94c-6.66699 0 -10 3.33301 -10 10v27
c0 6.66699 3.33301 10 10 10h141c6.66699 0 10 -3.33301 10 -10v-181c0 -48.667 -15 -87.834 -45 -117.501s-69.333 -44.5 -118 -44.5s-87.834 14.833 -117.501 44.5zM154.5 782c-19 17.333 -29.834 39.333 -32.501 66c0 6.66699 3.33301 10 10 10h15
c6.66699 0 10.334 -3.33301 11.001 -10c2 -17.333 9.16699 -31.666 21.5 -42.999s26.833 -17 43.5 -17s31.167 5.66699 43.5 17s19.5 25.666 21.5 42.999c0.666992 6.66699 4.33398 10 11.001 10h15c6.66699 0 10 -3.33301 10 -10
c-2.66699 -26.667 -13.334 -48.667 -32.001 -66s-41.667 -26 -69 -26c-26.667 0 -49.5 8.66699 -68.5 26z" />
    <glyph glyph-name="gbreve" unicode="&#x11f;" horiz-adv-x="406" 
d="M307 504l33.998 -0.00292969c6.66699 0 10 -3.33301 10 -10v-488c0 -68.667 -15.667 -121 -47 -157s-81.666 -52.667 -150.999 -50c-6.66699 0 -10 3.33301 -10 10v27c0 6.66699 4.33301 10 13 10c50.667 0 86.834 13.667 108.501 41s32.5 68.333 32.5 123v38
c0 2 -0.666992 3.16699 -2 3.5s-2.33301 -0.5 -3 -2.5c-11.333 -18 -25.833 -31.5 -43.5 -40.5s-37.167 -13.5 -58.5 -13.5c-41.333 0 -74.166 13.833 -98.499 41.5s-36.5 63.834 -36.5 108.501v217c0 44.667 12.167 80.834 36.5 108.501s57.166 41.5 98.499 41.5
c21.333 0 41 -4.66699 59 -14s32.333 -22.666 43 -39.999c1.33301 -1.33301 2.5 -2 3.5 -2s1.5 1 1.5 3v35c0 6.66699 3.33301 10 10 10zM270.998 70.9971c17.333 19.333 26 44.668 26 76.001v212c0 31.333 -8.66699 56.833 -26 76.5s-39.666 29.5 -66.999 29.5
c-28 0 -51 -9.83301 -69 -29.5s-27 -45.167 -27 -76.5v-212c0 -30.667 9 -55.834 27 -75.501s41 -29.5 69 -29.5c27.333 0 49.666 9.66699 66.999 29zM134.498 585.999c-19 17.333 -29.834 39.333 -32.501 66c0 6.66699 3.33301 10 10 10h15
c6.66699 0 10.334 -3.33301 11.001 -10c2 -17.333 9.16699 -31.666 21.5 -42.999s26.833 -17 43.5 -17s31.167 5.66699 43.5 17s19.5 25.666 21.5 42.999c0.666992 6.66699 4.33398 10 11.001 10h15c6.66699 0 10 -3.33301 10 -10
c-2.66699 -26.667 -13.334 -48.667 -32.001 -66s-41.667 -26 -69 -26c-26.667 0 -49.5 8.66699 -68.5 26z" />
    <glyph glyph-name="Gdotaccent" unicode="&#x120;" horiz-adv-x="446" 
d="M105.5 36.5c-29.667 29.667 -44.5 68.834 -44.5 117.501v392c0 48.667 14.833 87.834 44.5 117.501s68.834 44.5 117.501 44.5s88 -14.833 118 -44.5s45 -68.834 45 -117.501v-44c0 -6.66699 -3.33301 -10 -10 -10h-33c-6.66699 0 -10 3.33301 -10 10v45
c0 34.667 -10 62.334 -30 83.001s-46.667 31 -80 31s-60 -10.333 -80 -31s-30 -48.334 -30 -83.001v-394c0 -34.667 10 -62.334 30 -83.001s46.667 -31 80 -31s60 10.333 80 31s30 48.334 30 83.001v141c0 2.66699 -1.33301 4 -4 4h-94c-6.66699 0 -10 3.33301 -10 10v27
c0 6.66699 3.33301 10 10 10h141c6.66699 0 10 -3.33301 10 -10v-181c0 -48.667 -15 -87.834 -45 -117.501s-69.333 -44.5 -118 -44.5s-87.834 14.833 -117.501 44.5zM187 815c-9.33301 9.33301 -14 21.333 -14 36s4.66699 26.667 14 36s21.333 14 36 14
s26.667 -4.66699 36 -14s14 -21.333 14 -36s-4.66699 -26.667 -14 -36s-21.333 -14 -36 -14s-26.667 4.66699 -36 14z" />
    <glyph glyph-name="gdotaccent" unicode="&#x121;" horiz-adv-x="406" 
d="M307 504l33.998 -0.00292969c6.66699 0 10 -3.33301 10 -10v-488c0 -68.667 -15.667 -121 -47 -157s-81.666 -52.667 -150.999 -50c-6.66699 0 -10 3.33301 -10 10v27c0 6.66699 4.33301 10 13 10c50.667 0 86.834 13.667 108.501 41s32.5 68.333 32.5 123v38
c0 2 -0.666992 3.16699 -2 3.5s-2.33301 -0.5 -3 -2.5c-11.333 -18 -25.833 -31.5 -43.5 -40.5s-37.167 -13.5 -58.5 -13.5c-41.333 0 -74.166 13.833 -98.499 41.5s-36.5 63.834 -36.5 108.501v217c0 44.667 12.167 80.834 36.5 108.501s57.166 41.5 98.499 41.5
c21.333 0 41 -4.66699 59 -14s32.333 -22.666 43 -39.999c1.33301 -1.33301 2.5 -2 3.5 -2s1.5 1 1.5 3v35c0 6.66699 3.33301 10 10 10zM270.998 70.9971c17.333 19.333 26 44.668 26 76.001v212c0 31.333 -8.66699 56.833 -26 76.5s-39.666 29.5 -66.999 29.5
c-28 0 -51 -9.83301 -69 -29.5s-27 -45.167 -27 -76.5v-212c0 -30.667 9 -55.834 27 -75.501s41 -29.5 69 -29.5c27.333 0 49.666 9.66699 66.999 29zM166.998 618.999c-9.33301 9.33301 -14 21.333 -14 36s4.66699 26.667 14 36s21.333 14 36 14s26.667 -4.66699 36 -14
s14 -21.333 14 -36s-4.66699 -26.667 -14 -36s-21.333 -14 -36 -14s-26.667 4.66699 -36 14z" />
    <glyph glyph-name="uni0122" unicode="&#x122;" horiz-adv-x="446" 
d="M105.5 36.5c-29.667 29.667 -44.5 68.834 -44.5 117.501v392c0 48.667 14.833 87.834 44.5 117.501s68.834 44.5 117.501 44.5s88 -14.833 118 -44.5s45 -68.834 45 -117.501v-44c0 -6.66699 -3.33301 -10 -10 -10h-33c-6.66699 0 -10 3.33301 -10 10v45
c0 34.667 -10 62.334 -30 83.001s-46.667 31 -80 31s-60 -10.333 -80 -31s-30 -48.334 -30 -83.001v-394c0 -34.667 10 -62.334 30 -83.001s46.667 -31 80 -31s60 10.333 80 31s30 48.334 30 83.001v141c0 2.66699 -1.33301 4 -4 4h-94c-6.66699 0 -10 3.33301 -10 10v27
c0 6.66699 3.33301 10 10 10h141c6.66699 0 10 -3.33301 10 -10v-181c0 -48.667 -15 -87.834 -45 -117.501s-69.333 -44.5 -118 -44.5s-87.834 14.833 -117.501 44.5zM184 -198.5c-1.33301 2.33301 -1 5.16602 1 8.49902l62 110c3.33301 4.66699 7.33301 7 12 7h27
c4 0 6.66699 -1.16699 8 -3.5s1 -5.16602 -1 -8.49902l-69 -110c-3.33301 -4.66699 -7.33301 -7 -12 -7h-20c-4 0 -6.66699 1.16699 -8 3.5z" />
    <glyph glyph-name="uni0123" unicode="&#x123;" horiz-adv-x="406" 
d="M241 694.5c1.33301 -2.33301 1 -5.16602 -1 -8.49902l-62 -110c-3.33301 -4.66699 -7.33301 -7 -12 -7h-27c-4 0 -6.66699 1.16699 -8 3.5s-1 5.16602 1 8.49902l69 110c3.33301 4.66699 7.33301 7 12 7h20c4 0 6.66699 -1.16699 8 -3.5zM307 504l33.998 -0.00292969
c6.66699 0 10 -3.33301 10 -10v-488c0 -68.667 -15.667 -121 -47 -157s-81.666 -52.667 -150.999 -50c-6.66699 0 -10 3.33301 -10 10v27c0 6.66699 4.33301 10 13 10c50.667 0 86.834 13.667 108.501 41s32.5 68.333 32.5 123v38c0 2 -0.666992 3.16699 -2 3.5
s-2.33301 -0.5 -3 -2.5c-11.333 -18 -25.833 -31.5 -43.5 -40.5s-37.167 -13.5 -58.5 -13.5c-41.333 0 -74.166 13.833 -98.499 41.5s-36.5 63.834 -36.5 108.501v217c0 44.667 12.167 80.834 36.5 108.501s57.166 41.5 98.499 41.5c21.333 0 41 -4.66699 59 -14
s32.333 -22.666 43 -39.999c1.33301 -1.33301 2.5 -2 3.5 -2s1.5 1 1.5 3v35c0 6.66699 3.33301 10 10 10zM270.998 70.9971c17.333 19.333 26 44.668 26 76.001v212c0 31.333 -8.66699 56.833 -26 76.5s-39.666 29.5 -66.999 29.5c-28 0 -51 -9.83301 -69 -29.5
s-27 -45.167 -27 -76.5v-212c0 -30.667 9 -55.834 27 -75.501s41 -29.5 69 -29.5c27.333 0 49.666 9.66699 66.999 29z" />
    <glyph glyph-name="Hcircumflex" unicode="&#x124;" horiz-adv-x="470" 
d="M348 700h33c6.66699 0 10 -3.33301 10 -10v-680c0 -6.66699 -3.33301 -10 -10 -10h-33c-6.66699 -0 -10 3.33301 -10 10v313c0 2.66699 -1.33301 4 -4 4h-198c-2.66699 0 -4 -1.33301 -4 -4v-313c0 -6.66699 -3.33301 -10 -10 -10h-33c-6.66699 -0 -10 3.33301 -10 10
v680c0 6.66699 3.33301 10 10 10h33c6.66699 0 10 -3.33301 10 -10v-312c0 -2.66699 1.33301 -4 4 -4h198c2.66699 0 4 1.33301 4 4v312c0 6.66699 3.33301 10 10 10zM131.5 779.5c-1 2.33301 -0.5 5.16699 1.5 8.5l65 102c3.33301 4.66699 7.33301 7 12 7h42
c4.66699 0 8.66699 -2.33301 12 -7l67 -102c1.33301 -2.66699 2 -4.66699 2 -6c0 -4 -2.66699 -6 -8 -6h-31c-4.66699 0 -8.66699 2.33301 -12 7l-47 76c-0.666992 1.33301 -1.66699 2 -3 2s-2.33301 -0.666992 -3 -2l-47 -76c-3.33301 -4.66699 -7.33301 -7 -12 -7h-31
c-4 0 -6.5 1.16699 -7.5 3.5z" />
    <glyph glyph-name="hcircumflex" unicode="&#x125;" 
d="M325 470c22 -27.333 33 -65.668 33 -115.001v-345c0 -6.66699 -3.33301 -10 -10 -10h-33c-6.66699 0 -10 3.33301 -10 10v340c0 36 -8 64 -24 84s-38.333 30 -67 30c-29.333 0 -52.333 -10.667 -69 -32s-25 -50.666 -25 -87.999v-334c0 -6.66699 -3.33301 -10 -10 -10
h-33c-6.66699 -0 -10 3.33301 -10 10v680c0 6.66699 3.33301 10 10 10h33c6.66699 0 10 -3.33301 10 -10v-234c0 -2 0.5 -3 1.5 -3s2.16699 0.666992 3.5 2c22.667 37.333 58 56 106 56c40.667 0 72 -13.667 94 -41zM112.5 753.498c-1 2.33301 -0.5 5.16699 1.5 8.5l65 102
c3.33301 4.66699 7.33301 7 12 7h42c4.66699 0 8.66699 -2.33301 12 -7l67 -102c1.33301 -2.66699 2 -4.66699 2 -6c0 -4 -2.66699 -6 -8 -6h-31c-4.66699 0 -8.66699 2.33301 -12 7l-47 76c-0.666992 1.33301 -1.66699 2 -3 2s-2.33301 -0.666992 -3 -2l-47 -76
c-3.33301 -4.66699 -7.33301 -7 -12 -7h-31c-4 0 -6.5 1.16699 -7.5 3.5z" />
    <glyph glyph-name="Hbar" unicode="&#x126;" horiz-adv-x="470" 
d="M439 538v-20c0 -6.66699 -3.33301 -10 -10 -10h-34c-2.66699 0 -4 -1.33301 -4 -4v-494c0 -6.66699 -3.33301 -10 -10 -10h-33c-6.66699 -0 -10 3.33301 -10 10v313c0 2.66699 -1.33301 4 -4 4h-198c-2.66699 0 -4 -1.33301 -4 -4v-313c0 -6.66699 -3.33301 -10 -10 -10
h-33c-6.66699 -0 -10 3.33301 -10 10v494c0 2.66699 -1.33301 4 -4 4h-34c-6.66699 0 -10 3.33301 -10 10v20c0 6.66699 3.33301 10 10 10h34c2.66699 0 4 1.33301 4 4v138c0 6.66699 3.33301 10 10 10h33c6.66699 0 10 -3.33301 10 -10v-138c0 -2.66699 1.33301 -4 4 -4
h198c2.66699 0 4 1.33301 4 4v138c0 6.66699 3.33301 10 10 10h33c6.66699 0 10 -3.33301 10 -10v-138c0 -2.66699 1.33301 -4 4 -4h34c6.66699 0 10 -3.33301 10 -10zM338 378v126c0 2.66699 -1.33301 4 -4 4h-198c-2.66699 0 -4 -1.33301 -4 -4v-126
c0 -2.66699 1.33301 -4 4 -4h198c2.66699 0 4 1.33301 4 4z" />
    <glyph glyph-name="hbar" unicode="&#x127;" 
d="M325 470c22 -27.333 33 -65.668 33 -115.001v-345c0 -6.66699 -3.33301 -10 -10 -10h-33c-6.66699 0 -10 3.33301 -10 10v340c0 36 -8 64 -24 84s-38.333 30 -67 30c-29.333 0 -52.333 -10.667 -69 -32s-25 -50.666 -25 -87.999v-334c0 -6.66699 -3.33301 -10 -10 -10
h-33c-6.66699 -0 -10 3.33301 -10 10v541c0 2.66699 -1.33301 4 -4 4h-42c-6.66699 0 -10 3.33301 -10 10v18c0 6.66699 3.33301 10 10 10h42c2.66699 0 4 1.33301 4 4v93c0 6.66699 3.33301 10 10 10h33c6.66699 0 10 -3.33301 10 -10v-93c0 -2.66699 1.33301 -4 4 -4h138
c6.66699 0 10 -3.33301 10 -10v-18c0 -6.66699 -3.33301 -10 -10 -10h-138c-2.66699 0 -4 -1.33301 -4 -4v-95c0 -2 0.5 -3 1.5 -3s2.16699 0.666992 3.5 2c22.667 37.333 58 56 106 56c40.667 0 72 -13.667 94 -41z" />
    <glyph glyph-name="Itilde" unicode="&#x128;" horiz-adv-x="211" 
d="M79 10v680c0 6.66699 3.33301 10 10 10h33c6.66699 0 10 -3.33301 10 -10v-680c0 -6.66699 -3.33301 -10 -10 -10h-33c-6.66699 -0 -10 3.33301 -10 10zM140.5 815.5c-7.66699 3.66699 -16.834 9.16992 -27.501 16.5029c-2 1.33301 -6 4.16602 -12 8.49902
s-11.667 7.5 -17 9.5s-10.666 3 -15.999 3c-10 0 -18.333 -1.83301 -25 -5.5s-13.667 -10.834 -21 -21.501c-4 -6 -8.66699 -7 -14 -3l-12 9c-6 3.33301 -7.33301 7.66602 -4 12.999c18 32 42.333 48 73 48c10 0 19 -2 27 -6s17.667 -9.66699 29 -17
c3.33301 -2 8 -5.16699 14 -9.5s11.667 -7.5 17 -9.5s10.666 -3 15.999 -3c8.66699 0 16.5 2.16699 23.5 6.5s13.833 12.166 20.5 23.499c3.33301 6.66699 8 8 14 4l12 -7c2.66699 -2 4 -4.66699 4 -8s-1.33301 -7.33301 -4 -12
c-9.33301 -15.333 -20.666 -26.666 -33.999 -33.999s-26 -11 -38 -11c-9.33301 0 -17.833 1.83301 -25.5 5.5z" />
    <glyph glyph-name="itilde" unicode="&#x129;" horiz-adv-x="163" 
d="M55 10v484c0 6.66699 3.33301 10 10 10h33c6.66699 0 10 -3.33301 10 -10v-484c0 -6.66699 -3.33301 -10 -10 -10h-33c-6.66699 -0 -10 3.33301 -10 10zM116.5 619.5c-7.66699 3.66699 -16.834 9.16992 -27.501 16.5029c-2 1.33301 -6 4.16602 -12 8.49902
s-11.667 7.5 -17 9.5s-10.666 3 -15.999 3c-10 0 -18.333 -1.83301 -25 -5.5s-13.667 -10.834 -21 -21.501c-4 -6 -8.66699 -7 -14 -3l-12 9c-6 3.33301 -7.33301 7.66602 -4 12.999c18 32 42.333 48 73 48c10 0 19 -2 27 -6s17.667 -9.66699 29 -17
c3.33301 -2 8 -5.16699 14 -9.5s11.667 -7.5 17 -9.5s10.666 -3 15.999 -3c8.66699 0 16.5 2.16699 23.5 6.5s13.833 12.166 20.5 23.499c3.33301 6.66699 8 8 14 4l12 -7c2.66699 -2 4 -4.66699 4 -8s-1.33301 -7.33301 -4 -12
c-9.33301 -15.333 -20.666 -26.666 -33.999 -33.999s-26 -11 -38 -11c-9.33301 0 -17.833 1.83301 -25.5 5.5z" />
    <glyph glyph-name="Imacron" unicode="&#x12a;" horiz-adv-x="211" 
d="M79 10v680c0 6.66699 3.33301 10 10 10h33c6.66699 0 10 -3.33301 10 -10v-680c0 -6.66699 -3.33301 -10 -10 -10h-33c-6.66699 -0 -10 3.33301 -10 10zM5 805v20c0 6.66699 3.33301 10 10 10h179c6.66699 0 10 -3.33301 10 -10v-20c0 -6.66699 -3.33301 -10 -10 -10
h-179c-6.66699 0 -10 3.33301 -10 10z" />
    <glyph glyph-name="imacron" unicode="&#x12b;" horiz-adv-x="163" 
d="M55 10v484c0 6.66699 3.33301 10 10 10h33c6.66699 0 10 -3.33301 10 -10v-484c0 -6.66699 -3.33301 -10 -10 -10h-33c-6.66699 -0 -10 3.33301 -10 10zM-18 609v20c0 6.66699 3.33301 10 10 10h179c6.66699 0 10 -3.33301 10 -10v-20c0 -6.66699 -3.33301 -10 -10 -10
h-179c-6.66699 0 -10 3.33301 -10 10z" />
    <glyph glyph-name="ibreve" unicode="&#x12d;" horiz-adv-x="163" 
d="M55 10v484c0 6.66699 3.33301 10 10 10h33c6.66699 0 10 -3.33301 10 -10v-484c0 -6.66699 -3.33301 -10 -10 -10h-33c-6.66699 -0 -10 3.33301 -10 10zM13.5 609.5c-19 17.667 -29.832 39.834 -32.499 66.501c0 6.66699 3.33301 10 10 10h15
c6.66699 0 10 -3.33301 10 -10c2.66699 -18 10.167 -32.667 22.5 -44s26.833 -17 43.5 -17c17.333 0 32 5.66699 44 17s19 26 21 44c0.666992 6.66699 4.33398 10 11.001 10h15c3.33301 0 5.83301 -1 7.5 -3s2.16699 -4.33301 1.5 -7
c-2.66699 -26.667 -13.334 -48.834 -32.001 -66.501s-41.334 -26.5 -68.001 -26.5s-49.5 8.83301 -68.5 26.5z" />
    <glyph glyph-name="Iogonek" unicode="&#x12e;" horiz-adv-x="178" 
d="M64 10v680c0 6.66699 3.33301 10 10 10h33c6.66699 0 10 -3.33301 10 -10v-680c0 -6.66699 -3.33301 -10 -10 -10h-33c-6.66699 -0 -10 3.33301 -10 10zM133 -173c0 -4.66699 -2.33301 -7.33105 -7 -7.99805c-8 -2 -17 -3 -27 -3c-20.667 0 -38.5 6.16699 -53.5 18.5
s-22.5 33.166 -22.5 62.499c0 35.333 15.333 67.333 46 96l4 4c2.66699 2 6 3 10 3h16c4 0 6.5 -1.33301 7.5 -4s0.166992 -5.33398 -2.5 -8.00098c-27.333 -30 -41 -59 -41 -87c0 -20 5 -33.833 15 -41.5s23 -10.5 39 -8.5c2 0 3.66699 0.333008 5 1c6 0 9 -2.66699 9 -8
l2 -14v-3z" />
    <glyph glyph-name="iogonek" unicode="&#x12f;" horiz-adv-x="224" 
d="M95 10v484c0 6.66699 3.33301 10 10 10h33c6.66699 0 10 -3.33301 10 -10v-484c0 -6.66699 -3.33301 -10 -10 -10h-33c-6.66699 -0 -10 3.33301 -10 10zM86 619c-9.33301 9.33301 -14 21.333 -14 36s4.66699 26.667 14 36s21.333 14 36 14s26.667 -4.66699 36 -14
s14 -21.333 14 -36s-4.66699 -26.667 -14 -36s-21.333 -14 -36 -14s-26.667 4.66699 -36 14zM165 -173c0 -4.66699 -2.33301 -7.33105 -7 -7.99805c-8 -2 -17 -3 -27 -3c-20.667 0 -38.5 6.16699 -53.5 18.5s-22.5 33.166 -22.5 62.499c0 35.333 15.333 67.333 46 96l4 4
c2.66699 2 6 3 10 3h16c4 0 6.5 -1.33301 7.5 -4s0.166992 -5.33398 -2.5 -8.00098c-27.333 -30 -41 -59 -41 -87c0 -20 5 -33.833 15 -41.5s23 -10.5 39 -8.5c2 0 3.66699 0.333008 5 1c6 0 9 -2.66699 9 -8l2 -14v-3z" />
    <glyph glyph-name="Idotaccent" unicode="&#x130;" horiz-adv-x="211" 
d="M79 10v680c0 6.66699 3.33301 10 10 10h33c6.66699 0 10 -3.33301 10 -10v-680c0 -6.66699 -3.33301 -10 -10 -10h-33c-6.66699 -0 -10 3.33301 -10 10zM69 815c-9.33301 9.33301 -14 21.333 -14 36s4.66699 26.667 14 36s21.333 14 36 14s26.667 -4.66699 36 -14
s14 -21.333 14 -36s-4.66699 -26.667 -14 -36s-21.333 -14 -36 -14s-26.667 4.66699 -36 14z" />
    <glyph glyph-name="dotlessi" unicode="&#x131;" horiz-adv-x="163" 
d="M55 10v484c0 6.66699 3.33301 10 10 10h33c6.66699 0 10 -3.33301 10 -10v-484c0 -6.66699 -3.33301 -10 -10 -10h-33c-6.66699 -0 -10 3.33301 -10 10z" />
    <glyph glyph-name="ij" unicode="&#x133;" horiz-adv-x="403" 
d="M66 619c-9.33301 9.33301 -14 21.333 -14 36s4.66699 26.667 14 36s21.333 14 36 14s26.667 -4.66699 36 -14s14 -21.333 14 -36s-4.66699 -26.667 -14 -36s-21.333 -14 -36 -14s-26.667 4.66699 -36 14zM76 10v484c0 6.66699 3.33301 10 10 10h33
c6.66699 0 10 -3.33301 10 -10v-484c0 -6.66699 -3.33301 -10 -10 -10h-33c-6.66699 -0 -10 3.33301 -10 10zM264 619c-9.33301 9.33301 -14 21.333 -14 36s4.66699 26.667 14 36s21.333 14 36 14s26.667 -4.66699 36 -14s14 -21.333 14 -36s-4.66699 -26.667 -14 -36
s-21.333 -14 -36 -14s-26.667 4.66699 -36 14zM184 -199v27c0 6.66699 3.33301 10 10 10c26.667 1.33301 46.667 11.5 60 30.5s20 44.5 20 76.5v549c0 6.66699 3.33301 10 10 10h33c6.66699 0 10 -3.33301 10 -10v-549c0 -50 -10 -88 -30 -114s-54.333 -39.333 -103 -40
c-6.66699 0 -10 3.33301 -10 10z" />
    <glyph glyph-name="Jcircumflex" unicode="&#x134;" horiz-adv-x="419" 
d="M67.5 37c-29 30 -43.498 69.667 -43.498 119v88c0 6.66699 3.33301 10 10 10h33c6.66699 0 10 -3.33301 10 -10v-89c0 -34.667 9.66699 -62.667 29 -84s44.666 -32 75.999 -32s56.666 10.667 75.999 32s29 49.333 29 84v535c0 6.66699 3.33301 10 10 10h33
c6.66699 0 10 -3.33301 10 -10v-534c0 -49.333 -14.5 -89 -43.5 -119s-67.167 -45 -114.5 -45s-85.5 15 -114.5 45zM211.502 779.5c-1 2.33301 -0.5 5.16699 1.5 8.5l65 102c3.33301 4.66699 7.33301 7 12 7h42c4.66699 0 8.66699 -2.33301 12 -7l67 -102
c1.33301 -2.66699 2 -4.66699 2 -6c0 -4 -2.66699 -6 -8 -6h-31c-4.66699 0 -8.66699 2.33301 -12 7l-47 76c-0.666992 1.33301 -1.66699 2 -3 2s-2.33301 -0.666992 -3 -2l-47 -76c-3.33301 -4.66699 -7.33301 -7 -12 -7h-31c-4 0 -6.5 1.16699 -7.5 3.5z" />
    <glyph glyph-name="jcircumflex" unicode="&#x135;" horiz-adv-x="193" 
d="M-23 -199v27c0 6.66699 3.33301 10 10 10c26.667 1.33301 46.667 11.5 60 30.5s20 44.5 20 76.5v549c0 6.66699 3.33301 10 10 10h33c6.66699 0 10 -3.33301 10 -10v-549c0 -50 -10 -88 -30 -114s-54.333 -39.333 -103 -40c-6.66699 0 -10 3.33301 -10 10zM-7.5 582.5
c-1 2.33301 -0.5 5.16699 1.5 8.5l65 102c3.33301 4.66699 7.33301 7 12 7h42c4.66699 0 8.66699 -2.33301 12 -7l67 -102c1.33301 -2.66699 2 -4.66699 2 -6c0 -4 -2.66699 -6 -8 -6h-31c-4.66699 0 -8.66699 2.33301 -12 7l-47 76c-0.666992 1.33301 -1.66699 2 -3 2
s-2.33301 -0.666992 -3 -2l-47 -76c-3.33301 -4.66699 -7.33301 -7 -12 -7h-31c-4 0 -6.5 1.16699 -7.5 3.5z" />
    <glyph glyph-name="uni0136" unicode="&#x136;" horiz-adv-x="442" 
d="M79 10l0.000976562 680c0 6.66699 3.33301 10 10 10h33c6.66699 0 10 -3.33301 10 -10v-343c0 -2 0.666992 -3.16699 2 -3.5s2.33301 0.5 3 2.5l209 347c3.33301 4.66699 7.33301 7 12 7h38c4 0 6.66699 -1.16699 8 -3.5s1 -5.16602 -1 -8.49902l-158 -266
c-2 -2 -2.33301 -4 -1 -6l175 -404l1 -4c0 -5.33301 -3 -8 -9 -8h-38c-5.33301 0 -9 2.66699 -11 8l-154 360c-0.666992 2.66699 -2.33398 2.66699 -5.00098 0l-70 -107c-0.666992 -0.666992 -1 -2.33398 -1 -5.00098v-246c0 -6.66699 -3.33301 -10 -10 -10h-33
c-6.66699 -0 -10 3.33301 -10 10zM206.001 -190.5c-1.33301 2.33301 -1 5.16602 1 8.49902l62 110c3.33301 4.66699 7.33301 7 12 7h27c4 0 6.66699 -1.16699 8 -3.5s1 -5.16602 -1 -8.49902l-69 -110c-3.33301 -4.66699 -7.33301 -7 -12 -7h-20
c-4 0 -6.66699 1.16699 -8 3.5z" />
    <glyph glyph-name="uni0137" unicode="&#x137;" horiz-adv-x="394" 
d="M67 10v679.998c0 6.66699 3.33301 10 10 10h33c6.66699 0 10 -3.33301 10 -10v-420c0 -1.33301 0.666992 -2.16602 2 -2.49902s2.33301 0.166992 3 1.5l165 229c2.66699 4 6.66699 6 12 6h35c4 0 6.66699 -1.16699 8 -3.5s0.666016 -5.16602 -2.00098 -8.49902l-97 -136
c-1.33301 -1.33301 -1.66602 -3 -0.999023 -5l117 -340l1 -4c0 -4.66699 -3 -7 -9 -7h-35c-6 0 -10 2.66699 -12 8l-95 297c-0.666992 4 -2.66699 4.33301 -6 1l-84 -116c-1.33301 -1.33301 -2 -3 -2 -5v-175c0 -6.66699 -3.33301 -10 -10 -10h-33
c-6.66699 -0 -10 3.33301 -10 10zM172 -190.502c-1.33301 2.33301 -1 5.16602 1 8.49902l62 110c3.33301 4.66699 7.33301 7 12 7h27c4 0 6.66699 -1.16699 8 -3.5s1 -5.16602 -1 -8.49902l-69 -110c-3.33301 -4.66699 -7.33301 -7 -12 -7h-20c-4 0 -6.66699 1.16699 -8 3.5
z" />
    <glyph glyph-name="Lacute" unicode="&#x139;" horiz-adv-x="388" 
d="M79 10v680c0 6.66699 3.33301 10 10 10h33c6.66699 0 10 -3.33301 10 -10v-639c0 -2.66699 1.33301 -4 4 -4h234c6.66699 0 10 -3.33301 10 -10v-27c0 -6.66699 -3.33301 -10 -10 -10h-281c-6.66699 -0 -10 3.33301 -10 10zM67 770.5
c-1.33301 2.33301 -1 5.16602 1 8.49902l62 110c3.33301 4.66699 7.33301 7 12 7h27c4 0 6.66699 -1.16699 8 -3.5s1 -5.16602 -1 -8.49902l-69 -110c-3.33301 -4.66699 -7.33301 -7 -12 -7h-20c-4 0 -6.66699 1.16699 -8 3.5z" />
    <glyph glyph-name="lacute" unicode="&#x13a;" horiz-adv-x="174" 
d="M61 10v680c0 6.66699 3.33301 10 10 10h33c6.66699 0 10 -3.33301 10 -10v-680c0 -6.66699 -3.33301 -10 -10 -10h-33c-6.66699 -0 -10 3.33301 -10 10zM50 770.5c-1.33301 2.33301 -1 5.16602 1 8.49902l62 110c3.33301 4.66699 7.33301 7 12 7h27
c4 0 6.66699 -1.16699 8 -3.5s1 -5.16602 -1 -8.49902l-69 -110c-3.33301 -4.66699 -7.33301 -7 -12 -7h-20c-4 0 -6.66699 1.16699 -8 3.5z" />
    <glyph glyph-name="uni013B" unicode="&#x13b;" horiz-adv-x="388" 
d="M79 10v680c0 6.66699 3.33301 10 10 10h33c6.66699 0 10 -3.33301 10 -10v-639c0 -2.66699 1.33301 -4 4 -4h234c6.66699 0 10 -3.33301 10 -10v-27c0 -6.66699 -3.33301 -10 -10 -10h-281c-6.66699 -0 -10 3.33301 -10 10zM159 -190.5
c-1.33301 2.33301 -1 5.16602 1 8.49902l62 110c3.33301 4.66699 7.33301 7 12 7h27c4 0 6.66699 -1.16699 8 -3.5s1 -5.16602 -1 -8.49902l-69 -110c-3.33301 -4.66699 -7.33301 -7 -12 -7h-20c-4 0 -6.66699 1.16699 -8 3.5z" />
    <glyph glyph-name="uni013C" unicode="&#x13c;" horiz-adv-x="174" 
d="M61 10v680c0 6.66699 3.33301 10 10 10h33c6.66699 0 10 -3.33301 10 -10v-680c0 -6.66699 -3.33301 -10 -10 -10h-33c-6.66699 -0 -10 3.33301 -10 10zM-8 -190.5c-1.33301 2.33301 -1 5.16602 1 8.49902l62 110c3.33301 4.66699 7.33301 7 12 7h27
c4 0 6.66699 -1.16699 8 -3.5s1 -5.16602 -1 -8.49902l-69 -110c-3.33301 -4.66699 -7.33301 -7 -12 -7h-20c-4 0 -6.66699 1.16699 -8 3.5z" />
    <glyph glyph-name="Lcaron" unicode="&#x13d;" horiz-adv-x="389" 
d="M79 10v680c0 6.66699 3.33301 10 10 10h33c6.66699 0 10 -3.33301 10 -10v-639c0 -2.66699 1.33301 -4 4 -4h234c6.66699 0 10 -3.33301 10 -10v-27c0 -6.66699 -3.33301 -10 -10 -10h-281c-6.66699 -0 -10 3.33301 -10 10zM189 574.5
c-1.33301 2.33301 -1 5.16602 1 8.49902l62 110c3.33301 4.66699 7.33301 7 12 7h27c4 0 6.66699 -1.16699 8 -3.5s1 -5.16602 -1 -8.49902l-69 -110c-3.33301 -4.66699 -7.33301 -7 -12 -7h-20c-4 0 -6.66699 1.16699 -8 3.5z" />
    <glyph glyph-name="lcaron" unicode="&#x13e;" horiz-adv-x="311" 
d="M61 10v680c0 6.66699 3.33301 10 10 10h33c6.66699 0 10 -3.33301 10 -10v-680c0 -6.66699 -3.33301 -10 -10 -10h-33c-6.66699 -0 -10 3.33301 -10 10zM159 574.5c-1.33301 2.33301 -1 5.16602 1 8.49902l62 110c3.33301 4.66699 7.33301 7 12 7h27
c4 0 6.66699 -1.16699 8 -3.5s1 -5.16602 -1 -8.49902l-69 -110c-3.33301 -4.66699 -7.33301 -7 -12 -7h-20c-4 0 -6.66699 1.16699 -8 3.5z" />
    <glyph glyph-name="ldot" unicode="&#x140;" horiz-adv-x="222" 
d="M85 10v680c0 6.66699 3.33301 10 10 10h33c6.66699 0 10 -3.33301 10 -10v-680c0 -6.66699 -3.33301 -10 -10 -10h-33c-6.66699 -0 -10 3.33301 -10 10zM75 816c-9.33301 9.33301 -14 21.333 -14 36s4.66699 26.667 14 36s21.333 14 36 14s26.667 -4.66699 36 -14
s14 -21.333 14 -36s-4.66699 -26.667 -14 -36s-21.333 -14 -36 -14s-26.667 4.66699 -36 14z" />
    </font>
</defs>
</svg>
