<?xml version="1.0" standalone="no"?>
<!DOCTYPE svg PUBLIC "-//W3C//DTD SVG 1.1//EN" "http://www.w3.org/Graphics/SVG/1.1/DTD/svg11.dtd" >
<svg>
<metadata>
Created by FontForge 20090914 at Mon Jun 28 19:46:00 2021
 By www-data
Copyright 2017 The Barlow Project Authors (https://github.com/jpt/barlow)
</metadata>
<defs>
<font id="BarlowCondensed-Bold" horiz-adv-x="447" >
  <font-face 
    font-family="Barlow Condensed"
    font-weight="700"
    font-stretch="condensed"
    units-per-em="1000"
    panose-1="0 0 8 6 0 0 0 0 0 0"
    ascent="800"
    descent="-200"
    x-height="513.997"
    cap-height="699.998"
    bbox="-599.82 -240.004 1003 1070"
    underline-thickness="50"
    underline-position="-50"
    unicode-range="U+000D-U+FB02"
  />
<missing-glyph horiz-adv-x="404" 
d="M5 0h394c3.33301 0 5 1.66699 5 5v690c0 3.33301 -1.66699 5 -5 5h-394c-3.33301 0 -5 -1.66699 -5 -5v-690c0 -3.33301 1.66699 -5 5 -5zM150.5 251.5c-2.33301 2.33301 -3.50293 5.16699 -3.50293 8.5v20c0 24 5 43.333 15 58s24.333 30 43 46
c15.333 13.333 26.5 24.833 33.5 34.5s10.5 21.5 10.5 35.5c0 15.333 -3.66699 27.666 -11 36.999s-17.333 14 -30 14c-14 0 -24.833 -5 -32.5 -15s-11.5 -23 -11.5 -39v-8c0 -7.33301 -4 -11 -12 -11l-77 3c-3.33301 0 -6.16602 1.33301 -8.49902 4s-3.5 5.66699 -3.5 9v3
c0 43.333 13.667 78.5 41 105.5s63 40.5 107 40.5c42 0 75.667 -12.667 101 -38s38 -59 38 -101c0 -30 -5.5 -53.667 -16.5 -71s-26.5 -34.333 -46.5 -51c-14 -12 -24.167 -22.167 -30.5 -30.5s-9.5 -18.833 -9.5 -31.5v-14c0 -3.33301 -1.16699 -6.16602 -3.5 -8.49902
s-5.16602 -3.5 -8.49902 -3.5h-76c-3.33301 0 -6.16602 1.16699 -8.49902 3.5zM156.497 104.001c-10.333 10.667 -15.5 24 -15.5 40c0 16.667 5.16699 30.334 15.5 41.001s23.833 16 40.5 16s30.334 -5.33301 41.001 -16s16 -24.334 16 -41.001
c0 -16 -5.33301 -29.333 -16 -40s-24.334 -16 -41.001 -16s-30.167 5.33301 -40.5 16z" />
    <glyph glyph-name="fi" unicode="fi" horiz-adv-x="516" 
d="M273.5 510.5c2.33301 -2.33301 3.49805 -5.16699 3.49805 -8.5v-75c0 -3.33301 -1.16699 -6.16602 -3.5 -8.49902s-5.16602 -3.5 -8.49902 -3.5h-55c-3.33301 0 -5 -1.66699 -5 -5v-398c0 -3.33301 -1.16699 -6.16602 -3.5 -8.49902s-5.16602 -3.5 -8.49902 -3.5h-116
c-3.33301 0 -6.16602 1.16699 -8.49902 3.5s-3.5 5.16602 -3.5 8.49902v398c0 3.33301 -1.66699 5 -5 5h-30c-3.33301 0 -6.16602 1.16699 -8.49902 3.5s-3.5 5.16602 -3.5 8.49902v75c0 3.33301 1.16699 6.16602 3.5 8.49902s5.16602 3.5 8.49902 3.5h30
c3.33301 0 5 1.66699 5 5v27c0 60 15.167 101.5 45.5 124.5s78.5 33.833 144.5 32.5h4c3.33301 0 6.16602 -1.16699 8.49902 -3.5s3.5 -5.16602 3.5 -8.49902l-1 -80c0 -3.33301 -1.16699 -6.16602 -3.5 -8.49902s-5.16602 -3.5 -8.49902 -3.5h-2
c-34 -0.666992 -51 -21.334 -51 -62.001v-18c0 -3.33301 1.66699 -5 5 -5h55c3.33301 0 6.16602 -1.16699 8.49902 -3.5zM349.498 594.499c-15 15 -22.498 33.833 -22.498 56.5c0 23.333 7.33301 42.333 22 57s33.667 22 57 22s42.166 -7.33301 56.499 -22
s21.5 -33.667 21.5 -57c0 -22.667 -7.33301 -41.5 -22 -56.5s-33.334 -22.5 -56.001 -22.5s-41.5 7.5 -56.5 22.5zM340.5 3.49902c-2.33301 2.33301 -3.5 5.16602 -3.5 8.49902v490c0 3.33301 1.16699 6.16602 3.5 8.49902s5.16602 3.5 8.49902 3.5h117
c3.33301 0 6.16602 -1.16699 8.49902 -3.5s3.5 -5.16602 3.5 -8.49902v-490c0 -3.33301 -1.16699 -6.16602 -3.5 -8.49902s-5.16602 -3.5 -8.49902 -3.5h-117c-3.33301 0 -6.16602 1.16699 -8.49902 3.5z" />
    <glyph glyph-name="fl" unicode="fl" horiz-adv-x="506" 
d="M273.5 510.5c2.33301 -2.33301 3.49805 -5.16699 3.49805 -8.5v-75c0 -3.33301 -1.16699 -6.16602 -3.5 -8.49902s-5.16602 -3.5 -8.49902 -3.5h-55c-3.33301 0 -5 -1.66699 -5 -5v-398c0 -3.33301 -1.16699 -6.16602 -3.5 -8.49902s-5.16602 -3.5 -8.49902 -3.5h-116
c-3.33301 0 -6.16602 1.16699 -8.49902 3.5s-3.5 5.16602 -3.5 8.49902v398c0 3.33301 -1.66699 5 -5 5h-30c-3.33301 0 -6.16602 1.16699 -8.49902 3.5s-3.5 5.16602 -3.5 8.49902v75c0 3.33301 1.16699 6.16602 3.5 8.49902s5.16602 3.5 8.49902 3.5h30
c3.33301 0 5 1.66699 5 5v27c0 60 15.167 101.5 45.5 124.5s78.5 33.833 144.5 32.5h4c3.33301 0 6.16602 -1.16699 8.49902 -3.5s3.5 -5.16602 3.5 -8.49902l-1 -80c0 -3.33301 -1.16699 -6.16602 -3.5 -8.49902s-5.16602 -3.5 -8.49902 -3.5h-2
c-34 -0.666992 -51 -21.334 -51 -62.001v-18c0 -3.33301 1.66699 -5 5 -5h55c3.33301 0 6.16602 -1.16699 8.49902 -3.5zM334.498 3.49902c-2.33301 2.33301 -3.5 5.16602 -3.5 8.49902v676c0 3.33301 1.16699 6.16602 3.5 8.49902s5.16602 3.5 8.49902 3.5h117
c3.33301 0 6.16602 -1.16699 8.49902 -3.5s3.5 -5.16602 3.5 -8.49902v-676c0 -3.33301 -1.16699 -6.16602 -3.5 -8.49902s-5.16602 -3.5 -8.49902 -3.5h-117c-3.33301 0 -6.16602 1.16699 -8.49902 3.5z" />
    <glyph glyph-name="I_J.liga" unicode="IJ" horiz-adv-x="682" 
d="M47.5 3.5c-2.33301 2.33301 -3.5 5.16602 -3.5 8.49902v676c0 3.33301 1.16699 6.16602 3.5 8.49902s5.16602 3.5 8.49902 3.5h117c3.33301 0 6.16602 -1.16699 8.49902 -3.5s3.5 -5.16602 3.5 -8.49902v-676c0 -3.33301 -1.16699 -6.16602 -3.5 -8.49902
s-5.16602 -3.5 -8.49902 -3.5h-117c-3.33301 0 -6.16602 1.16699 -8.49902 3.5zM298 43.5c-36 34.333 -53.9961 79.833 -53.9961 136.5v69c0 3.33301 1.16699 6.16602 3.5 8.49902s5.16602 3.5 8.49902 3.5h117c3.33301 0 6.16602 -1.16699 8.49902 -3.5
s3.5 -5.16602 3.5 -8.49902v-71c0 -19.333 5 -35 15 -47s23.333 -18 40 -18c17.333 0 31.166 6 41.499 18s15.5 27.667 15.5 47v510c0 3.33301 1.16699 6.16602 3.5 8.49902s5.16602 3.5 8.49902 3.5h117c3.33301 0 6.16602 -1.16699 8.49902 -3.5
s3.5 -5.16602 3.5 -8.49902v-508c0 -56.667 -18.167 -102.167 -54.5 -136.5s-84.166 -51.5 -143.499 -51.5c-58.667 0 -106 17.167 -142 51.5z" />
    <glyph glyph-name="f_f_i.liga" unicode="ffi" horiz-adv-x="784" 
d="M618 594.5c-14.667 15 -21.998 33.833 -21.998 56.5c0 23.333 7.16699 42.333 21.5 57s33.166 22 56.499 22s42.333 -7.33301 57 -22s22 -33.667 22 -57c0 -22.667 -7.5 -41.5 -22.5 -56.5s-33.833 -22.5 -56.5 -22.5s-41.334 7.5 -56.001 22.5zM470.002 519
c0 -3.33301 1.66309 -5.00391 4.99609 -5.00391h55c3.33301 0 6.16602 -1.16699 8.49902 -3.5s3.5 -5.16602 3.5 -8.49902v-75c0 -3.33301 -1.16699 -6.16602 -3.5 -8.49902s-5.16602 -3.5 -8.49902 -3.5h-55c-3.33301 0 -5 -1.66699 -5 -5v-398
c0 -3.33301 -1.16699 -6.16602 -3.5 -8.49902s-5.16602 -3.5 -8.49902 -3.5h-117c-3.33301 0 -6.16602 1.16699 -8.49902 3.5s-3.5 5.16602 -3.5 8.49902v398c0 3.33301 -1.66699 5 -5 5h-113c-3.33301 0 -5 -1.66699 -5 -5v-398
c0 -3.33301 -1.16699 -6.16602 -3.5 -8.49902s-5.16602 -3.5 -8.49902 -3.5h-117c-3.33301 0 -6.16602 1.16699 -8.49902 3.5s-3.5 5.16602 -3.5 8.49902v398c0 3.33301 -1.66699 5 -5 5h-30c-3.33301 0 -6.16602 1.16699 -8.49902 3.5s-3.5 5.16602 -3.5 8.49902v75
c0 3.33301 1.16699 6.16602 3.5 8.49902s5.16602 3.5 8.49902 3.5h30c3.33301 0 5 1.66699 5 5v35c0 58 15.333 98 46 120s78.667 31.667 144 29h1c3.33301 0 6.16602 -1.16699 8.49902 -3.5s3.5 -5.16602 3.5 -8.49902v-72c0 -3.33301 -1.16699 -6.16602 -3.5 -8.49902
s-5.16602 -3.5 -8.49902 -3.5c-33.333 -2 -50 -23.667 -50 -65v-23c0 -3.33301 1.66699 -5 5 -5h113c3.33301 0 5 1.66699 5 5v35c0 58 15.5 98 46.5 120s79.167 31.667 144.5 29h1c3.33301 0 6.16602 -1.16699 8.49902 -3.5s3.5 -5.16602 3.5 -8.49902v-72
c0 -3.33301 -1.16699 -6.16602 -3.5 -8.49902s-5.16602 -3.5 -8.49902 -3.5c-34 -2 -51 -23.667 -51 -65v-23zM608.498 3.49609c-2.33301 2.33301 -3.5 5.16602 -3.5 8.49902v490c0 3.33301 1.16699 6.16602 3.5 8.49902s5.16602 3.5 8.49902 3.5h117
c3.33301 0 6.16602 -1.16699 8.49902 -3.5s3.5 -5.16602 3.5 -8.49902v-490c0 -3.33301 -1.16699 -6.16602 -3.5 -8.49902s-5.16602 -3.5 -8.49902 -3.5h-117c-3.33301 0 -6.16602 1.16699 -8.49902 3.5z" />
    <glyph glyph-name="f_f_l.liga" unicode="ffl" horiz-adv-x="776" 
d="M475 519c0 -3.33301 1.66309 -5.00391 4.99609 -5.00391h55c3.33301 0 6.16602 -1.16699 8.49902 -3.5s3.5 -5.16602 3.5 -8.49902v-75c0 -3.33301 -1.16699 -6.16602 -3.5 -8.49902s-5.16602 -3.5 -8.49902 -3.5h-55c-3.33301 0 -5 -1.66699 -5 -5v-398
c0 -3.33301 -1.16699 -6.16602 -3.5 -8.49902s-5.16602 -3.5 -8.49902 -3.5h-117c-3.33301 0 -6.16602 1.16699 -8.49902 3.5s-3.5 5.16602 -3.5 8.49902v398c0 3.33301 -1.66699 5 -5 5h-118c-3.33301 0 -5 -1.66699 -5 -5v-398
c0 -3.33301 -1.16699 -6.16602 -3.5 -8.49902s-5.16602 -3.5 -8.49902 -3.5h-117c-3.33301 0 -6.16602 1.16699 -8.49902 3.5s-3.5 5.16602 -3.5 8.49902v398c0 3.33301 -1.66699 5 -5 5h-30c-3.33301 0 -6.16602 1.16699 -8.49902 3.5s-3.5 5.16602 -3.5 8.49902v75
c0 3.33301 1.16699 6.16602 3.5 8.49902s5.16602 3.5 8.49902 3.5h30c3.33301 0 5 1.66699 5 5v35c0 58 15.333 98 46 120s78.667 31.667 144 29h1c3.33301 0 6.16602 -1.16699 8.49902 -3.5s3.5 -5.16602 3.5 -8.49902v-72c0 -3.33301 -1.16699 -6.16602 -3.5 -8.49902
s-5.16602 -3.5 -8.49902 -3.5c-33.333 -2 -50 -23.667 -50 -65v-23c0 -3.33301 1.66699 -5 5 -5h118c3.33301 0 5 1.66699 5 5v35c0 58 15.5 98 46.5 120s79.167 31.667 144.5 29h1c3.33301 0 6.16602 -1.16699 8.49902 -3.5s3.5 -5.16602 3.5 -8.49902v-72
c0 -3.33301 -1.16699 -6.16602 -3.5 -8.49902s-5.16602 -3.5 -8.49902 -3.5c-34 -2 -51 -23.667 -51 -65v-23zM604.496 696.496c2.33301 2.33301 5.16602 3.5 8.49902 3.5h117c3.33301 0 6.16602 -1.16699 8.49902 -3.5s3.5 -5.16602 3.5 -8.49902v-676
c0 -3.33301 -1.16699 -6.16602 -3.5 -8.49902s-5.16602 -3.5 -8.49902 -3.5h-117c-3.33301 0 -6.16602 1.16699 -8.49902 3.5s-3.5 5.16602 -3.5 8.49902v676c0 3.33301 1.16699 6.16602 3.5 8.49902z" />
    <glyph glyph-name="g_j.liga" unicode="gj" horiz-adv-x="658" 
d="M492.5 594.5c-15 15 -22.5 33.833 -22.5 56.5c0 23.333 7.33301 42.333 22 57s33.667 22 57 22s42.333 -7.33301 57 -22s22 -33.667 22 -57c0 -22.667 -7.5 -41.5 -22.5 -56.5s-33.833 -22.5 -56.5 -22.5s-41.5 7.5 -56.5 22.5zM265 475
c1.33301 0.666992 2.00293 1.99805 2.00293 3.99805v23c0 3.33301 1.16699 6.16602 3.5 8.49902s5.16602 3.5 8.49902 3.5h117c3.33301 0 6.16602 -1.16699 8.49902 -3.5s3.5 -5.16602 3.5 -8.49902v-478c0 -74 -17.5 -131 -52.5 -171s-97.833 -60 -188.5 -60
c-18 0 -32 0.333008 -42 1c-8 0.666992 -12 5 -12 13v98c0 8.66699 4.33301 12.334 13 11.001c39.333 -1.33301 69.166 2.5 89.499 11.5s34 22.5 41 40.5s10.5 41.667 10.5 71c0 2 -0.666992 3 -2 3s-2.66602 -1 -3.99902 -3c-12 -16 -26.5 -27.167 -43.5 -33.5
s-33.5 -9.5 -49.5 -9.5c-46 0 -80.333 14.833 -103 44.5s-34 70.834 -34 123.501v190c0 54 11.5 95.5 34.5 124.5s57.167 43.5 102.5 43.5c40.667 0 71.667 -15 93 -45c1.33301 -2 2.66602 -2.66699 3.99902 -2zM479.003 501.998c0 3.33301 1.16895 6.16602 3.50195 8.49902
s5.16602 3.5 8.49902 3.5h116c3.33301 0 6.16602 -1.16699 8.49902 -3.5s3.5 -5.16602 3.5 -8.49902v-502c0 -48 -4.66699 -86.5 -14 -115.5s-28 -51.167 -56 -66.5s-69.667 -22.666 -125 -21.999c-8.66699 0 -12.667 4 -12 12l8 97c1.33301 7.33301 5 11 11 11
c18 0 30.5 7.16699 37.5 21.5s10.5 35.166 10.5 62.499v502zM253.505 133.998c9 10.667 13.5 24.334 13.5 41.001v169c0 16.667 -4.5 30.334 -13.5 41.001s-20.5 16 -34.5 16s-25.333 -5.33301 -34 -16s-13 -24.334 -13 -41.001v-169c0 -16.667 4.33301 -30.334 13 -41.001
s20 -16 34 -16s25.5 5.33301 34.5 16z" />
    <glyph glyph-name="i_j.liga" unicode="ij" horiz-adv-x="429" 
d="M52.5 594.5c-15 15 -22.498 33.833 -22.498 56.5c0 23.333 7.33301 42.333 22 57s33.667 22 57 22s42.166 -7.33301 56.499 -22s21.5 -33.667 21.5 -57c0 -22.667 -7.33301 -41.5 -22 -56.5s-33.334 -22.5 -56.001 -22.5s-41.5 7.5 -56.5 22.5zM264.502 594.5
c-15 15 -22.5 33.833 -22.5 56.5c0 23.333 7.33301 42.333 22 57s33.667 22 57 22s42.333 -7.33301 57 -22s22 -33.667 22 -57c0 -22.667 -7.5 -41.5 -22.5 -56.5s-33.833 -22.5 -56.5 -22.5s-41.5 7.5 -56.5 22.5zM42.502 3.5c-2.33301 2.33301 -3.5 5.16602 -3.5 8.49902
v490c0 3.33301 1.16699 6.16602 3.5 8.49902s5.16602 3.5 8.49902 3.5h117c3.33301 0 6.16602 -1.16699 8.49902 -3.5s3.5 -5.16602 3.5 -8.49902v-490c0 -3.33301 -1.16699 -6.16602 -3.5 -8.49902s-5.16602 -3.5 -8.49902 -3.5h-117
c-3.33301 0 -6.16602 1.16699 -8.49902 3.5zM156.002 -192l0.00195312 97c0 8 4.33301 11.667 13 11c30 -0.666992 51 6.16602 63 20.499s18 35.5 18 63.5v502c0 3.33301 1.16699 6.16602 3.5 8.49902s5.16602 3.5 8.49902 3.5h117c3.33301 0 6.16602 -1.16699 8.49902 -3.5
s3.5 -5.16602 3.5 -8.49902v-502c0 -50 -4.5 -89 -13.5 -117s-29.5 -49.667 -61.5 -65s-81.333 -22.666 -148 -21.999c-8 0 -12 4 -12 12z" />
    <glyph glyph-name="hyphen_hyphen.liga" unicode="&#x2d;&#x2d;" horiz-adv-x="593" 
d="M27.5 235.5c-2.33301 2.33301 -3.5 5.16602 -3.5 8.49902v97c0 3.33301 1.16699 6.16602 3.5 8.49902s5.16602 3.5 8.49902 3.5h521c3.33301 0 6.16602 -1.16699 8.49902 -3.5s3.5 -5.16602 3.5 -8.49902v-97c0 -3.33301 -1.16699 -6.16602 -3.5 -8.49902
s-5.16602 -3.5 -8.49902 -3.5h-521c-3.33301 0 -6.16602 1.16699 -8.49902 3.5z" />
    <glyph glyph-name=".notdef" horiz-adv-x="404" 
d="M5 0h394c3.33301 0 5 1.66699 5 5v690c0 3.33301 -1.66699 5 -5 5h-394c-3.33301 0 -5 -1.66699 -5 -5v-690c0 -3.33301 1.66699 -5 5 -5zM150.5 251.5c-2.33301 2.33301 -3.50293 5.16699 -3.50293 8.5v20c0 24 5 43.333 15 58s24.333 30 43 46
c15.333 13.333 26.5 24.833 33.5 34.5s10.5 21.5 10.5 35.5c0 15.333 -3.66699 27.666 -11 36.999s-17.333 14 -30 14c-14 0 -24.833 -5 -32.5 -15s-11.5 -23 -11.5 -39v-8c0 -7.33301 -4 -11 -12 -11l-77 3c-3.33301 0 -6.16602 1.33301 -8.49902 4s-3.5 5.66699 -3.5 9v3
c0 43.333 13.667 78.5 41 105.5s63 40.5 107 40.5c42 0 75.667 -12.667 101 -38s38 -59 38 -101c0 -30 -5.5 -53.667 -16.5 -71s-26.5 -34.333 -46.5 -51c-14 -12 -24.167 -22.167 -30.5 -30.5s-9.5 -18.833 -9.5 -31.5v-14c0 -3.33301 -1.16699 -6.16602 -3.5 -8.49902
s-5.16602 -3.5 -8.49902 -3.5h-76c-3.33301 0 -6.16602 1.16699 -8.49902 3.5zM156.497 104.001c-10.333 10.667 -15.5 24 -15.5 40c0 16.667 5.16699 30.334 15.5 41.001s23.833 16 40.5 16s30.334 -5.33301 41.001 -16s16 -24.334 16 -41.001
c0 -16 -5.33301 -29.333 -16 -40s-24.334 -16 -41.001 -16s-30.167 5.33301 -40.5 16z" />
    <glyph glyph-name="NULL" horiz-adv-x="0" 
 />
    <glyph glyph-name="NULL" horiz-adv-x="0" 
 />
    <glyph glyph-name="nonmarkingreturn" unicode="&#xd;" horiz-adv-x="200" 
 />
    <glyph glyph-name="space" unicode=" " horiz-adv-x="200" 
 />
    <glyph glyph-name="exclam" unicode="!" horiz-adv-x="279" 
d="M86.5 243.5c-2.33301 2.33301 -3.5 5.16602 -3.5 8.49902l-15 436c0 3.33301 1.16699 6.16602 3.5 8.49902s5.16602 3.5 8.49902 3.5h117c3.33301 0 6.16602 -1.16699 8.49902 -3.5s3.5 -5.16602 3.5 -8.49902l-14 -436c0 -3.33301 -1.16699 -6.16602 -3.5 -8.49902
s-5.16602 -3.5 -8.49902 -3.5h-88c-3.33301 0 -6.16602 1.16699 -8.49902 3.5zM83.5 23.5c-15 15 -22.498 33.833 -22.498 56.5c0 23.333 7.33301 42.333 22 57s33.667 22 57 22s42.166 -7.33301 56.499 -22s21.5 -33.667 21.5 -57c0 -22.667 -7.33301 -41.5 -22 -56.5
s-33.334 -22.5 -56.001 -22.5s-41.5 7.5 -56.5 22.5z" />
    <glyph glyph-name="quotedbl" unicode="&#x22;" horiz-adv-x="346" 
d="M32 474.5c-2.66699 2.33301 -4.00098 5.16699 -4.00098 8.5l-13 203c0 8 3.66699 12 11 12h110c8.66699 0 12.334 -4 11.001 -12l-13 -203c0 -4 -1.16699 -7 -3.5 -9s-5.5 -3 -9.5 -3h-80c-3.33301 0 -6.33301 1.16699 -9 3.5zM214.999 474.501
c-2.66699 2.33301 -4.00098 5.16699 -4.00098 8.5l-13 203c0 8 3.66699 12 11 12h110c8.66699 0 12.334 -4 11.001 -12l-13 -203c0 -4 -1.16699 -7 -3.5 -9s-5.5 -3 -9.5 -3h-80c-3.33301 0 -6.33301 1.16699 -9 3.5z" />
    <glyph glyph-name="numbersign" unicode="#" horiz-adv-x="616" 
d="M578.5 407.5c-2.33301 -2.33301 -5.16602 -3.5 -8.49902 -3.5h-61c-4 0 -6 -1.66699 -6 -5l-14 -99c0 -3.33301 1.33301 -5 4 -5h42c3.33301 0 6.16602 -1.16699 8.49902 -3.5s3.5 -5.16602 3.5 -8.49902v-96c0 -3.33301 -1.16699 -6.16602 -3.5 -8.49902
s-5.16602 -3.5 -8.49902 -3.5h-60c-4 0 -6 -1.66699 -6 -5l-19 -132c-0.666992 -7.33301 -5 -11 -13 -11h-117c-8 0 -11.667 4.33301 -11 13l19 130c0 3.33301 -1.33301 5 -4 5h-83c-4 0 -6 -1.66699 -6 -5l-19 -132c-0.666992 -7.33301 -5 -11 -13 -11h-117
c-8 0 -11.667 4.33301 -11 13l19 130c0 3.33301 -1.33301 5 -4 5h-44c-3.33301 0 -6.16602 1.16699 -8.49902 3.5s-3.5 5.16602 -3.5 8.49902v96c0 3.33301 1.16699 6.16602 3.5 8.49902s5.16602 3.5 8.49902 3.5h62c4 0 6 1.66699 6 5l14 99c0 3.33301 -1.33301 5 -4 5h-43
c-3.33301 0 -6.16602 1.16699 -8.49902 3.5s-3.5 5.16602 -3.5 8.49902v97c0 3.33301 1.16699 6.16602 3.5 8.49902s5.16602 3.5 8.49902 3.5h61c4 0 6 1.66699 6 5l19 132c0.666992 7.33301 5 11 13 11h117c8 0 11.667 -4.33301 11 -13l-19 -130
c0 -3.33301 1.33301 -5 4 -5h83c4 0 6 1.66699 6 5l19 132c0.666992 7.33301 5 11 13 11h117c8 0 11.667 -4.33301 11 -13l-19 -130c0 -3.33301 1.33301 -5 4 -5h43c3.33301 0 6.16602 -1.16699 8.49902 -3.5s3.5 -5.16602 3.5 -8.49902v-97
c0 -3.33301 -1.16699 -6.16602 -3.5 -8.49902zM348 300l14 99c0 3.33301 -1.33301 5 -4 5h-83c-4 0 -6 -1.66699 -6 -5l-14 -99c0 -3.33301 1.33301 -5 4 -5h83c4 0 6 1.66699 6 5z" />
    <glyph glyph-name="dollar" unicode="$" horiz-adv-x="444" 
d="M381 61.5c-26 -33 -60.668 -54.168 -104.001 -63.501c-3.33301 -1.33301 -5 -3.33301 -5 -6l1 -56c0 -3.33301 -1.16699 -6.16602 -3.5 -8.49902s-5.16602 -3.5 -8.49902 -3.5h-81c-3.33301 0 -6.16602 1.16699 -8.49902 3.5s-3.5 5.16602 -3.5 8.49902l1 58
c0 2.66699 -1.33301 4.33398 -4 5.00098c-41.333 10.667 -74.166 31.667 -98.499 63s-36.5 69 -36.5 113v29c0 3.33301 1.16699 6.16602 3.5 8.49902s5.16602 3.5 8.49902 3.5h115c3.33301 0 6.16602 -1.16699 8.49902 -3.5s3.5 -5.16602 3.5 -8.49902v-22
c0 -20.667 5.33301 -37.334 16 -50.001s24 -19 40 -19s29.333 6 40 18s16 27.667 16 47c0 20 -6.66699 37.167 -20 51.5s-39.333 35.5 -78 63.5c-33.333 24 -60.333 45.333 -81 64s-38.334 41.667 -53.001 69s-22 59 -22 95c0 46.667 12.333 86 37 118s58.334 53 101.001 63
c2.66699 0.666992 4 2.66699 4 6l-1 65c0 3.33301 1.16699 6.16602 3.5 8.49902s5.16602 3.5 8.49902 3.5h80c3.33301 0 6.16602 -1.16699 8.49902 -3.5s3.5 -5.16602 3.5 -8.49902l-1 -65c0 -3.33301 1.33301 -5.33301 4 -6c43.333 -10 77.5 -31.667 102.5 -65
s37.5 -73.666 37.5 -120.999v-24c0 -3.33301 -1.16699 -6.16602 -3.5 -8.49902s-5.16602 -3.5 -8.49902 -3.5h-115c-3.33301 0 -6.16602 1.16699 -8.49902 3.5s-3.5 5.16602 -3.5 8.49902v27c0 20.667 -5.16699 37.167 -15.5 49.5s-23.833 18.5 -40.5 18.5
c-16 0 -29 -5.83301 -39 -17.5s-15 -27.834 -15 -48.501c0 -20 6.33301 -37.667 19 -53s37.667 -36.666 75 -63.999c41.333 -30.667 72.5 -55.5 93.5 -74.5s37.333 -40 49 -63s17.5 -50.5 17.5 -82.5c0 -48.667 -13 -89.5 -39 -122.5z" />
    <glyph glyph-name="percent" unicode="%" horiz-adv-x="766" 
d="M122 414c-24 14 -43 33.167 -57 57.5s-21 50.833 -21 79.5s7 55 21 79s33 43.167 57 57.5s50 21.5 78 21.5s53.833 -7.16699 77.5 -21.5s42.334 -33.5 56.001 -57.5s20.5 -50.333 20.5 -79s-6.83301 -55.167 -20.5 -79.5s-32.334 -43.5 -56.001 -57.5
s-49.5 -21 -77.5 -21s-54 7 -78 21zM149 4c-1.33301 2.66699 -1 6 1 10l364 678c2.66699 5.33301 7.66699 8 15 8h75c4.66699 0 7.66699 -1.33301 9 -4s1 -6 -1 -10l-364 -678c-2.66699 -5.33301 -7.66699 -8 -15 -8h-75c-4.66699 -0 -7.66699 1.33301 -9 4zM256.5 491
c15 16.667 22.5 36.667 22.5 60s-7.66699 43.166 -23 59.499s-34 24.5 -56 24.5c-22.667 0 -41.834 -8.16699 -57.501 -24.5s-23.5 -36.166 -23.5 -59.499c0 -24 7.83301 -44.167 23.5 -60.5s34.834 -24.5 57.501 -24.5s41.5 8.33301 56.5 25zM489.5 12.5
c-23.667 14.333 -42.5 33.666 -56.5 57.999s-21 50.833 -21 79.5s7 55 21 79s32.833 43 56.5 57s49.5 21 77.5 21s53.833 -7 77.5 -21s42.5 -33 56.5 -57s21 -50.333 21 -79s-7 -55.167 -21 -79.5s-32.833 -43.666 -56.5 -57.999s-49.5 -21.5 -77.5 -21.5
s-53.833 7.16699 -77.5 21.5zM624 90c15.333 16.667 23 36.667 23 60s-7.83301 43.166 -23.5 59.499s-34.5 24.5 -56.5 24.5c-22.667 0 -41.667 -8.16699 -57 -24.5s-23 -36.166 -23 -59.499c0 -24 7.66699 -44.167 23 -60.5s34.333 -24.5 57 -24.5s41.667 8.33301 57 25z
" />
    <glyph glyph-name="ampersand" unicode="&#x26;" horiz-adv-x="603" 
d="M570 7c0 -4.66699 -3.33301 -6.99902 -10 -6.99902h-127c-6 0 -11 2.33301 -15 7l-24 31c-2 2 -4.33301 2.33301 -7 1c-48.667 -32 -103.667 -48 -165 -48c-60.667 0 -108.334 15 -143.001 45s-52 74 -52 132c0 43.333 9.5 80 28.5 110s45.167 57.667 78.5 83
c2.66699 2 3 4.33301 1 7c-30.667 41.333 -50.5 72.166 -59.5 92.499s-13.5 42.833 -13.5 67.5c0 54.667 16.833 98.334 50.5 131.001s78.167 49 133.5 49c36.667 0 69.667 -7.66699 99 -23s52.333 -36.833 69 -64.5s25 -59.5 25 -95.5
c0 -41.333 -10.333 -76.833 -31 -106.5s-49 -57.167 -85 -82.5c-3.33301 -2 -3.66602 -4.33301 -0.999023 -7l27 -35l31 -41l16 -20c2.66699 -2.66699 5 -2.66699 7 0c14.667 19.333 30 44 46 74c3.33301 7.33301 8.66602 9 15.999 5l87 -49
c6.66699 -4 8.33398 -9.66699 5.00098 -17c-24 -44.667 -48.667 -83.667 -74 -117c-2 -2 -2 -4.33301 0 -7l84 -107c2 -2.66699 3 -5.33398 3 -8.00098zM215.5 564.501c-8.33301 -10.333 -12.5 -24.167 -12.5 -41.5c0 -12 2 -23.167 6 -33.5s14 -26.833 30 -49.5
c2 -2 4.33301 -2.33301 7 -1c34.667 26.667 52 55 52 85c0 16.667 -4.5 30.167 -13.5 40.5s-20.5 15.5 -34.5 15.5c-14.667 0 -26.167 -5.16699 -34.5 -15.5zM309 137c2.66699 2.66699 3 5 1 7l-28 36l-62 77c-2 2.66699 -4.33301 3 -7 1c-29.333 -26 -44 -52.333 -44 -79
c0 -19.333 5.83301 -35.5 17.5 -48.5s28.5 -19.5 50.5 -19.5c20 0 44 8.66699 72 26z" />
    <glyph glyph-name="quotesingle" unicode="'" horiz-adv-x="170" 
d="M31 476.5c-2.66699 2.33301 -4.00195 5.16602 -4.00195 8.49902l-12 202c0 8 3.66699 12 11 12h118c8.66699 0 12.334 -4 11.001 -12l-14 -202c-0.666992 -3.33301 -2.16699 -6.16602 -4.5 -8.49902s-5.16602 -3.5 -8.49902 -3.5h-88c-3.33301 0 -6.33301 1.16699 -9 3.5
z" />
    <glyph glyph-name="parenleft" unicode="(" horiz-adv-x="311" 
d="M112 -83c-33.333 51.333 -60.167 111.666 -80.5 180.999s-30.5 147.333 -30.5 234c0 87.333 10.167 166.333 30.5 237s47.166 131.334 80.499 182.001c2.66699 5.33301 7.33398 8 14.001 8h115c4.66699 0 7.83398 -1.33301 9.50098 -4s1.5 -6 -0.5 -10
c-60.667 -132.667 -91 -270 -91 -412s30.333 -278.667 91 -410c1.33301 -2.66699 2 -4.66699 2 -6c0 -5.33301 -3.66699 -8 -11 -8h-115c-6.66699 0 -11.334 2.66699 -14.001 8z" />
    <glyph glyph-name="parenright" unicode=")" horiz-adv-x="311" 
d="M199 751c33.333 -51.333 60.167 -111.829 80.5 -181.496s30.5 -147.834 30.5 -234.501s-10.167 -165.334 -30.5 -236.001s-47.166 -131.334 -80.499 -182.001c-2.66699 -5.33301 -7.33398 -8 -14.001 -8h-115c-4.66699 0 -7.83398 1.33301 -9.50098 4s-1.5 6 0.5 10
c60.667 131.333 91 268.666 91 411.999c0 81.333 -8.5 155.5 -25.5 222.5s-38.833 129.5 -65.5 187.5c-1.33301 2.66699 -2 4.66699 -2 6c0 5.33301 3.66699 8 11 8h115c6.66699 0 11.334 -2.66699 14.001 -8z" />
    <glyph glyph-name="asterisk" unicode="*" horiz-adv-x="361" 
d="M144.5 399.5c-2.33301 2.33301 -3.50195 5.16504 -3.50195 8.49805l1 83c0 2 -0.666992 3.33301 -2 4s-2.66602 0.333984 -3.99902 -0.999023l-72 -42c-2.66699 -1.33301 -4.66699 -2 -6 -2c-3.33301 0 -6.66602 2.33301 -9.99902 7l-28 50
c-1.33301 2.66699 -2 4.66699 -2 6c0 4 2 7.33301 6 10l77 44c1.33301 1.33301 2 2.66602 2 3.99902s-0.666992 2.33301 -2 3l-77 43c-6.66699 4.66699 -8 10 -4 16l28 53c2 3.33301 4.5 5.5 7.5 6.5s6.16699 0.5 9.5 -1.5l71 -44
c1.33301 -1.33301 2.66602 -1.66602 3.99902 -0.999023s2 2 2 4l-1 84c0 3.33301 1.16699 6.16602 3.5 8.49902s5.16602 3.5 8.49902 3.5h56c3.33301 0 6.16602 -1.16699 8.49902 -3.5s3.5 -5.16602 3.5 -8.49902l-1 -84c0 -2 0.666992 -3.33301 2 -4
s2.66602 -0.333984 3.99902 0.999023l71 44c2.66699 1.33301 4.66699 2 6 2c4.66699 0 8.33398 -2.33301 11.001 -7l28 -53c1.33301 -2.66699 2 -4.66699 2 -6c0 -3.33301 -2 -6.66602 -6 -9.99902l-76 -43c-1.33301 -0.666992 -2 -1.66699 -2 -3
s0.666992 -2.66602 2 -3.99902l76 -44c6 -4 7.33301 -9.33301 4 -16l-28 -53c-2 -3.33301 -4.5 -5.33301 -7.5 -6s-6.16699 0 -9.5 2l-71 44c-1.33301 1.33301 -2.66602 1.66602 -3.99902 0.999023s-2 -2 -2 -4l1 -83c0 -3.33301 -1.16699 -6.16602 -3.5 -8.49902
s-5.16602 -3.5 -8.49902 -3.5h-56c-3.33301 0 -6.16602 1.16699 -8.49902 3.5z" />
    <glyph glyph-name="plus" unicode="+" horiz-adv-x="438" 
d="M411.5 360.5c2.33301 -2.33301 3.5 -5.16602 3.5 -8.49902v-82c0 -3.33301 -1.16699 -6.16602 -3.5 -8.49902s-5.16602 -3.5 -8.49902 -3.5h-126c-3.33301 0 -5 -1.66699 -5 -5v-125c0 -3.33301 -1.16699 -6.16602 -3.5 -8.49902s-5.16602 -3.5 -8.49902 -3.5h-82
c-3.33301 0 -6.16602 1.16699 -8.49902 3.5s-3.5 5.16602 -3.5 8.49902v125c0 3.33301 -1.66699 5 -5 5h-125c-3.33301 0 -6.16602 1.16699 -8.49902 3.5s-3.5 5.16602 -3.5 8.49902v82c0 3.33301 1.16699 6.16602 3.5 8.49902s5.16602 3.5 8.49902 3.5h125
c3.33301 0 5 1.66699 5 5v126c0 3.33301 1.16699 6.16602 3.5 8.49902s5.16602 3.5 8.49902 3.5h82c3.33301 0 6.16602 -1.16699 8.49902 -3.5s3.5 -5.16602 3.5 -8.49902v-126c0 -3.33301 1.66699 -5 5 -5h126c3.33301 0 6.16602 -1.16699 8.49902 -3.5z" />
    <glyph glyph-name="comma" unicode="," horiz-adv-x="211" 
d="M32.5 -94.5c-2.33301 2.33301 -3.16699 5.5 -2.5 9.5l22 232c1.33301 7.33301 5.33301 11 12 11h102c9.33301 0 13 -4.33301 11 -13l-53 -232c-2 -7.33301 -6.33301 -11 -13 -11h-69c-4 0 -7.16699 1.16699 -9.5 3.5z" />
    <glyph glyph-name="hyphen" unicode="-" horiz-adv-x="331" 
d="M27.5 238.5c-2.33301 2.33301 -3.5 5.16602 -3.5 8.49902v97c0 3.33301 1.16699 6.16602 3.5 8.49902s5.16602 3.5 8.49902 3.5h259c3.33301 0 6.16602 -1.16699 8.49902 -3.5s3.5 -5.16602 3.5 -8.49902v-97c0 -3.33301 -1.16699 -6.16602 -3.5 -8.49902
s-5.16602 -3.5 -8.49902 -3.5h-259c-3.33301 0 -6.16602 1.16699 -8.49902 3.5z" />
    <glyph glyph-name="period" unicode="." horiz-adv-x="223" 
d="M55.5 18.5c-15 15 -22.5 33.833 -22.5 56.5c0 23.333 7.33301 42.333 22 57s33.667 22 57 22s42.333 -7.33301 57 -22s22 -33.667 22 -57c0 -22.667 -7.5 -41.5 -22.5 -56.5s-33.833 -22.5 -56.5 -22.5s-41.5 7.5 -56.5 22.5z" />
    <glyph glyph-name="slash" unicode="/" horiz-adv-x="415" 
d="M19 3.5c-2 2.33301 -2.33301 5.83301 -1 10.5l219 676c2 6.66699 6.33301 10 13 10h117c4 0 7 -1.16699 9 -3.5s2.33301 -5.83301 1 -10.5l-219 -676c-2 -6.66699 -6.33301 -10 -13 -10h-117c-4 0 -7 1.16699 -9 3.5z" />
    <glyph glyph-name="zero" unicode="0" horiz-adv-x="453" 
d="M84 44.5c-36 37 -54 85.835 -54 146.502v318c0 60.667 18 109.5 54 146.5s83.333 55.5 142 55.5c38.667 0 73 -8.33301 103 -25s53.167 -40.334 69.5 -71.001s24.5 -66 24.5 -106v-318c0 -40 -8.16699 -75.333 -24.5 -106s-39.5 -54.334 -69.5 -71.001
s-64.333 -25 -103 -25c-58.667 0 -106 18.5 -142 55.5zM266.5 130.002c10.333 13.333 15.5 31 15.5 53v334c0 22 -5.16699 39.667 -15.5 53s-23.833 20 -40.5 20s-30 -6.66699 -40 -20s-15 -31 -15 -53v-334c0 -22 5 -39.667 15 -53s23.333 -20 40 -20
s30.167 6.66699 40.5 20z" />
    <glyph glyph-name="one" unicode="1" horiz-adv-x="284" 
d="M115 700l120.999 -0.00195312c3.33301 0 6.16602 -1.16699 8.49902 -3.5s3.5 -5.16602 3.5 -8.49902v-676c0 -3.33301 -1.16699 -6.16602 -3.5 -8.49902s-5.16602 -3.5 -8.49902 -3.5h-117c-3.33301 0 -6.16602 1.16699 -8.49902 3.5s-3.5 5.16602 -3.5 8.49902v546
c0 2.66699 -1.66699 4 -5 4l-77 -9h-2c-7.33301 0 -11 3.66699 -11 11l-3 86c0 6.66699 3 11.334 9 14.001l82 33c5.33301 2 10.333 3 15 3z" />
    <glyph glyph-name="two" unicode="2" horiz-adv-x="438" 
d="M196 123c0.666992 -1.33301 1.99023 -2.00195 3.99023 -2.00195h209c3.33301 0 6.16602 -1.16699 8.49902 -3.5s3.5 -5.16602 3.5 -8.49902v-97c0 -3.33301 -1.16699 -6.16602 -3.5 -8.49902s-5.16602 -3.5 -8.49902 -3.5h-370c-3.33301 0 -6.16602 1.16699 -8.49902 3.5
s-3.5 5.16602 -3.5 8.49902v101c0 6 1.66699 11 5 15c26.667 35.333 45.334 59.333 56.001 72c58.667 75.333 100.334 132.333 125.001 171c36 57.333 54 105.666 54 144.999c0 22.667 -4.5 40.167 -13.5 52.5s-21.167 18.5 -36.5 18.5s-27.666 -6.16699 -36.999 -18.5
s-13.666 -28.166 -12.999 -47.499v-41c0 -3.33301 -1.16699 -6.16602 -3.5 -8.49902s-5.16602 -3.5 -8.49902 -3.5h-119c-3.33301 0 -6.16602 1.16699 -8.49902 3.5s-3.5 5.16602 -3.5 8.49902v47c2.66699 54.667 22.334 98.5 59.001 131.5s83.334 49.5 140.001 49.5
c56 0 101.167 -17.667 135.5 -53s51.5 -82 51.5 -140c0 -34.667 -5.5 -67.667 -16.5 -99s-28.833 -65 -53.5 -101c-18.667 -27.333 -50.667 -70 -96 -128l-47 -60c-1.33301 -1.33301 -1.66602 -2.66602 -0.999023 -3.99902z" />
    <glyph glyph-name="three" unicode="3" horiz-adv-x="436" 
d="M404 222c0 -29.333 -1.33008 -54.333 -3.99707 -75c-5.33301 -48 -23.833 -85.833 -55.5 -113.5s-74.167 -41.5 -127.5 -41.5c-55.333 0 -100.333 14.667 -135 44s-53.334 68.333 -56.001 117c-2 18 -3 37.333 -3 58c0 8 4 12 12 12h117c8 0 12 -4 12 -12
c0 -15.333 1 -29.666 3 -42.999c2 -17.333 7.33301 -30.833 16 -40.5s20 -14.5 34 -14.5c13.333 0 24.333 4.66699 33 14s14.334 22 17.001 38c2 23.333 3 47.333 3 72c0 31.333 -1.66699 56 -5 74c-2.66699 15.333 -8.16699 27.166 -16.5 35.499s-18.833 12.5 -31.5 12.5
c-10 0 -20 -4.33301 -30 -13c-4 -2.66699 -6.66699 -4 -8 -4c-2.66699 0 -5.66699 1.66699 -9 5l-60 61c-2.66699 2.66699 -4 5.66699 -4 9c0 2.66699 1 5.33398 3 8.00098l121 149c1.33301 1.33301 1.66602 2.66602 0.999023 3.99902s-2 2 -4 2h-180
c-3.33301 0 -6.16602 1.16699 -8.49902 3.5s-3.5 5.16602 -3.5 8.49902v96c0 3.33301 1.16699 6.16602 3.5 8.49902s5.16602 3.5 8.49902 3.5h344c3.33301 0 6.16602 -1.16699 8.49902 -3.5s3.5 -5.16602 3.5 -8.49902v-100c0 -5.33301 -1.66699 -10.333 -5 -15l-112 -141
c-0.666992 -1.33301 -1 -2.66602 -1 -3.99902s0.666992 -2 2 -2c29.333 -2.66699 54.166 -16 74.499 -40s32.833 -54 37.5 -90c3.33301 -25.333 5 -50 5 -74z" />
    <glyph glyph-name="four" unicode="4" horiz-adv-x="484" 
d="M466.5 300.5c2.33301 -2.33301 3.5 -5.16699 3.5 -8.5v-103c0 -3.33301 -1.16699 -6.16602 -3.5 -8.49902s-5.16602 -3.5 -8.49902 -3.5h-31c-3.33301 0 -5 -1.66699 -5 -5v-160c0 -3.33301 -1.16699 -6.16602 -3.5 -8.49902s-5.16602 -3.5 -8.49902 -3.5h-117
c-3.33301 0 -6.16602 1.16699 -8.49902 3.5s-3.5 5.16602 -3.5 8.49902v160c0 3.33301 -1.66699 5 -5 5h-250c-3.33301 0 -6.16602 1.16699 -8.49902 3.5s-3.5 5.16602 -3.5 8.49902v82c0 6 0.666992 11 2 15l133 404c2 6.66699 6.33301 10 13 10h127c4 0 7 -1.16699 9 -3.5
s2.33301 -5.83301 1 -10.5l-120 -376c-0.666992 -4 0.666016 -6 3.99902 -6h93c3.33301 0 5 1.66699 5 5v104c0 3.33301 1.16699 6.16602 3.5 8.49902s5.16602 3.5 8.49902 3.5h117c3.33301 0 6.16602 -1.16699 8.49902 -3.5s3.5 -5.16602 3.5 -8.49902v-104
c0 -3.33301 1.66699 -5 5 -5h31c3.33301 0 6.16602 -1.16699 8.49902 -3.5z" />
    <glyph glyph-name="five" unicode="5" horiz-adv-x="439" 
d="M416 218c0 -22 -0.996094 -43 -2.99609 -63c-2.66699 -51.333 -20.834 -91.333 -54.501 -120s-78.834 -43 -135.501 -43c-53.333 0 -96.333 13.333 -129 40s-52.334 66.334 -59.001 119.001l-3 28c0 8 4 12 12 12h117c8 0 12.333 -4 13 -12c0 -4 0.666992 -9.33301 2 -16
c6 -33.333 21.667 -50 47 -50c13.333 0 24.166 4.5 32.499 13.5s13.833 21.5 16.5 37.5c2 17.333 3 35.666 3 54.999c0 14 -1.33301 31 -4 51c-2.66699 15.333 -8.16699 27 -16.5 35s-18.833 12 -31.5 12c-25.333 0 -41.666 -11.667 -48.999 -35
c-2 -7.33301 -6.33301 -11 -13 -11h-118c-3.33301 0 -6.16602 1.16699 -8.49902 3.5s-3.5 5.16602 -3.5 8.49902v405c0 3.33301 1.16699 6.16602 3.5 8.49902s5.16602 3.5 8.49902 3.5h353c3.33301 0 6.16602 -1.16699 8.49902 -3.5s3.5 -5.16602 3.5 -8.49902v-97
c0 -3.33301 -1.16699 -6.16602 -3.5 -8.49902s-5.16602 -3.5 -8.49902 -3.5h-219c-3.33301 0 -5 -1.66699 -5 -5v-168c0 -2 0.666992 -3.33301 2 -4s2.66602 0 3.99902 2c11.333 11.333 24.666 20 39.999 26s31.666 9 48.999 9c42.667 0 76.834 -14 102.501 -42
s39.834 -67 42.501 -117c2.66699 -25.333 4 -46 4 -62z" />
    <glyph glyph-name="six" unicode="6" horiz-adv-x="440" 
d="M417 218c0 -14.667 -0.667969 -34.667 -2.00098 -60c-2 -52.667 -20 -93.5 -54 -122.5s-79.333 -43.5 -136 -43.5c-53.333 0 -96.5 13.333 -129.5 40s-52.5 66.334 -58.5 119.001c-2.66699 14 -4 32.333 -4 55l-2 323c0 54.667 17.5 98.167 52.5 130.5
s81.5 48.5 139.5 48.5c54 0 98.167 -16.333 132.5 -49s51.5 -76 51.5 -130v-30c0 -3.33301 -1.16699 -6.16602 -3.5 -8.49902s-5.16602 -3.5 -8.49902 -3.5h-117c-3.33301 0 -6.16602 1.16699 -8.49902 3.5s-3.5 5.16602 -3.5 8.49902v22c0 18 -4.33301 33 -13 45
s-18.667 18 -30 18c-14.667 0 -26.667 -5.83301 -36 -17.5s-14 -26.834 -14 -45.501v-101c0 -2 0.666992 -3.16699 2 -3.5s2.66602 0.166992 3.99902 1.5c22 18.667 47 28 75 28c46.667 0 84.167 -15.333 112.5 -46s43.833 -71.667 46.5 -123c2.66699 -16 4 -35.667 4 -59z
M273.999 228c0 18 -1.33203 38.666 -3.99902 61.999c-2 15.333 -7 27.333 -15 36s-18.333 13 -31 13c-13.333 0 -24.166 -4.5 -32.499 -13.5s-13.5 -21.5 -15.5 -37.5c-2 -26 -3 -46 -3 -60c0 -16 1 -36.667 3 -62c2 -17.333 7.16699 -30.666 15.5 -39.999
s19.166 -14 32.499 -14s24.166 5 32.499 15s13.5 24 15.5 42c1.33301 32 2 51.667 2 59z" />
    <glyph glyph-name="seven" unicode="7" horiz-adv-x="407" 
d="M84 4c-2 2.66699 -2.33301 6.00098 -1 10.001l163 559c1.33301 4 0 6 -4 6h-110c-3.33301 0 -5 -1.66699 -5 -5v-35c0 -3.33301 -1.16699 -6.16602 -3.5 -8.49902s-5.16602 -3.5 -8.49902 -3.5h-90c-3.33301 0 -6.16602 1.16699 -8.49902 3.5s-3.5 5.16602 -3.5 8.49902
l1 149c0 3.33301 1.16699 6.16602 3.5 8.49902s5.16602 3.5 8.49902 3.5h359c3.33301 0 6.16602 -1.16699 8.49902 -3.5s3.5 -5.16602 3.5 -8.49902v-102c0 -2.66699 -0.666992 -7.33398 -2 -14.001l-165 -562c-2 -6.66699 -6.33301 -10 -13 -10h-124c-4 -0 -7 1.33301 -9 4
z" />
    <glyph glyph-name="eight" unicode="8" horiz-adv-x="440" 
d="M341 362c22 -14 38.3369 -33.6631 49.0039 -58.9961c13.333 -28.667 20 -62.334 20 -101.001c0 -30.667 -5.33301 -61.334 -16 -92.001c-14 -36.667 -36.333 -65.5 -67 -86.5s-66.334 -31.5 -107.001 -31.5s-76.334 10.333 -107.001 31s-53 49.667 -67 87
c-10.667 27.333 -16 58 -16 92c0 37.333 6 70 18 98c9.33301 25.333 26.333 45.666 51 60.999c4 2 4 4 0 6c-23.333 16 -40 36 -50 60c-12.667 29.333 -19 60.333 -19 93c0 36 6.33301 67 19 93c14 31.333 36.167 55.833 66.5 73.5s65.166 26.5 104.499 26.5
c38.667 0 73 -8.5 103 -25.5s52.333 -41.5 67 -73.5c13.333 -28 20 -59.333 20 -94c0 -32.667 -6.33301 -63.334 -19 -92.001c-10 -24 -27 -43.667 -51 -59c-2.66699 -2.66699 -2.33398 -5 0.999023 -7zM169.004 507.004c0 -15.333 2.33301 -30.667 7 -46
c2.66699 -13.333 7.83398 -24 15.501 -32s17.167 -12 28.5 -12s21 4.16699 29 12.5s13.333 19.166 16 32.499c4 13.333 6 28 6 44c0 17.333 -2.33301 32 -7 44c-3.33301 12.667 -8.83301 22.834 -16.5 30.501s-16.834 11.5 -27.501 11.5
c-11.333 0 -20.833 -3.83301 -28.5 -11.5s-13.167 -18.5 -16.5 -32.5c-4 -12 -6 -25.667 -6 -41zM271.004 211.003c0 20 -2 37.332 -6 51.999c-3.33301 14.667 -8.83301 26.167 -16.5 34.5s-17.167 12.5 -28.5 12.5c-12 0 -22 -4.33301 -30 -13s-13.333 -20.667 -16 -36
c-3.33301 -15.333 -5 -31.333 -5 -48c0 -18.667 1.33301 -34.667 4 -48c2.66699 -16 8 -28.667 16 -38s18.333 -14 31 -14s23.167 4.83301 31.5 14.5s13.5 22.834 15.5 39.501c2.66699 17.333 4 32 4 44z" />
    <glyph glyph-name="nine" unicode="9" horiz-adv-x="435" 
d="M351.5 40.5c-35 -32.333 -81.5 -48.501 -139.5 -48.501c-54.667 0 -99 16.167 -133 48.5s-51 75.833 -51 130.5v30c0 3.33301 1.16699 6.16602 3.5 8.49902s5.16602 3.5 8.49902 3.5h117c3.33301 0 6.16602 -1.16699 8.49902 -3.5s3.5 -5.16602 3.5 -8.49902v-22
c0 -18 4.16699 -33 12.5 -45s18.5 -18 30.5 -18c14.667 0 26.5 5.83301 35.5 17.5s13.5 26.834 13.5 45.501v100c0 2 -0.666992 3.16699 -2 3.5s-2.66602 -0.166992 -3.99902 -1.5c-21.333 -18 -46 -27 -74 -27c-46.667 0 -84.167 15.333 -112.5 46
s-44.166 71.667 -47.499 123c-2 18 -3 37.667 -3 59c0 14.667 0.666992 34.667 2 60c2 52.667 20 93.5 54 122.5s79.333 43.5 136 43.5c53.333 0 96.5 -13.333 129.5 -40s52.5 -66.334 58.5 -119.001c2.66699 -21.333 4 -39.666 4 -54.999l1 -323
c0.666992 -54.667 -16.5 -98.167 -51.5 -130.5zM261 471.999c0 24.667 -0.668945 45.334 -2.00195 62.001c-2 17.333 -7.16699 30.666 -15.5 39.999s-19.166 14 -32.499 14s-24.166 -5 -32.499 -15s-13.5 -24 -15.5 -42c-1.33301 -16 -2 -35.667 -2 -59
c0 -15.333 1 -36 3 -62c2.66699 -15.333 8 -27.333 16 -36s18.333 -13 31 -13s23.167 4.5 31.5 13.5s13.833 21.5 16.5 37.5c1.33301 17.333 2 37.333 2 60z" />
    <glyph glyph-name="colon" unicode=":" horiz-adv-x="275" 
d="M82.5 351.5c-15 15 -22.5 33.833 -22.5 56.5c0 23.333 7.33301 42.333 22 57s33.667 22 57 22s42.333 -7.33301 57 -22s22 -33.667 22 -57c0 -22.667 -7.5 -41.5 -22.5 -56.5s-33.833 -22.5 -56.5 -22.5s-41.5 7.5 -56.5 22.5zM82.5 23.5c-15 15 -22.5 33.833 -22.5 56.5
c0 23.333 7.33301 42.333 22 57s33.667 22 57 22s42.333 -7.33301 57 -22s22 -33.667 22 -57c0 -22.667 -7.5 -41.5 -22.5 -56.5s-33.833 -22.5 -56.5 -22.5s-41.5 7.5 -56.5 22.5z" />
    <glyph glyph-name="semicolon" unicode=";" horiz-adv-x="232" 
d="M55 338c-16 16.667 -24 37.334 -24 62.001c0 23.333 8.66699 43.5 26 60.5s37 25.5 59 25.5s41.667 -8.5 59 -25.5s26 -37.167 26 -60.5c0 -24.667 -8 -45.334 -24 -62.001s-36.333 -25 -61 -25s-45 8.33301 -61 25zM38 -85l17 229.001
c0.666992 3.33301 2.16699 6.16602 4.5 8.49902s5.16602 3.5 8.49902 3.5h102c8.66699 0 12 -4.33301 10 -13l-48 -229c-1.33301 -7.33301 -5.66602 -11 -12.999 -11h-70c-8 0 -11.667 4 -11 12z" />
    <glyph glyph-name="less" unicode="&#x3c;" horiz-adv-x="438" 
d="M411 54c-2.66699 -2 -6 -2 -10 0l-368 170c-6 3.33301 -9 8 -9 14v101c0 6.66699 3 11.334 9 14.001l368 170c1.33301 0.666992 3 1 5 1c6 0 9 -3.66699 9 -11v-109c0 -6 -3 -10.667 -9 -14l-240 -98c-4 -2 -4 -4 0 -6l240 -99c6 -2.66699 9 -7.33398 9 -14.001v-109
c0 -4.66699 -1.33301 -8 -4 -10z" />
    <glyph glyph-name="equal" unicode="=" horiz-adv-x="438" 
d="M27.5 357.5c-2.33301 2.33301 -3.5 5.16602 -3.5 8.49902v82c0 3.33301 1.16699 6.16602 3.5 8.49902s5.16602 3.5 8.49902 3.5h367c3.33301 0 6.16602 -1.16699 8.49902 -3.5s3.5 -5.16602 3.5 -8.49902v-82c0 -3.33301 -1.16699 -6.16602 -3.5 -8.49902
s-5.16602 -3.5 -8.49902 -3.5h-367c-3.33301 0 -6.16602 1.16699 -8.49902 3.5zM27.5 173.5c-2.33301 2.33301 -3.5 5.16602 -3.5 8.49902v82c0 3.33301 1.16699 6.16602 3.5 8.49902s5.16602 3.5 8.49902 3.5h367c3.33301 0 6.16602 -1.16699 8.49902 -3.5
s3.5 -5.16602 3.5 -8.49902v-82c0 -3.33301 -1.16699 -6.16602 -3.5 -8.49902s-5.16602 -3.5 -8.49902 -3.5h-367c-3.33301 0 -6.16602 1.16699 -8.49902 3.5z" />
    <glyph glyph-name="greater" unicode="&#x3e;" horiz-adv-x="438" 
d="M33 53c-6 0 -9 3.66699 -9 11v109c0 6.66699 3 11.334 9 14.001l240 99c4 2 4 4 0 6l-240 98c-6 3.33301 -9 8 -9 14v109c0 4.66699 1.33301 8 4 10s6 2 10 0l368 -170c6 -2.66699 9 -7.33398 9 -14.001v-101c0 -6 -3 -10.667 -9 -14l-368 -170
c-1.33301 -0.666992 -3 -1 -5 -1z" />
    <glyph glyph-name="question" unicode="?" horiz-adv-x="437" 
d="M138.5 225.5c-2.33301 2.33301 -3.50098 5.16895 -3.50098 8.50195v32c0 33.333 6.83301 60.166 20.5 80.499s33.5 41.833 59.5 64.5c21.333 18.667 37 34.834 47 48.501s15 30.5 15 50.5c0 21.333 -5.16699 38.5 -15.5 51.5s-23.833 19.5 -40.5 19.5
c-19.333 0 -34.666 -6.83301 -45.999 -20.5s-17 -31.834 -17 -54.501v-16c0 -7.33301 -4 -11 -12 -11l-117 5c-3.33301 0 -6.16602 1.16699 -8.49902 3.5s-3.5 5.16602 -3.5 8.49902v10c0 40 8.66699 75.5 26 106.5s41.666 55 72.999 72s67.333 25.5 108 25.5
c59.333 0 106.666 -17.833 141.999 -53.5s53 -82.834 53 -141.501c0 -29.333 -4.16699 -54.5 -12.5 -75.5s-18.333 -38.167 -30 -51.5s-26.834 -28 -45.501 -44c-19.333 -16.667 -33.5 -31 -42.5 -43s-13.5 -26.667 -13.5 -44v-23
c0 -3.33301 -1.16699 -6.16602 -3.5 -8.49902s-5.16602 -3.5 -8.49902 -3.5h-116c-3.33301 0 -6.16602 1.16699 -8.49902 3.5zM148.999 20.0029c-14.667 14.667 -22 33.6689 -22 57.002s7.33301 42.166 22 56.499s33.334 21.5 56.001 21.5c23.333 0 42.333 -7.33301 57 -22
s22 -33.334 22 -56.001s-7.33301 -41.5 -22 -56.5s-33.667 -22.5 -57 -22.5c-22.667 0 -41.334 7.33301 -56.001 22z" />
    <glyph glyph-name="at" unicode="@" horiz-adv-x="759" 
d="M582.5 618.5c46.333 -24.333 82.3311 -58.667 107.998 -103s38.5 -95.5 38.5 -153.5c0 -16 -1 -32.667 -3 -50c-8.66699 -66 -30.667 -117.5 -66 -154.5s-79 -55.5 -131 -55.5c-44.667 0 -79 13.667 -103 41c-2.66699 2 -5 1.66699 -7 -1
c-10 -14.667 -22.5 -24.834 -37.5 -30.501s-29.5 -8.5 -43.5 -8.5c-36 0 -63.5 10.667 -82.5 32s-28.5 47 -28.5 77c0 14 1.66699 32 5 54l3 26c2 22.667 4.66699 42.667 8 60c6.66699 40.667 19.5 70.5 38.5 89.5s45.5 28.5 79.5 28.5c8 0 17 -1.66699 27 -5
s18.667 -9 26 -17c4.66699 -3.33301 7 -2.66602 7 2.00098v3c0.666992 7.33301 5 11 13 11h71c8 0 11.667 -4.33301 11 -13l-23 -175c-0.666992 -4.66699 -1 -11 -1 -19c0 -20.667 4.83301 -36.5 14.5 -47.5s21.834 -16.5 36.501 -16.5c22 0 40 11.333 54 34
s23.333 52 28 88c2 14 3 27.333 3 40c0 42.667 -9 80 -27 112s-43.167 56.667 -75.5 74s-69.166 26 -110.499 26c-46.667 0 -90.334 -12.167 -131.001 -36.5s-74.5 -58 -101.5 -101s-43.833 -91.833 -50.5 -146.5c-2 -16 -3 -31 -3 -45
c0 -47.333 9.83301 -87.833 29.5 -121.5s45 -58.834 76 -75.501s63.833 -25 98.5 -25c44.667 0 86.334 13.333 125.001 40c3.33301 2 5.66602 3 6.99902 3c4 0 7 -2 9 -6l33 -55c1.33301 -1.33301 2 -3.66602 2 -6.99902c0 -4 -1.66699 -7.33301 -5 -10
c-55.333 -36.667 -117.666 -55 -186.999 -55c-53.333 0 -101.833 12.333 -145.5 37s-78 60 -103 106s-37.5 99.667 -37.5 161c0 20 1.33301 39 4 57c8.66699 70.667 31.5 134 68.5 190s83.833 99.667 140.5 131s117 47 181 47c58.667 0 111.167 -12.167 157.5 -36.5z
M378.498 191.999c7 7.33301 11.5 17.332 13.5 29.999l8 64c2 22.667 4.66699 43 8 61c1.33301 12 -0.666992 21.833 -6 29.5s-13.333 11.5 -24 11.5s-19.834 -3.83301 -27.501 -11.5s-12.167 -17.5 -13.5 -29.5c-4.66699 -35.333 -7.33398 -56.666 -8.00098 -63.999l-8 -61
c-1.33301 -12.667 0.833984 -22.667 6.50098 -30s13.834 -11 24.501 -11s19.5 3.66699 26.5 11z" />
    <glyph glyph-name="A" unicode="A" horiz-adv-x="482" 
d="M325 11l-15.998 96c0 3.33301 -2 5 -6 5h-127c-4 0 -6 -1.66699 -6 -5l-16 -96c-0.666992 -7.33301 -5 -11 -13 -11h-117c-8.66699 -0 -12 4.33301 -10 13l147 676c1.33301 7.33301 5.66602 11 12.999 11h135c7.33301 0 11.666 -3.66699 12.999 -11l146 -676l1 -4
c0 -6 -3.66699 -9 -11 -9h-120c-8 0 -12.333 3.66699 -13 11zM194.002 221h90.001c3.33301 0 4.66602 1.66699 3.99902 5l-47 273c-0.666992 2 -1.66699 3 -3 3s-2.33301 -1 -3 -3l-45 -273c0 -3.33301 1.33301 -5 4 -5z" />
    <glyph glyph-name="B" unicode="B" horiz-adv-x="470" 
d="M390 50c-37.333 -33.333 -85.668 -49.999 -145.001 -49.999h-189c-3.33301 0 -6.16602 1.16699 -8.49902 3.5s-3.5 5.16602 -3.5 8.49902v676c0 3.33301 1.16699 6.16602 3.5 8.49902s5.16602 3.5 8.49902 3.5h167c66.667 0 118.834 -16 156.501 -48
s56.5 -79.667 56.5 -143c0 -66 -22.667 -114 -68 -144c-2.66699 -2 -3 -4 -1 -6c52.667 -37.333 79 -92.666 79 -165.999c0 -62 -18.667 -109.667 -56 -143zM184.998 574.001l-0.00195312 -157c0 -3.33301 1.66699 -5 5 -5h36c22.667 0 40.334 7.16699 53.001 21.5
s19 34.5 19 60.5c0 27.333 -6.16699 48.333 -18.5 63s-30.166 22 -53.499 22h-36c-3.33301 0 -5 -1.66699 -5 -5zM285.996 146.001c12.667 16 19 38.668 19 68.001s-6.33301 52.666 -19 69.999s-29.667 26 -51 26h-45c-3.33301 0 -5 -1.66699 -5 -5v-178
c0 -3.33301 1.66699 -5 5 -5h44c22 0 39.333 8 52 24z" />
    <glyph glyph-name="C" unicode="C" horiz-adv-x="464" 
d="M88.5 45.5c-36.333 35.667 -54.499 83.499 -54.499 143.499v324c0 59.333 18.167 106.666 54.5 141.999s84.5 53 144.5 53c60.667 0 109.167 -17.667 145.5 -53s54.5 -82.666 54.5 -141.999v-11c0 -3.33301 -1.16699 -6.16602 -3.5 -8.49902s-5.16602 -3.5 -8.49902 -3.5
l-117 -5c-8 0 -12 3.66699 -12 11v26c0 19.333 -5.33301 35 -16 47s-25 18 -43 18c-17.333 0 -31.333 -6 -42 -18s-16 -27.667 -16 -47v-345c0 -19.333 5.33301 -34.833 16 -46.5s24.667 -17.5 42 -17.5c18 0 32.333 5.83301 43 17.5s16 27.167 16 46.5v27
c0 3.33301 1.16699 6.16602 3.5 8.49902s5.16602 3.5 8.49902 3.5l117 -5c3.33301 0 6.16602 -1.16699 8.49902 -3.5s3.5 -5.16602 3.5 -8.49902v-10c0 -60 -18.333 -107.833 -55 -143.5s-85 -53.5 -145 -53.5s-108.167 17.833 -144.5 53.5z" />
    <glyph glyph-name="D" unicode="D" horiz-adv-x="476" 
d="M47.5 3.5c-2.33301 2.33301 -3.5 5.16797 -3.5 8.50098v676c0 3.33301 1.16699 6.16602 3.5 8.49902s5.16602 3.5 8.49902 3.5h181c60.667 0 109.334 -17.667 146.001 -53s55 -82.333 55 -141v-312c0 -58.667 -18.333 -105.667 -55 -141s-85.334 -53 -146.001 -53h-181
c-3.33301 0 -6.16602 1.16699 -8.49902 3.5zM190 121.002l44.999 0.999023c18 0.666992 32.667 8.33398 44 23.001s17.333 34 18 58v294c0 25.333 -5.66699 45.333 -17 60s-26.666 22 -45.999 22h-44c-3.33301 0 -5 -1.66699 -5 -5v-448c0 -3.33301 1.66699 -5 5 -5z" />
    <glyph glyph-name="E" unicode="E" horiz-adv-x="438" 
d="M407.5 582.5c-2.33301 -2.33301 -5.16602 -3.50391 -8.49902 -3.50391h-209c-3.33301 0 -5 -1.66699 -5 -5v-158c0 -3.33301 1.66699 -5 5 -5h120c3.33301 0 6.16602 -1.16699 8.49902 -3.5s3.5 -5.16602 3.5 -8.49902v-97c0 -3.33301 -1.16699 -6.16602 -3.5 -8.49902
s-5.16602 -3.5 -8.49902 -3.5h-120c-3.33301 0 -5 -1.66699 -5 -5v-159c0 -3.33301 1.66699 -5 5 -5h209c3.33301 0 6.16602 -1.16699 8.49902 -3.5s3.5 -5.16602 3.5 -8.49902v-97c0 -3.33301 -1.16699 -6.16602 -3.5 -8.49902s-5.16602 -3.5 -8.49902 -3.5h-343
c-3.33301 0 -6.16602 1.16699 -8.49902 3.5s-3.5 5.16602 -3.5 8.49902v676c0 3.33301 1.16699 6.16602 3.5 8.49902s5.16602 3.5 8.49902 3.5h343c3.33301 0 6.16602 -1.16699 8.49902 -3.5s3.5 -5.16602 3.5 -8.49902v-97c0 -3.33301 -1.16699 -6.16602 -3.5 -8.49902z
" />
    <glyph glyph-name="F" unicode="F" horiz-adv-x="421" 
d="M406.5 582.5c-2.33301 -2.33301 -5.16699 -3.50293 -8.5 -3.50293h-208c-3.33301 0 -5 -1.66699 -5 -5v-158c0 -3.33301 1.66699 -5 5 -5h119c3.33301 0 6.16602 -1.16699 8.49902 -3.5s3.5 -5.16602 3.5 -8.49902v-97c0 -3.33301 -1.16699 -6.16602 -3.5 -8.49902
s-5.16602 -3.5 -8.49902 -3.5h-119c-3.33301 0 -5 -1.66699 -5 -5v-273c0 -3.33301 -1.16699 -6.16602 -3.5 -8.49902s-5.16602 -3.5 -8.49902 -3.5h-117c-3.33301 0 -6.16602 1.16699 -8.49902 3.5s-3.5 5.16602 -3.5 8.49902v676c0 3.33301 1.16699 6.16602 3.5 8.49902
s5.16602 3.5 8.49902 3.5h342c3.33301 0 6.16602 -1.16699 8.49902 -3.5s3.5 -5.16602 3.5 -8.49902v-97c0 -3.33301 -1.16699 -6.16602 -3.5 -8.49902z" />
    <glyph glyph-name="G" unicode="G" horiz-adv-x="467" 
d="M88.5 43.5c-36.333 34.333 -54.501 80.168 -54.501 137.501v338c0 57.333 18.167 103.166 54.5 137.499s84.5 51.5 144.5 51.5s108.333 -17.333 145 -52s55 -80.667 55 -138v-38c0 -3.33301 -1.16699 -6.16602 -3.5 -8.49902s-5.16602 -3.5 -8.49902 -3.5h-117
c-3.33301 0 -6.16602 1.16699 -8.49902 3.5s-3.5 5.16602 -3.5 8.49902v40c0 20 -5.33301 36.167 -16 48.5s-25 18.5 -43 18.5c-17.333 0 -31.333 -6.16699 -42 -18.5s-16 -28.5 -16 -48.5v-340c0 -20 5.33301 -36.167 16 -48.5s24.667 -18.5 42 -18.5
c18 0 32.333 6.16699 43 18.5s16 28.5 16 48.5v80c0 3.33301 -1.66699 5 -5 5h-44c-3.33301 0 -6.16602 1.16699 -8.49902 3.5s-3.5 5.16602 -3.5 8.49902v89c0 3.33301 1.16699 6.16602 3.5 8.49902s5.16602 3.5 8.49902 3.5h178c3.33301 0 6.16602 -1.16699 8.49902 -3.5
s3.5 -5.16602 3.5 -8.49902v-185c0 -57.333 -18.333 -103.166 -55 -137.499s-85 -51.5 -145 -51.5s-108.167 17.167 -144.5 51.5z" />
    <glyph glyph-name="H" unicode="H" horiz-adv-x="480" 
d="M298.5 696.5c2.33301 2.33301 5.16602 3.5 8.49902 3.5h117c3.33301 0 6.16602 -1.16699 8.49902 -3.5s3.5 -5.16602 3.5 -8.49902v-676c0 -3.33301 -1.16699 -6.16602 -3.5 -8.49902s-5.16602 -3.5 -8.49902 -3.5h-117c-3.33301 0 -6.16602 1.16699 -8.49902 3.5
s-3.5 5.16602 -3.5 8.49902v273c0 3.33301 -1.66699 5 -5 5h-100c-3.33301 0 -5 -1.66699 -5 -5v-273c0 -3.33301 -1.16699 -6.16602 -3.5 -8.49902s-5.16602 -3.5 -8.49902 -3.5h-117c-3.33301 0 -6.16602 1.16699 -8.49902 3.5s-3.5 5.16602 -3.5 8.49902v676
c0 3.33301 1.16699 6.16602 3.5 8.49902s5.16602 3.5 8.49902 3.5h117c3.33301 0 6.16602 -1.16699 8.49902 -3.5s3.5 -5.16602 3.5 -8.49902v-272c0 -3.33301 1.66699 -5 5 -5h100c3.33301 0 5 1.66699 5 5v272c0 3.33301 1.16699 6.16602 3.5 8.49902z" />
    <glyph glyph-name="I" unicode="I" horiz-adv-x="230" 
d="M47.5 3.5c-2.33301 2.33301 -3.5 5.16602 -3.5 8.49902v676c0 3.33301 1.16699 6.16602 3.5 8.49902s5.16602 3.5 8.49902 3.5h117c3.33301 0 6.16602 -1.16699 8.49902 -3.5s3.5 -5.16602 3.5 -8.49902v-676c0 -3.33301 -1.16699 -6.16602 -3.5 -8.49902
s-5.16602 -3.5 -8.49902 -3.5h-117c-3.33301 0 -6.16602 1.16699 -8.49902 3.5z" />
    <glyph glyph-name="J" unicode="J" horiz-adv-x="452" 
d="M68 43.5c-36 34.333 -53.9961 79.833 -53.9961 136.5v69c0 3.33301 1.16699 6.16602 3.5 8.49902s5.16602 3.5 8.49902 3.5h117c3.33301 0 6.16602 -1.16699 8.49902 -3.5s3.5 -5.16602 3.5 -8.49902v-71c0 -19.333 5 -35 15 -47s23.333 -18 40 -18
c17.333 0 31.166 6 41.499 18s15.5 27.667 15.5 47v510c0 3.33301 1.16699 6.16602 3.5 8.49902s5.16602 3.5 8.49902 3.5h117c3.33301 0 6.16602 -1.16699 8.49902 -3.5s3.5 -5.16602 3.5 -8.49902v-508c0 -56.667 -18.167 -102.167 -54.5 -136.5
s-84.166 -51.5 -143.499 -51.5c-58.667 0 -106 17.167 -142 51.5z" />
    <glyph glyph-name="K" unicode="K" horiz-adv-x="491" 
d="M47.5 3.5c-2.33301 2.33301 -3.50293 5.16406 -3.50293 8.49707v676c0 3.33301 1.16699 6.16602 3.5 8.49902s5.16602 3.5 8.49902 3.5h117c3.33301 0 6.16602 -1.16699 8.49902 -3.5s3.5 -5.16602 3.5 -8.49902v-252c0 -2.66699 0.833008 -4.16699 2.5 -4.5
s2.83398 0.833984 3.50098 3.50098l129 256c3.33301 6 8 9 14 9h124c4.66699 0 7.83398 -1.16699 9.50098 -3.5s1.5 -5.83301 -0.5 -10.5l-148 -288c-0.666992 -2.66699 -1 -4.66699 -1 -6l157 -378c0.666992 -1.33301 1 -3.33301 1 -6c0 -5.33301 -3.33301 -8 -10 -8h-125
c-7.33301 0 -12 3 -14 9l-104 262c-0.666992 2 -1.66699 2.83301 -3 2.5s-2.66602 -1.16602 -3.99902 -2.49902l-29 -52c-1.33301 -2.66699 -2 -4.66699 -2 -6v-201c0 -3.33301 -1.16699 -6.16602 -3.5 -8.49902s-5.16602 -3.5 -8.49902 -3.5h-117
c-3.33301 0 -6.16602 1.16699 -8.49902 3.5z" />
    <glyph glyph-name="L" unicode="L" horiz-adv-x="426" 
d="M47.5 3.5c-2.33301 2.33301 -3.49902 5.16504 -3.49902 8.49805v676c0 3.33301 1.16699 6.16602 3.5 8.49902s5.16602 3.5 8.49902 3.5h117c3.33301 0 6.16602 -1.16699 8.49902 -3.5s3.5 -5.16602 3.5 -8.49902v-562c0 -3.33301 1.66699 -5 5 -5h210
c3.33301 0 6.16602 -1.16699 8.49902 -3.5s3.5 -5.16602 3.5 -8.49902v-97c0 -3.33301 -1.16699 -6.16602 -3.5 -8.49902s-5.16602 -3.5 -8.49902 -3.5h-344c-3.33301 0 -6.16602 1.16699 -8.49902 3.5z" />
    <glyph glyph-name="M" unicode="M" horiz-adv-x="548" 
d="M379 700h115.996c3.33301 0 6.16602 -1.16699 8.49902 -3.5s3.5 -5.16602 3.5 -8.49902v-676c0 -3.33301 -1.16699 -6.16602 -3.5 -8.49902s-5.16602 -3.5 -8.49902 -3.5h-117c-3.33301 0 -6.16602 1.16699 -8.49902 3.5s-3.5 5.16602 -3.5 8.49902v449
c0 2.66699 -0.666992 4 -2 4s-2.66602 -1 -3.99902 -3l-78 -138c-3.33301 -5.33301 -6 -8 -8 -8s-4.66699 2.66699 -8 8l-78 138c-1.33301 2 -2.66602 3 -3.99902 3s-2 -1.33301 -2 -4v-449c0 -3.33301 -1.16699 -6.16602 -3.5 -8.49902s-5.16602 -3.5 -8.49902 -3.5h-117
c-3.33301 0 -6.16602 1.16699 -8.49902 3.5s-3.5 5.16602 -3.5 8.49902v676c0 3.33301 1.16699 6.16602 3.5 8.49902s5.16602 3.5 8.49902 3.5h115c6.66699 0 11.667 -2.66699 15 -8l89 -159c2 -2.66699 4 -2.66699 6 0l86 159c2.66699 5.33301 7.66699 8 15 8z" />
    <glyph glyph-name="N" unicode="N" horiz-adv-x="514" 
d="M333.5 696.5c2.33301 2.33301 5.16602 3.5 8.49902 3.5h116c3.33301 0 6.16602 -1.16699 8.49902 -3.5s3.5 -5.16602 3.5 -8.49902v-676c0 -3.33301 -1.16699 -6.16602 -3.5 -8.49902s-5.16602 -3.5 -8.49902 -3.5h-132c-6.66699 0 -11 3.33301 -13 10l-124 387
c-0.666992 2 -1.83398 2.83301 -3.50098 2.5s-2.5 -1.5 -2.5 -3.5l1 -384c0 -3.33301 -1.16699 -6.16602 -3.5 -8.49902s-5.16602 -3.5 -8.49902 -3.5h-116c-3.33301 0 -6.16602 1.16699 -8.49902 3.5s-3.5 5.16602 -3.5 8.49902v676c0 3.33301 1.16699 6.16602 3.5 8.49902
s5.16602 3.5 8.49902 3.5h131c6.66699 0 11 -3.33301 13 -10l125 -387c0.666992 -2 1.83398 -2.83301 3.50098 -2.5s2.5 1.5 2.5 3.5l-1 384c0 3.33301 1.16699 6.16602 3.5 8.49902z" />
    <glyph glyph-name="O" unicode="O" horiz-adv-x="473" 
d="M89 46c-36.667 36 -55 84 -55 144v320c0 60 18.333 108 55 144s85.667 54 147 54s110.5 -18 147.5 -54s55.5 -84 55.5 -144v-320c0 -60 -18.5 -108 -55.5 -144s-86.167 -54 -147.5 -54s-110.333 18 -147 54zM281 132.5c11.333 13 17 30.167 17 51.5v332
c0 21.333 -5.66699 38.5 -17 51.5s-26.333 19.5 -45 19.5s-33.5 -6.5 -44.5 -19.5s-16.5 -30.167 -16.5 -51.5v-332c0 -21.333 5.5 -38.5 16.5 -51.5s25.833 -19.5 44.5 -19.5s33.667 6.5 45 19.5z" />
    <glyph glyph-name="P" unicode="P" horiz-adv-x="465" 
d="M355 674c28.667 -18 50.8311 -43.167 66.498 -75.5s23.5 -69.166 23.5 -110.499c0 -62 -16.667 -111.667 -50 -149s-77 -56 -131 -56h-75c-3.33301 0 -5 -1.66699 -5 -5v-266c0 -3.33301 -1.16699 -6.16602 -3.5 -8.49902s-5.16602 -3.5 -8.49902 -3.5h-117
c-3.33301 0 -6.16602 1.16699 -8.49902 3.5s-3.5 5.16602 -3.5 8.49902v677c0 3.33301 1.16699 6.16602 3.5 8.49902s5.16602 3.5 8.49902 3.5h202c36.667 0 69.334 -9 98.001 -27zM284.497 417.5c13 16.333 19.5 38.833 19.5 67.5c0 29.333 -6.5 52.333 -19.5 69
s-30.167 25 -51.5 25h-44c-3.33301 0 -5 -1.66699 -5 -5v-176c0 -3.33301 1.66699 -5 5 -5h44c21.333 0 38.5 8.16699 51.5 24.5z" />
    <glyph glyph-name="Q" unicode="Q" horiz-adv-x="461" 
d="M373 651.5c36 -37.667 53.9971 -87.167 53.9971 -148.5v-306c0 -46.667 -10.833 -87 -32.5 -121s-51.5 -58 -89.5 -72c-2.66699 -0.666992 -4 -2.33398 -4 -5.00098v-85c0 -3.33301 -1.16699 -6.16602 -3.5 -8.49902s-5.16602 -3.5 -8.49902 -3.5h-117
c-3.33301 0 -6.16602 1.16699 -8.49902 3.5s-3.5 5.16602 -3.5 8.49902v85c0 2.66699 -1.33301 4.33398 -4 5.00098c-38 14 -67.833 38 -89.5 72s-32.5 74.333 -32.5 121v306c0 40.667 8.16699 76.5 24.5 107.5s39.333 55 69 72s63.834 25.5 102.501 25.5
c59.333 0 107 -18.833 143 -56.5zM174.997 182c0 -20.667 5 -37.334 15 -50.001s23.333 -19 40 -19s30.167 6.33301 40.5 19s15.5 29.334 15.5 50.001v336c0 20.667 -5.16699 37.334 -15.5 50.001s-23.833 19 -40.5 19s-30 -6.33301 -40 -19s-15 -29.334 -15 -50.001v-336z
" />
    <glyph glyph-name="R" unicode="R" horiz-adv-x="471" 
d="M306 10l-77.0029 276.001c-1.33301 2.66699 -3 4 -5 4h-34c-3.33301 0 -5 -1.66699 -5 -5v-273c0 -3.33301 -1.16699 -6.16602 -3.5 -8.49902s-5.16602 -3.5 -8.49902 -3.5h-117c-3.33301 0 -6.16602 1.16699 -8.49902 3.5s-3.5 5.16602 -3.5 8.49902v676
c0 3.33301 1.16699 6.16602 3.5 8.49902s5.16602 3.5 8.49902 3.5h202c36.667 0 69.334 -8.83301 98.001 -26.5s50.834 -42.5 66.501 -74.5s23.5 -68.667 23.5 -110c0 -39.333 -7.5 -74 -22.5 -104s-35.833 -53.333 -62.5 -70c-1.33301 -0.666992 -2.33301 -1.5 -3 -2.5
s-0.666992 -2.16699 0 -3.5l92 -295l1 -4c0 -6.66699 -3.66699 -10 -11 -10h-120c-7.33301 -0 -12 3.33301 -14 10zM184.997 574.001v-170.999c0 -3.33301 1.66699 -5 5 -5h45c20.667 0 37.5 8.16699 50.5 24.5s19.5 38.166 19.5 65.499c0 28 -6.5 50.167 -19.5 66.5
s-29.833 24.5 -50.5 24.5h-45c-3.33301 0 -5 -1.66699 -5 -5z" />
    <glyph glyph-name="S" unicode="S" horiz-adv-x="444" 
d="M122 15c-29.333 15.333 -52 36.834 -68 64.501s-24 59.5 -24 95.5v29c0 3.33301 1.16699 6.16602 3.5 8.49902s5.16602 3.5 8.49902 3.5h115c3.33301 0 6.16602 -1.16699 8.49902 -3.5s3.5 -5.16602 3.5 -8.49902v-22c0 -20.667 5.33301 -37.334 16 -50.001
s24 -19 40 -19s29.333 6 40 18s16 27.667 16 47c0 20 -6.66699 37.167 -20 51.5s-39.333 35.5 -78 63.5c-33.333 24 -60.333 45.333 -81 64s-38.334 41.667 -53.001 69s-22 59 -22 95c0 56.667 17.667 102 53 136s82 51 140 51c58.667 0 105.834 -17.667 141.501 -53
s53.5 -81.666 53.5 -138.999v-24c0 -3.33301 -1.16699 -6.16602 -3.5 -8.49902s-5.16602 -3.5 -8.49902 -3.5h-115c-3.33301 0 -6.16602 1.16699 -8.49902 3.5s-3.5 5.16602 -3.5 8.49902v27c0 20.667 -5.16699 37.167 -15.5 49.5s-23.833 18.5 -40.5 18.5
c-16 0 -29 -5.83301 -39 -17.5s-15 -27.834 -15 -48.501c0 -20 6.33301 -37.667 19 -53s37.667 -36.666 75 -63.999c41.333 -30.667 72.5 -55.5 93.5 -74.5s37.333 -40 49 -63s17.5 -50.5 17.5 -82.5c0 -58.667 -18 -105.334 -54 -140.001s-83.333 -52 -142 -52
c-38.667 0 -72.667 7.66699 -102 23z" />
    <glyph glyph-name="T" unicode="T" horiz-adv-x="468" 
d="M440.5 696.5c2.33301 -2.33301 3.49805 -5.16602 3.49805 -8.49902v-97c0 -3.33301 -1.16699 -6.16602 -3.5 -8.49902s-5.16602 -3.5 -8.49902 -3.5h-125c-3.33301 0 -5 -1.66699 -5 -5v-562c0 -3.33301 -1.16699 -6.16602 -3.5 -8.49902s-5.16602 -3.5 -8.49902 -3.5
h-117c-3.33301 0 -6.16602 1.16699 -8.49902 3.5s-3.5 5.16602 -3.5 8.49902v562c0 3.33301 -1.66699 5 -5 5h-120c-3.33301 0 -6.16602 1.16699 -8.49902 3.5s-3.5 5.16602 -3.5 8.49902v97c0 3.33301 1.16699 6.16602 3.5 8.49902s5.16602 3.5 8.49902 3.5h396
c3.33301 0 6.16602 -1.16699 8.49902 -3.5z" />
    <glyph glyph-name="U" unicode="U" horiz-adv-x="479" 
d="M95.5 48.5c-36.333 37.667 -54.4961 87.834 -54.4961 150.501v489c0 3.33301 1.16699 6.16602 3.5 8.49902s5.16602 3.5 8.49902 3.5h117c3.33301 0 6.16602 -1.16699 8.49902 -3.5s3.5 -5.16602 3.5 -8.49902v-503c0 -21.333 5.33301 -38.666 16 -51.999
s24.667 -20 42 -20s31.166 6.66699 41.499 20s15.5 30.666 15.5 51.999v503c0 3.33301 1.16699 6.16602 3.5 8.49902s5.16602 3.5 8.49902 3.5h117c3.33301 0 6.16602 -1.16699 8.49902 -3.5s3.5 -5.16602 3.5 -8.49902v-489c0 -62.667 -18.167 -112.834 -54.5 -150.501
s-84.166 -56.5 -143.499 -56.5c-60 0 -108.167 18.833 -144.5 56.5z" />
    <glyph glyph-name="V" unicode="V" horiz-adv-x="488" 
d="M166 11l-143.002 676l-1 4c0 6 3.66699 9 11 9h129c8 0 12.333 -3.66699 13 -11l69 -440c0.666992 -2.66699 1.66699 -4 3 -4s2.33301 1.33301 3 4l67 440c0.666992 7.33301 5 11 13 11h125c8.66699 0 12 -4.33301 10 -13l-144 -676
c-1.33301 -7.33301 -5.66602 -11 -12.999 -11h-129c-7.33301 0 -11.666 3.66699 -12.999 11z" />
    <glyph glyph-name="W" unicode="W" horiz-adv-x="689" 
d="M156 11l-135.002 676l-1 4c0 6 3.66699 9 11 9h122c8 0 12.333 -3.66699 13 -11l57 -360c0.666992 -2.66699 1.66699 -4 3 -4s2.33301 1.33301 3 4l54 360c0.666992 7.33301 5 11 13 11h101c8 0 12.333 -3.66699 13 -11l59 -360c0.666992 -2.66699 1.66699 -4 3 -4
s2.33301 1.33301 3 4l51 360c0.666992 7.33301 5 11 13 11h118c8.66699 0 12.334 -4.33301 11.001 -13l-127 -676c-0.666992 -7.33301 -5 -11 -13 -11h-108c-8 0 -12.333 3.66699 -13 11l-59 370c-0.666992 2.66699 -1.66699 4 -3 4s-2.33301 -1.33301 -3 -4l-53 -370
c-0.666992 -7.33301 -5 -11 -13 -11h-107c-7.33301 0 -11.666 3.66699 -12.999 11z" />
    <glyph glyph-name="X" unicode="X" horiz-adv-x="475" 
d="M26 4c-1.33301 2.66699 -1.33301 6 0 10l136 333c0.666992 2 0.666992 4 0 6l-136 333c-0.666992 1.33301 -1 3.33301 -1 6c0 5.33301 3.33301 8 10 8h120c6.66699 0 11 -3.33301 13 -10l67 -192c0.666992 -2 1.66699 -3 3 -3s2.33301 1 3 3l67 192
c2 6.66699 6.33301 10 13 10h119c4.66699 0 7.66699 -1.33301 9 -4s1.33301 -6 0 -10l-136 -333c-0.666992 -2 -0.666992 -4 0 -6l136 -333c0.666992 -1.33301 1 -3.33301 1 -6c0 -5.33301 -3.33301 -8 -10 -8h-119c-6.66699 -0 -11 3.33301 -13 10l-67 191
c-0.666992 2 -1.66699 3 -3 3s-2.33301 -1 -3 -3l-68 -191c-2 -6.66699 -6.33301 -10 -13 -10h-119c-4.66699 -0 -7.66699 1.33301 -9 4z" />
    <glyph glyph-name="Y" unicode="Y" horiz-adv-x="474" 
d="M169.5 4.5c-2.33301 2.33301 -3.50195 5.16602 -3.50195 8.49902v260l-1 6l-140 407c-0.666992 1.33301 -1 3 -1 5c0 6 3.66699 9 11 9h123c7.33301 0 12 -3.33301 14 -10l62 -239c0.666992 -2 1.66699 -3 3 -3s2.33301 1 3 3l62 239c2 6.66699 6.66699 10 14 10h123
c4 0 7 -1.16699 9 -3.5s2.33301 -5.83301 1 -10.5l-141 -407l-1 -6v-260c0 -3.33301 -1.16699 -6.16602 -3.5 -8.49902s-5.16602 -3.5 -8.49902 -3.5h-117c-3.33301 0 -6.16602 1.16699 -8.49902 3.5z" />
    <glyph glyph-name="Z" unicode="Z" horiz-adv-x="412" 
d="M23.5 3.5c-2.33301 2.33301 -3.5 5.16602 -3.5 8.49902v101c0 5.33301 1 10.333 3 15l214 445c0.666992 2 0.666992 3.5 0 4.5s-2 1.5 -4 1.5h-201c-3.33301 0 -6.16602 1.16699 -8.49902 3.5s-3.5 5.16602 -3.5 8.49902v97c0 3.33301 1.16699 6.16602 3.5 8.49902
s5.16602 3.5 8.49902 3.5h344c3.33301 0 6.16602 -1.16699 8.49902 -3.5s3.5 -5.16602 3.5 -8.49902v-101c0 -4.66699 -1 -9.66699 -3 -15l-214 -445c-0.666992 -2 -0.666992 -3.5 0 -4.5s2 -1.5 4 -1.5h201c3.33301 0 6.16602 -1.16699 8.49902 -3.5
s3.5 -5.16602 3.5 -8.49902v-97c0 -3.33301 -1.16699 -6.16602 -3.5 -8.49902s-5.16602 -3.5 -8.49902 -3.5h-344c-3.33301 0 -6.16602 1.16699 -8.49902 3.5z" />
    <glyph glyph-name="bracketleft" unicode="[" horiz-adv-x="345" 
d="M31.5 -143.5c-2.33301 2.33301 -3.5 5.16406 -3.5 8.49707v923c0 3.33301 1.16699 6.16602 3.5 8.49902s5.16602 3.5 8.49902 3.5h204c3.33301 0 6.16602 -1.16699 8.49902 -3.5s3.5 -5.16602 3.5 -8.49902v-97c0 -3.33301 -1.16699 -6.16602 -3.5 -8.49902
s-5.16602 -3.5 -8.49902 -3.5h-70c-3.33301 0 -5 -1.66699 -5 -5v-694c0 -3.33301 1.66699 -5 5 -5h70c3.33301 0 6.16602 -1.16699 8.49902 -3.5s3.5 -5.16602 3.5 -8.49902v-98c0 -3.33301 -1.16699 -6.16602 -3.5 -8.49902s-5.16602 -3.5 -8.49902 -3.5h-204
c-3.33301 0 -6.16602 1.16699 -8.49902 3.5z" />
    <glyph glyph-name="backslash" unicode="\" horiz-adv-x="415" 
d="M399 9c0 -6 -3.66699 -9 -11 -9h-117c-6.66699 -0 -11 3.33301 -13 10l-220 676c-0.666992 1.33301 -1 3 -1 5c0 6 3.66699 9 11 9h117c6.66699 0 11 -3.33301 13 -10l220 -676c0.666992 -1.33301 1 -3 1 -5z" />
    <glyph glyph-name="bracketright" unicode="]" horiz-adv-x="345" 
d="M312.5 -143.5c-2.33301 -2.33301 -5.16602 -3.49805 -8.49902 -3.49805h-204c-3.33301 0 -6.16602 1.16699 -8.49902 3.5s-3.5 5.16602 -3.5 8.49902v98c0 3.33301 1.16699 6.16602 3.5 8.49902s5.16602 3.5 8.49902 3.5h70c3.33301 0 5 1.66699 5 5v694
c0 3.33301 -1.66699 5 -5 5h-70c-3.33301 0 -6.16602 1.16699 -8.49902 3.5s-3.5 5.16602 -3.5 8.49902v97c0 3.33301 1.16699 6.16602 3.5 8.49902s5.16602 3.5 8.49902 3.5h204c3.33301 0 6.16602 -1.16699 8.49902 -3.5s3.5 -5.16602 3.5 -8.49902v-923
c0 -3.33301 -1.16699 -6.16602 -3.5 -8.49902z" />
    <glyph glyph-name="asciicircum" unicode="^" horiz-adv-x="422" 
d="M29 301.5c-2 2.33301 -2.33301 5.83301 -1 10.5l120 378c2 6.66699 6.33301 10 13 10h98c6.66699 0 11 -3.33301 13 -10l123 -378c0.666992 -1.33301 1 -3 1 -5c0 -6 -3.66699 -9 -11 -9h-94c-7.33301 0 -12 3.33301 -14 10l-63 230c-0.666992 2 -1.66699 3 -3 3
s-2.33301 -1 -3 -3l-63 -230c-2 -6.66699 -6.66699 -10 -14 -10h-93c-4 0 -7 1.16699 -9 3.5z" />
    <glyph glyph-name="underscore" unicode="_" horiz-adv-x="421" 
d="M17.5 3.5c-2.33301 2.33301 -3.5 5.16602 -3.5 8.49902v83c0 3.33301 1.16699 6.16602 3.5 8.49902s5.16602 3.5 8.49902 3.5h369c3.33301 0 6.16602 -1.16699 8.49902 -3.5s3.5 -5.16602 3.5 -8.49902v-83c0 -3.33301 -1.16699 -6.16602 -3.5 -8.49902
s-5.16602 -3.5 -8.49902 -3.5h-369c-3.33301 0 -6.16602 1.16699 -8.49902 3.5z" />
    <glyph glyph-name="grave" unicode="`" horiz-adv-x="220" 
d="M200 584c0 -5.33301 -3.66797 -8 -11.001 -8h-75c-5.33301 0 -10 2.33301 -14 7l-76 102c-2 3.33301 -3 6 -3 8c0 4.66699 3.33301 7 10 7h93c6.66699 0 11.334 -2.66699 14.001 -8l60 -102z" />
    <glyph glyph-name="a" unicode="a" horiz-adv-x="446" 
d="M362 476c35.333 -30.667 52.998 -71 52.998 -121v-343c0 -3.33301 -1.16699 -6.16602 -3.5 -8.49902s-5.16602 -3.5 -8.49902 -3.5h-117c-3.33301 0 -6.16602 1.16699 -8.49902 3.5s-3.5 5.16602 -3.5 8.49902v22c0 2 -0.666992 3.33301 -2 4s-2.66602 0 -3.99902 -2
c-22 -28 -56 -42.667 -102 -44c-38.667 0 -72.167 10.667 -100.5 32s-42.5 62 -42.5 122c0 62 17.167 104.667 51.5 128s83.833 35 148.5 35h46c3.33301 0 5 1.66699 5 5v25c0 18 -4.83301 32.833 -14.5 44.5s-21.834 17.5 -36.501 17.5c-11.333 0 -20.833 -3.5 -28.5 -10.5
s-12.5 -16.833 -14.5 -29.5c-0.666992 -8 -5 -12 -13 -12l-120 1c-8 0 -12 4 -12 12c3.33301 48.667 22.333 87.5 57 116.5s78.667 43.5 132 43.5c56.667 0 102.667 -15.333 138 -46zM255.498 116.5c12.333 10.333 18.501 24.168 18.501 41.501v47
c0 3.33301 -1.66699 5 -5 5h-41c-18 0 -32.5 -5.16699 -43.5 -15.5s-16.5 -24.5 -16.5 -42.5c0 -16.667 4.16699 -29.334 12.5 -38.001s19.5 -13 33.5 -13c15.333 0 29.166 5.16699 41.499 15.5z" />
    <glyph glyph-name="b" unicode="b" horiz-adv-x="445" 
d="M378.5 478.5c23.667 -29 35.4971 -70.499 35.4971 -124.499v-194c0 -52.667 -11.667 -93.834 -35 -123.501s-58 -44.5 -104 -44.5c-37.333 0 -67.333 12.667 -90 38c-1.33301 1.33301 -2.66602 1.83301 -3.99902 1.5s-2 -1.5 -2 -3.5v-16
c0 -3.33301 -1.16699 -6.16602 -3.5 -8.49902s-5.16602 -3.5 -8.49902 -3.5h-117c-3.33301 0 -6.16602 1.16699 -8.49902 3.5s-3.5 5.16602 -3.5 8.49902v676c0 3.33301 1.16699 6.16602 3.5 8.49902s5.16602 3.5 8.49902 3.5h117c3.33301 0 6.16602 -1.16699 8.49902 -3.5
s3.5 -5.16602 3.5 -8.49902v-203c0 -1.33301 0.666992 -2 2 -2c2.66699 0 5.33398 1.66699 8.00098 5c22.667 22.667 51.334 34 86.001 34c45.333 0 79.833 -14.5 103.5 -43.5zM259.997 385.001c-8.66699 10.667 -20 15.998 -34 15.998c-12 0 -22.333 -4 -31 -12
s-14 -18.667 -16 -32v-200c2 -13.333 7.33301 -24 16 -32s19 -12 31 -12c14 0 25.333 5.33301 34 16s13 24.334 13 41.001v174c0 16.667 -4.33301 30.334 -13 41.001z" />
    <glyph glyph-name="c" unicode="c" horiz-adv-x="434" 
d="M81.5 37c-33.667 30 -50.499 70.9971 -50.499 122.997v194c0 50.667 16.833 91.334 50.5 122.001s79.834 46 138.501 46s104.834 -15 138.501 -45s50.5 -69 50.5 -117v-18c0 -3.33301 -1.16699 -6.16602 -3.5 -8.49902s-5.16602 -3.5 -8.49902 -3.5l-117 -5
c-8 0 -12 4 -12 12v12c0 14.667 -4.5 27 -13.5 37s-20.5 15 -34.5 15c-14.667 0 -26.334 -5.33301 -35.001 -16s-13 -24.667 -13 -42v-172c0 -17.333 4.33301 -31.333 13 -42s20.334 -16 35.001 -16c14 0 25.5 5.16699 34.5 15.5s13.5 22.5 13.5 36.5v13
c0 3.33301 1.16699 6.16602 3.5 8.49902s5.16602 3.5 8.49902 3.5l117 -1c3.33301 0 6.16602 -1.16699 8.49902 -3.5s3.5 -5.16602 3.5 -8.49902v-23c0 -49.333 -16.833 -88.666 -50.5 -117.999s-79.834 -44 -138.501 -44s-104.834 15 -138.501 45z" />
    <glyph glyph-name="d" unicode="d" horiz-adv-x="445" 
d="M269.5 696.5c2.33301 2.33301 5.16602 3.5 8.49902 3.5h117c3.33301 0 6.16602 -1.16699 8.49902 -3.5s3.5 -5.16602 3.5 -8.49902v-676c0 -3.33301 -1.16699 -6.16602 -3.5 -8.49902s-5.16602 -3.5 -8.49902 -3.5h-117c-3.33301 0 -6.16602 1.16699 -8.49902 3.5
s-3.5 5.16602 -3.5 8.49902v16c0 2 -0.666992 3.16699 -2 3.5s-2.66602 -0.166992 -3.99902 -1.5c-22.667 -25.333 -52.667 -38 -90 -38c-46 0 -80.667 14.833 -104 44.5s-35 70.834 -35 123.501v194c0 54 11.833 95.5 35.5 124.5s58.167 43.5 103.5 43.5
c14.667 0 30 -2.83301 46 -8.5s30.667 -15.834 44 -30.501c1.33301 -1.33301 2.66602 -1.83301 3.99902 -1.5s2 1.5 2 3.5v203c0 3.33301 1.16699 6.16602 3.5 8.49902zM250 125c8.66699 8 14 18.6689 16 32.002v200c-2 13.333 -7.33301 24 -16 32s-19 12 -31 12
c-14 0 -25.333 -5.33301 -34 -16s-13 -24.334 -13 -41.001v-174c0 -16.667 4.33301 -30.334 13 -41.001s20 -16 34 -16c12 0 22.333 4 31 12z" />
    <glyph glyph-name="e" unicode="e" horiz-adv-x="436" 
d="M405.5 216.5c-2.33301 -2.33301 -5.16797 -3.50293 -8.50098 -3.50293h-220c-3.33301 0 -5 -1.66699 -5 -5v-37c0 -16.667 4.5 -30.5 13.5 -41.5s20.5 -16.5 34.5 -16.5c12.667 0 23 4.16699 31 12.5s13.333 18.833 16 31.5c2 6.66699 6.33301 10 13 10l115 -6
c3.33301 0 6.16602 -1.16699 8.49902 -3.5s3.16602 -5.5 2.49902 -9.5c-4.66699 -51.333 -22.5 -90.166 -53.5 -116.499s-75.167 -39.5 -132.5 -39.5c-59.333 0 -105.666 14.833 -138.999 44.5s-50 70.834 -50 123.501v194c0 50.667 16.833 91.334 50.5 122.001
s79.834 46 138.501 46s104.834 -15.333 138.501 -46s50.5 -71.334 50.5 -122.001v-129c0 -3.33301 -1.16699 -6.16602 -3.5 -8.49902zM185.498 384.997c-9 -10.667 -13.5 -24.334 -13.5 -41.001v-39c0 -3.33301 1.66699 -5 5 -5h86c3.33301 0 5 1.66699 5 5v39
c0 16.667 -4.5 30.334 -13.5 41.001s-20.5 16 -34.5 16s-25.5 -5.33301 -34.5 -16z" />
    <glyph glyph-name="f" unicode="f" horiz-adv-x="298" 
d="M273.5 510.5c2.33301 -2.33301 3.49805 -5.16699 3.49805 -8.5v-75c0 -3.33301 -1.16699 -6.16602 -3.5 -8.49902s-5.16602 -3.5 -8.49902 -3.5h-55c-3.33301 0 -5 -1.66699 -5 -5v-398c0 -3.33301 -1.16699 -6.16602 -3.5 -8.49902s-5.16602 -3.5 -8.49902 -3.5h-116
c-3.33301 0 -6.16602 1.16699 -8.49902 3.5s-3.5 5.16602 -3.5 8.49902v398c0 3.33301 -1.66699 5 -5 5h-30c-3.33301 0 -6.16602 1.16699 -8.49902 3.5s-3.5 5.16602 -3.5 8.49902v75c0 3.33301 1.16699 6.16602 3.5 8.49902s5.16602 3.5 8.49902 3.5h30
c3.33301 0 5 1.66699 5 5v27c0 60 15.167 101.5 45.5 124.5s78.5 33.833 144.5 32.5h4c3.33301 0 6.16602 -1.16699 8.49902 -3.5s3.5 -5.16602 3.5 -8.49902l-1 -80c0 -3.33301 -1.16699 -6.16602 -3.5 -8.49902s-5.16602 -3.5 -8.49902 -3.5h-2
c-34 -0.666992 -51 -21.334 -51 -62.001v-18c0 -3.33301 1.66699 -5 5 -5h55c3.33301 0 6.16602 -1.16699 8.49902 -3.5z" />
    <glyph glyph-name="g" unicode="g" horiz-adv-x="441" 
d="M270.5 510.5c2.33301 2.33301 5.16895 3.49805 8.50195 3.49805h117c3.33301 0 6.16602 -1.16699 8.49902 -3.5s3.5 -5.16602 3.5 -8.49902v-478c0 -74 -17.5 -131 -52.5 -171s-97.833 -60 -188.5 -60c-18 0 -32 0.333008 -42 1c-8 0.666992 -12 5 -12 13v98
c0 8.66699 4.33301 12.334 13 11.001c39.333 -1.33301 69.166 2.5 89.499 11.5s34 22.5 41 40.5s10.5 41.667 10.5 71c0 2 -0.666992 3 -2 3s-2.66602 -1 -3.99902 -3c-12 -16 -26.5 -27.167 -43.5 -33.5s-33.5 -9.5 -49.5 -9.5c-46 0 -80.333 14.833 -103 44.5
s-34 70.834 -34 123.501v190c0 54 11.5 95.5 34.5 124.5s57.167 43.5 102.5 43.5c40.667 0 71.667 -15 93 -45c1.33301 -2 2.66602 -2.66699 3.99902 -2s2 2 2 4v23c0 3.33301 1.16699 6.16602 3.5 8.49902zM253.503 133.998c9 10.667 13.5 24.334 13.5 41.001v169
c0 16.667 -4.5 30.334 -13.5 41.001s-20.5 16 -34.5 16s-25.333 -5.33301 -34 -16s-13 -24.334 -13 -41.001v-169c0 -16.667 4.33301 -30.334 13 -41.001s20 -16 34 -16s25.5 5.33301 34.5 16z" />
    <glyph glyph-name="h" unicode="h" 
d="M379 477c22.667 -30 33.9971 -72 33.9971 -126v-339c0 -3.33301 -1.16699 -6.16602 -3.5 -8.49902s-5.16602 -3.5 -8.49902 -3.5h-117c-3.33301 0 -6.16602 1.16699 -8.49902 3.5s-3.5 5.16602 -3.5 8.49902v328c0 19.333 -3.83301 34.333 -11.5 45
s-18.834 16 -33.501 16c-15.333 0 -27.166 -5.5 -35.499 -16.5s-12.5 -26.5 -12.5 -46.5v-326c0 -3.33301 -1.16699 -6.16602 -3.5 -8.49902s-5.16602 -3.5 -8.49902 -3.5h-117c-3.33301 0 -6.16602 1.16699 -8.49902 3.5s-3.5 5.16602 -3.5 8.49902v676
c0 3.33301 1.16699 6.16602 3.5 8.49902s5.16602 3.5 8.49902 3.5h117c3.33301 0 6.16602 -1.16699 8.49902 -3.5s3.5 -5.16602 3.5 -8.49902v-205c0 -2 0.833008 -3 2.5 -3s3.83398 1.33301 6.50098 4c21.333 25.333 51 38 89 38c45.333 0 79.333 -15 102 -45z" />
    <glyph glyph-name="i" unicode="i" horiz-adv-x="219" 
d="M52.5 594.5c-15 15 -22.498 33.833 -22.498 56.5c0 23.333 7.33301 42.333 22 57s33.667 22 57 22s42.166 -7.33301 56.499 -22s21.5 -33.667 21.5 -57c0 -22.667 -7.33301 -41.5 -22 -56.5s-33.334 -22.5 -56.001 -22.5s-41.5 7.5 -56.5 22.5zM43.502 3.5
c-2.33301 2.33301 -3.5 5.16602 -3.5 8.49902v490c0 3.33301 1.16699 6.16602 3.5 8.49902s5.16602 3.5 8.49902 3.5h117c3.33301 0 6.16602 -1.16699 8.49902 -3.5s3.5 -5.16602 3.5 -8.49902v-490c0 -3.33301 -1.16699 -6.16602 -3.5 -8.49902
s-5.16602 -3.5 -8.49902 -3.5h-117c-3.33301 0 -6.16602 1.16699 -8.49902 3.5z" />
    <glyph glyph-name="j" unicode="j" horiz-adv-x="217" 
d="M51.5 594.5c-15 15 -22.5 33.833 -22.5 56.5c0 23.333 7.33301 42.333 22 57s33.667 22 57 22s42.333 -7.33301 57 -22s22 -33.667 22 -57c0 -22.667 -7.5 -41.5 -22.5 -56.5s-33.833 -22.5 -56.5 -22.5s-41.5 7.5 -56.5 22.5zM-56 -192l0.00195312 97
c0 8 4.33301 11.667 13 11c30 -0.666992 51 6.16602 63 20.499s18 35.5 18 63.5v502c0 3.33301 1.16699 6.16602 3.5 8.49902s5.16602 3.5 8.49902 3.5h117c3.33301 0 6.16602 -1.16699 8.49902 -3.5s3.5 -5.16602 3.5 -8.49902v-502c0 -50 -4.5 -89 -13.5 -117
s-29.5 -49.667 -61.5 -65s-81.333 -22.666 -148 -21.999c-8 0 -12 4 -12 12z" />
    <glyph glyph-name="k" unicode="k" horiz-adv-x="449" 
d="M41.5 3.5c-2.33301 2.33301 -3.50098 5.16602 -3.50098 8.49902v676c0 3.33301 1.16699 6.16602 3.5 8.49902s5.16602 3.5 8.49902 3.5h117c3.33301 0 6.16602 -1.16699 8.49902 -3.5s3.5 -5.16602 3.5 -8.49902v-331c0 -2.66699 0.666992 -4.16699 2 -4.5
s2.66602 0.5 3.99902 2.5l87 151c2.66699 5.33301 7.66699 8 15 8h120c4.66699 0 7.83398 -1.33301 9.50098 -4s1.16699 -6 -1.5 -10l-108 -168c-1.33301 -2.66699 -1.66602 -5 -0.999023 -7l122 -311c0.666992 -1.33301 1 -3 1 -5c0 -6 -3.66699 -9 -11 -9h-121
c-6.66699 0 -11 3.33301 -13 10l-64 198c-0.666992 2 -1.66699 3.16699 -3 3.5s-2.33301 -0.5 -3 -2.5l-33 -52c-1.33301 -2.66699 -2 -4.66699 -2 -6v-139c0 -3.33301 -1.16699 -6.16602 -3.5 -8.49902s-5.16602 -3.5 -8.49902 -3.5h-117
c-3.33301 0 -6.16602 1.16699 -8.49902 3.5z" />
    <glyph glyph-name="l" unicode="l" horiz-adv-x="209" 
d="M37.5 3.5c-2.33301 2.33301 -3.5 5.16602 -3.5 8.49902v676c0 3.33301 1.16699 6.16602 3.5 8.49902s5.16602 3.5 8.49902 3.5h117c3.33301 0 6.16602 -1.16699 8.49902 -3.5s3.5 -5.16602 3.5 -8.49902v-676c0 -3.33301 -1.16699 -6.16602 -3.5 -8.49902
s-5.16602 -3.5 -8.49902 -3.5h-117c-3.33301 0 -6.16602 1.16699 -8.49902 3.5z" />
    <glyph glyph-name="m" unicode="m" horiz-adv-x="675" 
d="M607 476c22.667 -30.667 33.9971 -73.6641 33.9971 -128.997v-335c0 -3.33301 -1.16699 -6.16602 -3.5 -8.49902s-5.16602 -3.5 -8.49902 -3.5h-117c-3.33301 0 -6.16602 1.16699 -8.49902 3.5s-3.5 5.16602 -3.5 8.49902v326c0 20 -4 35.5 -12 46.5
s-18.667 16.5 -32 16.5c-14.667 0 -26.167 -5.5 -34.5 -16.5s-12.5 -26.5 -12.5 -46.5v-326c0 -3.33301 -1.16699 -6.16602 -3.5 -8.49902s-5.16602 -3.5 -8.49902 -3.5h-116c-3.33301 0 -6.16602 1.16699 -8.49902 3.5s-3.5 5.16602 -3.5 8.49902v326
c0 20 -4 35.5 -12 46.5s-18.667 16.5 -32 16.5c-14.667 0 -26.167 -5.5 -34.5 -16.5s-12.5 -26.5 -12.5 -46.5v-326c0 -3.33301 -1.16699 -6.16602 -3.5 -8.49902s-5.16602 -3.5 -8.49902 -3.5h-117c-3.33301 0 -6.16602 1.16699 -8.49902 3.5s-3.5 5.16602 -3.5 8.49902
v490c0 3.33301 1.16699 6.16602 3.5 8.49902s5.16602 3.5 8.49902 3.5h117c3.33301 0 6.16602 -1.16699 8.49902 -3.5s3.5 -5.16602 3.5 -8.49902v-13c0 -2 0.666992 -3.33301 2 -4s2.66602 -0.333984 3.99902 0.999023c13.333 13.333 28 22.666 44 27.999s31.333 8 46 8
c52 0 89.333 -20.667 112 -62l2 -1c2 0 4.33301 2 7 6c14 21.333 30.833 36.166 50.5 44.499s39.5 12.5 59.5 12.5c45.333 0 79.333 -15.333 102 -46z" />
    <glyph glyph-name="n" unicode="n" 
d="M379 477c22.667 -30 33.9971 -72 33.9971 -126v-339c0 -3.33301 -1.16699 -6.16602 -3.5 -8.49902s-5.16602 -3.5 -8.49902 -3.5h-117c-3.33301 0 -6.16602 1.16699 -8.49902 3.5s-3.5 5.16602 -3.5 8.49902v328c0 19.333 -3.83301 34.333 -11.5 45
s-18.834 16 -33.501 16c-15.333 0 -27.166 -5.5 -35.499 -16.5s-12.5 -26.5 -12.5 -46.5v-326c0 -3.33301 -1.16699 -6.16602 -3.5 -8.49902s-5.16602 -3.5 -8.49902 -3.5h-117c-3.33301 0 -6.16602 1.16699 -8.49902 3.5s-3.5 5.16602 -3.5 8.49902v490
c0 3.33301 1.16699 6.16602 3.5 8.49902s5.16602 3.5 8.49902 3.5h117c3.33301 0 6.16602 -1.16699 8.49902 -3.5s3.5 -5.16602 3.5 -8.49902v-19c0 -2 0.833008 -3 2.5 -3s3.83398 1.33301 6.50098 4c21.333 25.333 51 38 89 38c45.333 0 79.333 -15 102 -45z" />
    <glyph glyph-name="o" unicode="o" horiz-adv-x="442" 
d="M81.5 37c-33.667 30 -50.5 71 -50.5 123v194c0 50.667 17 91.334 51 122.001s80.333 46 139 46c59.333 0 106 -15.333 140 -46s51 -71.334 51 -122.001v-194c0 -52 -16.833 -93 -50.5 -123s-80.5 -45 -140.5 -45c-59.333 0 -105.833 15 -139.5 45zM257 130
c9.33301 10.667 14 24.334 14 41.001v173c0 16.667 -4.66699 30.334 -14 41.001s-21.333 16 -36 16s-26.5 -5.33301 -35.5 -16s-13.5 -24.334 -13.5 -41.001v-173c0 -16.667 4.5 -30.334 13.5 -41.001s20.833 -16 35.5 -16s26.667 5.33301 36 16z" />
    <glyph glyph-name="p" unicode="p" horiz-adv-x="448" 
d="M382.5 477.5c23.667 -29.667 35.4971 -70.501 35.4971 -122.501v-195c0 -54 -12 -95.5 -36 -124.5s-58.667 -43.5 -104 -43.5c-14.667 0 -30 2.83301 -46 8.5s-30.667 15.834 -44 30.501c-1.33301 2 -2.66602 2.66699 -3.99902 2s-2 -2 -2 -4v-203
c0 -3.33301 -1.16699 -6.16602 -3.5 -8.49902s-5.16602 -3.5 -8.49902 -3.5h-117c-3.33301 0 -6.16602 1.16699 -8.49902 3.5s-3.5 5.16602 -3.5 8.49902v676c0 3.33301 1.16699 6.16602 3.5 8.49902s5.16602 3.5 8.49902 3.5h117c3.33301 0 6.16602 -1.16699 8.49902 -3.5
s3.5 -5.16602 3.5 -8.49902v-16c0 -1.33301 0.666992 -2 2 -2c2.66699 0 5.33398 1.66699 8.00098 5c22.667 22 51.334 33 86.001 33c46 0 80.833 -14.833 104.5 -44.5zM263.997 385.999c-8.66699 10.667 -20.334 16 -35.001 16c-14 0 -25.333 -5.33301 -34 -16
s-13 -24.667 -13 -42v-173c0 -17.333 4.33301 -31.333 13 -42s20 -16 34 -16c14.667 0 26.334 5.33301 35.001 16s13 24.667 13 42v173c0 17.333 -4.33301 31.333 -13 42z" />
    <glyph glyph-name="q" unicode="q" horiz-adv-x="448" 
d="M269.5 510.5c2.33301 2.33301 5.16602 3.50098 8.49902 3.50098h117c3.33301 0 6.16602 -1.16699 8.49902 -3.5s3.5 -5.16602 3.5 -8.49902v-676c0 -3.33301 -1.16699 -6.16602 -3.5 -8.49902s-5.16602 -3.5 -8.49902 -3.5h-117
c-3.33301 0 -6.16602 1.16699 -8.49902 3.5s-3.5 5.16602 -3.5 8.49902v203c0 2 -0.666992 3.16699 -2 3.5s-2.66602 -0.166992 -3.99902 -1.5c-13.333 -14.667 -28 -24.834 -44 -30.501s-31.333 -8.5 -46 -8.5c-45.333 0 -79.833 14.5 -103.5 43.5s-35.5 70.5 -35.5 124.5
v195c0 52 11.667 92.833 35 122.5s58 44.5 104 44.5c36.667 0 66.667 -12.333 90 -37c1.33301 -1.33301 2.66602 -1.83301 3.99902 -1.5s2 1.5 2 3.5v15c0 3.33301 1.16699 6.16602 3.5 8.49902zM250 125.501c8.66699 8.33301 14 19.168 16 32.501v199
c-2 13.333 -7.33301 24.166 -16 32.499s-19 12.5 -31 12.5c-14 0 -25.333 -5.33301 -34 -16s-13 -24.667 -13 -42v-173c0 -17.333 4.33301 -31.333 13 -42s20 -16 34 -16c12 0 22.333 4.16699 31 12.5z" />
    <glyph glyph-name="r" unicode="r" horiz-adv-x="324" 
d="M310 510c5.33301 -3.33301 7.33301 -8.33105 6 -14.998l-19 -117c-0.666992 -7.33301 -5.33398 -10 -14.001 -8c-7.33301 2.66699 -16.333 4 -27 4c-10 0 -18.667 -1.33301 -26 -4c-15.333 -2.66699 -27.666 -11.834 -36.999 -27.501s-14 -33.834 -14 -54.501v-275
c0 -3.33301 -1.16699 -6.16602 -3.5 -8.49902s-5.16602 -3.5 -8.49902 -3.5h-117c-3.33301 0 -6.16602 1.16699 -8.49902 3.5s-3.5 5.16602 -3.5 8.49902v489c0 3.33301 1.16699 6.16602 3.5 8.49902s5.16602 3.5 8.49902 3.5h117c3.33301 0 6.16602 -1.16699 8.49902 -3.5
s3.5 -5.16602 3.5 -8.49902v-39c0 -2.66699 0.5 -4.16699 1.5 -4.5s2.16699 0.5 3.5 2.5c18 39.333 46 59 84 59c18 0 32 -3.33301 42 -10z" />
    <glyph glyph-name="s" unicode="s" horiz-adv-x="412" 
d="M74.5 33.5c-33.667 27 -50.498 63.167 -50.498 108.5v7c0 3.33301 1.16699 6.16602 3.5 8.49902s5.16602 3.5 8.49902 3.5h110c3.33301 0 6.16602 -1.16699 8.49902 -3.5s3.5 -5.16602 3.5 -8.49902v-3c0 -14 5 -25.5 15 -34.5s22.333 -13.5 37 -13.5
c13.333 0 23.833 3.83301 31.5 11.5s11.5 17.5 11.5 29.5c0 14.667 -6.33301 26.167 -19 34.5s-26.834 15.333 -42.501 21s-26.5 9.5 -32.5 11.5c-36.667 13.333 -67.5 31.833 -92.5 55.5s-37.5 57.834 -37.5 102.501c0 48.667 16 87 48 115s74.667 42 128 42
c55.333 0 99.166 -14.667 131.499 -44s48.5 -69 48.5 -119c0 -3.33301 -1.16699 -6.16602 -3.5 -8.49902s-5.16602 -3.5 -8.49902 -3.5h-107c-3.33301 0 -6.16602 1.16699 -8.49902 3.5s-3.5 5.16602 -3.5 8.49902v8c0 13.333 -4.16699 24.166 -12.5 32.499
s-19.166 12.5 -32.499 12.5c-14 0 -25 -4.5 -33 -13.5s-12 -19.5 -12 -31.5c0 -16 6.83301 -28.5 20.5 -37.5s34.5 -18.833 62.5 -29.5c28.667 -10.667 53.167 -21.5 73.5 -32.5s37.833 -26.667 52.5 -47s22 -45.833 22 -76.5c0 -46 -16.833 -82.5 -50.5 -109.5
s-78.5 -40.5 -134.5 -40.5c-56.667 0 -101.834 13.5 -135.501 40.5z" />
    <glyph glyph-name="t" unicode="t" horiz-adv-x="291" 
d="M268.5 418.5c-2.33301 -2.33301 -5.16309 -3.50391 -8.49609 -3.50391h-56c-3.33301 0 -5 -1.66699 -5 -5v-238c0 -19.333 3.66699 -32.666 11 -39.999s18.333 -10.666 33 -9.99902h7c3.33301 0 6.16602 -1.16699 8.49902 -3.5s3.5 -5.16602 3.5 -8.49902v-98
c0 -3.33301 -1.16699 -6.16602 -3.5 -8.49902s-5.16602 -3.5 -8.49902 -3.5h-40c-48.667 0 -85.334 8.16699 -110.001 24.5s-37 47.5 -37 93.5v292c0 3.33301 -1.66699 5 -5 5h-33c-3.33301 0 -6.16602 1.16699 -8.49902 3.5s-3.5 5.16602 -3.5 8.49902v75
c0 3.33301 1.16699 6.16602 3.5 8.49902s5.16602 3.5 8.49902 3.5h33c3.33301 0 5 1.66699 5 5v111c0 3.33301 1.16699 6.16602 3.5 8.49902s5.16602 3.5 8.49902 3.5h112c3.33301 0 6.16602 -1.16699 8.49902 -3.5s3.5 -5.16602 3.5 -8.49902v-111
c0 -3.33301 1.66699 -5 5 -5h56c3.33301 0 6.16602 -1.16699 8.49902 -3.5s3.5 -5.16602 3.5 -8.49902v-75c0 -3.33301 -1.16699 -6.16602 -3.5 -8.49902z" />
    <glyph glyph-name="u" unicode="u" 
d="M271.5 510.5c2.33301 2.33301 5.16504 3.5 8.49805 3.5h117c3.33301 0 6.16602 -1.16699 8.49902 -3.5s3.5 -5.16602 3.5 -8.49902v-490c0 -3.33301 -1.16699 -6.16602 -3.5 -8.49902s-5.16602 -3.5 -8.49902 -3.5h-117c-3.33301 0 -6.16602 1.16699 -8.49902 3.5
s-3.5 5.16602 -3.5 8.49902v17c0 2 -0.666992 3.33301 -2 4s-2.66602 0 -3.99902 -2c-10 -14 -22.5 -23.833 -37.5 -29.5s-32.5 -8.5 -52.5 -8.5c-40 0 -73 12.167 -99 36.5s-39 61.833 -39 112.5v360c0 3.33301 1.16699 6.16602 3.5 8.49902s5.16602 3.5 8.49902 3.5h117
c3.33301 0 6.16602 -1.16699 8.49902 -3.5s3.5 -5.16602 3.5 -8.49902v-329c0 -19.333 3.83301 -34.166 11.5 -44.499s18.834 -15.5 33.501 -15.5s26.334 5.66699 35.001 17s13 26.666 13 45.999v326c0 3.33301 1.16699 6.16602 3.5 8.49902z" />
    <glyph glyph-name="v" unicode="v" horiz-adv-x="436" 
d="M137 10l-121 492v4c0 6 3.66699 9 11 9h129c8 0 12.333 -3.66699 13 -11l46 -275c0.666992 -2 1.66699 -3 3 -3s2.33301 1 3 3l45 275c0.666992 7.33301 5 11 13 11l129 -2c9.33301 0 13 -4.33301 11 -13l-120 -490c-2 -6.66699 -6.66699 -10 -14 -10h-134
c-7.33301 -0 -12 3.33301 -14 10z" />
    <glyph glyph-name="w" unicode="w" horiz-adv-x="613" 
d="M124 11l-108.002 491v4c0 6 3.66699 9 11 9h111c8 0 12.333 -3.66699 13 -11l43 -274c0.666992 -2 1.66699 -3 3 -3s2.33301 1 3 3l44 274c0.666992 7.33301 5 11 13 11h99c8 0 12.333 -3.66699 13 -11l47 -275c0.666992 -2 1.66699 -2.83301 3 -2.5s2.33301 1.5 3 3.5
l42 274c0.666992 7.33301 5 11 13 11l110 -2c8.66699 0 12 -4.33301 10 -13l-107 -489c-1.33301 -7.33301 -5.66602 -11 -12.999 -11h-114c-8 0 -12.333 3.66699 -13 11l-43 254c-0.666992 2 -1.66699 3 -3 3s-2.33301 -1 -3 -3l-41 -254c-0.666992 -7.33301 -5 -11 -13 -11
h-110c-7.33301 0 -11.666 3.66699 -12.999 11z" />
    <glyph glyph-name="x" unicode="x" horiz-adv-x="439" 
d="M16.5 3.5c-1.66699 2.33301 -1.50195 5.83301 0.498047 10.5l114 240c0.666992 2 0.666992 4 0 6l-114 240c-1.33301 2.66699 -2 4.66699 -2 6c0 5.33301 3.66699 8 11 8h128c6.66699 0 11.334 -3 14.001 -9l49 -113c2 -4 4 -4 6 0l49 113c2.66699 6 7.33398 9 14.001 9
h127c4.66699 0 7.83398 -1.16699 9.50098 -3.5s1.5 -5.83301 -0.5 -10.5l-114 -240c-0.666992 -2 -0.666992 -4 0 -6l114 -240c1.33301 -2.66699 2 -4.66699 2 -6c0 -5.33301 -3.66699 -8 -11 -8h-127c-7.33301 0 -12 3 -14 9l-49 117c-2 5.33301 -4 5.33301 -6 0l-49 -117
c-2 -6 -6.66699 -9 -14 -9h-128c-4.66699 0 -7.83398 1.16699 -9.50098 3.5z" />
    <glyph glyph-name="y" unicode="y" horiz-adv-x="423" 
d="M34 -195.5c-1.33301 2.33301 -2.00195 5.16602 -2.00195 8.49902v92c0 8 3 12 9 12c34.667 0.666992 59.334 6.16699 74.001 16.5s23 31.5 25 63.5l-1 6l-126 499v4c0 6 3.66699 9 11 9h126c8 0 12.333 -3.66699 13 -11l46 -297c0.666992 -2.66699 1.66699 -4 3 -4
s2.33301 1.33301 3 4l44 297c0.666992 7.33301 5 11 13 11l126 -2c9.33301 0 13 -4.33301 11 -13l-132 -519c-13.333 -48.667 -27.5 -85.167 -42.5 -109.5s-37 -42.166 -66 -53.499s-70.833 -17 -125.5 -17h-5c-1.33301 0 -2.66602 1.16699 -3.99902 3.5z" />
    <glyph glyph-name="z" unicode="z" horiz-adv-x="373" 
d="M21.5 3.5c-2.33301 2.33301 -3.5 5.16602 -3.5 8.49902v108c0 5.33301 1.33301 10.333 4 15l156 246c2 4 1 6 -3 6h-139c-3.33301 0 -6.16602 1.16699 -8.49902 3.5s-3.5 5.16602 -3.5 8.49902v103c0 3.33301 1.16699 6.16602 3.5 8.49902s5.16602 3.5 8.49902 3.5h301
c3.33301 0 6.16602 -1.16699 8.49902 -3.5s3.5 -5.16602 3.5 -8.49902v-107c0 -5.33301 -1.33301 -10.333 -4 -15l-162 -246c-2 -4 -1 -6 3 -6h157c3.33301 0 6.16602 -1.16699 8.49902 -3.5s3.5 -5.16602 3.5 -8.49902v-104c0 -3.33301 -1.16699 -6.16602 -3.5 -8.49902
s-5.16602 -3.5 -8.49902 -3.5h-313c-3.33301 0 -6.16602 1.16699 -8.49902 3.5z" />
    <glyph glyph-name="braceleft" unicode="{" horiz-adv-x="344" 
d="M129.5 -114.5c-21.667 21.667 -32.5 52.167 -32.5 91.5v207c0 54.667 -19 84.334 -57 89.001c-8 1.33301 -12 5.66602 -12 12.999v87c0 8 4 12.333 12 13c38 5.33301 57 34.666 57 87.999v203c0 39.333 10.833 69.666 32.5 90.999s52.167 32 91.5 32h83
c3.33301 0 6.16602 -1.16699 8.49902 -3.5s3.5 -5.16602 3.5 -8.49902v-97c0 -3.33301 -1.16699 -6.16602 -3.5 -8.49902s-5.16602 -3.5 -8.49902 -3.5h-18c-14 0 -25.5 -5.83301 -34.5 -17.5s-13.5 -26.834 -13.5 -45.501v-161c0 -63.333 -18.667 -104 -56 -122
c-3.33301 -2 -3.33301 -4 0 -6c37.333 -20 56 -61.333 56 -124v-165c0 -18.667 4.5 -33.834 13.5 -45.501s20.5 -17.5 34.5 -17.5h18c3.33301 0 6.16602 -1.16699 8.49902 -3.5s3.5 -5.16602 3.5 -8.49902v-98c0 -3.33301 -1.16699 -6.16602 -3.5 -8.49902
s-5.16602 -3.5 -8.49902 -3.5h-83c-39.333 0 -69.833 10.833 -91.5 32.5z" />
    <glyph glyph-name="bar" unicode="|" horiz-adv-x="186" 
d="M25.5 -76.5c-2.33301 2.33301 -3.5 5.16602 -3.5 8.49902v816c0 3.33301 1.16699 6.16602 3.5 8.49902s5.16602 3.5 8.49902 3.5h117c3.33301 0 6.16602 -1.16699 8.49902 -3.5s3.5 -5.16602 3.5 -8.49902v-816c0 -3.33301 -1.16699 -6.16602 -3.5 -8.49902
s-5.16602 -3.5 -8.49902 -3.5h-117c-3.33301 0 -6.16602 1.16699 -8.49902 3.5z" />
    <glyph glyph-name="braceright" unicode="}" horiz-adv-x="344" 
d="M40 -147c-3.33301 0 -6.16602 1.16992 -8.49902 3.50293s-3.5 5.16602 -3.5 8.49902v98c0 3.33301 1.16699 6.16602 3.5 8.49902s5.16602 3.5 8.49902 3.5h18c14 0 25.667 5.83301 35 17.5s14 26.834 14 45.501v165c0 62.667 18.333 104 55 124c3.33301 2 3.33301 4 0 6
c-36.667 18 -55 58.667 -55 122v161c0 18.667 -4.66699 33.834 -14 45.501s-21 17.5 -35 17.5h-18c-3.33301 0 -6.16602 1.16699 -8.49902 3.5s-3.5 5.16602 -3.5 8.49902v97c0 3.33301 1.16699 6.16602 3.5 8.49902s5.16602 3.5 8.49902 3.5h84
c39.333 0 69.833 -10.833 91.5 -32.5s32.5 -51.834 32.5 -90.501v-203c0 -54 18.667 -83.333 56 -88c8 -0.666992 12 -5 12 -13v-87c0 -7.33301 -4 -11.666 -12 -12.999c-37.333 -4.66699 -56 -34.334 -56 -89.001v-207c0 -39.333 -10.833 -69.833 -32.5 -91.5
s-52.167 -32.5 -91.5 -32.5h-84z" />
    <glyph glyph-name="asciitilde" unicode="~" horiz-adv-x="490" 
d="M289 208.5c-11.333 4.33301 -25.668 11.168 -43.001 20.501c-4.66699 2.66699 -11.667 7 -21 13s-18 10.5 -26 13.5s-15.667 4.5 -23 4.5c-12.667 0 -24.5 -3.33301 -35.5 -10s-20.5 -15.667 -28.5 -27c-4.66699 -6.66699 -10 -8 -16 -4l-63 38c-6 4 -8 9.33301 -6 16
c10.667 31.333 28.5 57.166 53.5 77.499s52.5 30.5 82.5 30.5c14.667 0 28.167 -2.16699 40.5 -6.5s25.166 -10.5 38.499 -18.5c19.333 -12 33.833 -20.333 43.5 -25s20.5 -7 32.5 -7c20 0 38 11.667 54 35c4.66699 6.66699 10.334 8 17.001 4l67 -41
c6.66699 -4 8.33398 -9.66699 5.00098 -17c-16 -30 -35.333 -54.667 -58 -74s-47.667 -29 -75 -29c-14.667 0 -27.667 2.16699 -39 6.5z" />
    <glyph glyph-name="uni00A0" unicode="&#xa0;" horiz-adv-x="200" 
 />
    <glyph glyph-name="exclamdown" unicode="&#xa1;" horiz-adv-x="279" 
d="M196 685.5c14.667 -15 21.998 -33.833 21.998 -56.5s-7.16699 -41.334 -21.5 -56.001s-33.166 -22 -56.499 -22s-42.333 7.33301 -57 22s-22 33.334 -22 56.001c0 23.333 7.5 42.333 22.5 57s33.833 22 56.5 22s41.334 -7.5 56.001 -22.5zM86.498 465.5
c2.33301 2.33301 5.16602 3.5 8.49902 3.5h88c3.33301 0 6.16602 -1.16699 8.49902 -3.5s3.5 -5.16602 3.5 -8.49902l14 -436c0 -3.33301 -1.16699 -6.16602 -3.5 -8.49902s-5.16602 -3.5 -8.49902 -3.5h-117c-3.33301 0 -6.16602 1.16699 -8.49902 3.5
s-3.5 5.16602 -3.5 8.49902l15 436c0 3.33301 1.16699 6.16602 3.5 8.49902z" />
    <glyph glyph-name="cent" unicode="&#xa2;" horiz-adv-x="434" 
d="M405.5 423.5c-2.33301 -2.33301 -5.16504 -3.49805 -8.49805 -3.49805l-117 -5c-8 0 -12 4 -12 12v12c0 14.667 -4.5 27 -13.5 37s-20.5 15 -34.5 15c-14.667 0 -26.334 -5.33301 -35.001 -16s-13 -24.667 -13 -42v-172c0 -17.333 4.33301 -31.333 13 -42
s20.334 -16 35.001 -16c14 0 25.5 5.16699 34.5 15.5s13.5 22.5 13.5 36.5v13c0 3.33301 1.16699 6.16602 3.5 8.49902s5.16602 3.5 8.49902 3.5l117 -1c3.33301 0 6.16602 -1.16699 8.49902 -3.5s3.5 -5.16602 3.5 -8.49902v-23c0 -40.667 -11.333 -74.667 -34 -102
s-54.334 -45.333 -95.001 -54c-3.33301 -1.33301 -5 -3.33301 -5 -6l3 -69c0 -8 -3.66699 -12 -11 -12h-95c-7.33301 0 -11 4 -11 12l3 69c0 2.66699 -1.66699 4.66699 -5 6c-40.667 9.33301 -72.167 28.166 -94.5 56.499s-33.5 63.5 -33.5 105.5v194
c0 41.333 11.167 76.166 33.5 104.499s53.833 47.166 94.5 56.499c3.33301 1.33301 5 3.33301 5 6l-3 70c0 8 3.66699 12 11 12h95c7.33301 0 11 -4 11 -12l-3 -69c0 -2.66699 1.66699 -4.66699 5 -6c40.667 -9.33301 72.334 -28 95.001 -56s34 -61.333 34 -100v-18
c0 -3.33301 -1.16699 -6.16602 -3.5 -8.49902z" />
    <glyph glyph-name="sterling" unicode="&#xa3;" horiz-adv-x="517" 
d="M229 123c0.666992 -1.33301 2.00098 -2.00195 4.00098 -2.00195h251c3.33301 0 6.16602 -1.16699 8.49902 -3.5s3.5 -5.16602 3.5 -8.49902v-97c0 -3.33301 -1.16699 -6.16602 -3.5 -8.49902s-5.16602 -3.5 -8.49902 -3.5h-395c-3.33301 0 -6.16602 1.16699 -8.49902 3.5
s-3.5 5.16602 -3.5 8.49902v100c0 5.33301 2 10.333 6 15c10.667 10.667 18.167 23.5 22.5 38.5s6.5 33.833 6.5 56.5v60c0 3.33301 -1.66699 5 -5 5h-51c-3.33301 0 -6.16602 1.16699 -8.49902 3.5s-3.5 5.16602 -3.5 8.49902v90c0 3.33301 1.16699 6.16602 3.5 8.49902
s5.16602 3.5 8.49902 3.5h51c3.33301 0 5 1.66699 5 5v84c0 68 17.167 121.333 51.5 160s80.833 58 139.5 58c49.333 0 89.833 -14.333 121.5 -43s53.167 -69.667 64.5 -123v-3c0 -6 -3.33301 -9.33301 -10 -10l-113 -13h-2c-6.66699 0 -10.667 3.66699 -12 11
c-4.66699 20 -10.834 35 -18.501 45s-17.834 15 -30.501 15c-17.333 0 -30 -7.5 -38 -22.5s-12 -37.5 -12 -67.5v-91c0 -3.33301 1.66699 -5 5 -5h130c3.33301 0 6.16602 -1.16699 8.49902 -3.5s3.5 -5.16602 3.5 -8.49902v-90c0 -3.33301 -1.16699 -6.16602 -3.5 -8.49902
s-5.16602 -3.5 -8.49902 -3.5h-130c-3.33301 0 -5 -1.66699 -5 -5v-60c0 -40 -8 -71.667 -24 -95c-0.666992 -1.33301 -0.666992 -2.66602 0 -3.99902z" />
    <glyph glyph-name="currency" unicode="&#xa4;" horiz-adv-x="567" 
d="M475 200c-0.666992 -2.66699 -0.333008 -4.99805 1 -6.99805l65 -65c2.66699 -2.66699 4 -5.66699 4 -9c0 -2.66699 -1.33301 -5.33398 -4 -8.00098l-72 -64c-2.66699 -2.66699 -5.66699 -4 -9 -4c-2.66699 0 -5.33398 1.33301 -8.00098 4l-62 61
c-1.33301 2 -3.66602 2.33301 -6.99902 1c-32 -16.667 -66.333 -25 -103 -25c-35.333 0 -68.333 7.66699 -99 23c-2.66699 1.33301 -5 1 -7 -1l-59 -59c-2.66699 -2.66699 -5.33398 -4 -8.00098 -4c-2 0 -5 1.33301 -9 4l-72 64c-2.66699 2.66699 -4 5.33398 -4 8.00098
c0 3.33301 1.33301 6.33301 4 9l61 61c2 2 2.33301 4.33301 1 7c-19.333 31.333 -29 67 -29 107c0 37.333 8.66699 71.666 26 102.999c1.33301 3.33301 1 5.66602 -1 6.99902l-65 65c-2.66699 2.66699 -4 5.66699 -4 9c0 2.66699 1.33301 5.33398 4 8.00098l73 63
c2.66699 2.66699 5.66699 4 9 4c2.66699 0 5.33398 -1.33301 8.00098 -4l61 -61c2 -2 4.33301 -2.33301 7 -1c31.333 17.333 65.666 26 102.999 26c39.333 0 75 -9.33301 107 -28c3.33301 -0.666992 5.66602 -0.333984 6.99902 0.999023l64 63
c2.66699 2.66699 5.33398 4 8.00098 4c3.33301 0 6.33301 -1.33301 9 -4l72 -63c2.66699 -2.66699 4 -5.33398 4 -8.00098c0 -3.33301 -1.33301 -6.33301 -4 -9l-69 -69c-1.33301 -1.33301 -1.66602 -3.66602 -0.999023 -6.99902c16 -30.667 24 -63.667 24 -99
c0 -38 -8.66699 -72.333 -26 -103zM209.501 232.502c19.667 -19.667 43.167 -29.5 70.5 -29.5s50.833 9.66699 70.5 29s29.5 43 29.5 71c0 27.333 -9.83301 50.833 -29.5 70.5s-43.167 29.5 -70.5 29.5s-50.833 -9.83301 -70.5 -29.5s-29.5 -43.167 -29.5 -70.5
s9.83301 -50.833 29.5 -70.5z" />
    <glyph glyph-name="yen" unicode="&#xa5;" horiz-adv-x="531" 
d="M475 696.5c2 -2.33301 2.33203 -5.83301 0.999023 -10.5l-120 -345c-0.666992 -4 0.666016 -6 3.99902 -6h95c3.33301 0 6.16602 -1.16699 8.49902 -3.5s3.5 -5.16602 3.5 -8.49902v-54c0 -3.33301 -1.16699 -6.16602 -3.5 -8.49902s-5.16602 -3.5 -8.49902 -3.5h-116
c-3.33301 0 -5 -1.66699 -5 -5v-38c0 -3.33301 1.66699 -5 5 -5h116c3.33301 0 6.16602 -1.16699 8.49902 -3.5s3.5 -5.16602 3.5 -8.49902v-54c0 -3.33301 -1.16699 -6.16602 -3.5 -8.49902s-5.16602 -3.5 -8.49902 -3.5h-116c-3.33301 0 -5 -1.66699 -5 -5v-113
c0 -3.33301 -1.16699 -6.16602 -3.5 -8.49902s-5.16602 -3.5 -8.49902 -3.5h-117c-3.33301 0 -6.16602 1.16699 -8.49902 3.5s-3.5 5.16602 -3.5 8.49902v113c0 3.33301 -1.66699 5 -5 5h-117c-3.33301 0 -6.16602 1.16699 -8.49902 3.5s-3.5 5.16602 -3.5 8.49902v54
c0 3.33301 1.16699 6.16602 3.5 8.49902s5.16602 3.5 8.49902 3.5h117c3.33301 0 5 1.66699 5 5v38c0 3.33301 -1.66699 5 -5 5h-117c-3.33301 0 -6.16602 1.16699 -8.49902 3.5s-3.5 5.16602 -3.5 8.49902v54c0 3.33301 1.16699 6.16602 3.5 8.49902
s5.16602 3.5 8.49902 3.5h96c4 0 5.33301 2 4 6l-118 345c-0.666992 1.33301 -1 3 -1 5c0 6 3.33301 9 10 9h123c7.33301 0 12 -3.33301 14 -10l62 -239c0.666992 -2 1.66699 -3 3 -3s2.33301 1 3 3l62 239c2 6.66699 6.66699 10 14 10h123c4 0 7 -1.16699 9 -3.5z" />
    <glyph glyph-name="brokenbar" unicode="&#xa6;" horiz-adv-x="186" 
d="M25.5 388.5c-2.33301 2.33301 -3.5 5.16602 -3.5 8.49902v351c0 3.33301 1.16699 6.16602 3.5 8.49902s5.16602 3.5 8.49902 3.5h117c3.33301 0 6.16602 -1.16699 8.49902 -3.5s3.5 -5.16602 3.5 -8.49902v-351c0 -3.33301 -1.16699 -6.16602 -3.5 -8.49902
s-5.16602 -3.5 -8.49902 -3.5h-117c-3.33301 0 -6.16602 1.16699 -8.49902 3.5zM25.5 -76.5c-2.33301 2.33301 -3.5 5.16602 -3.5 8.49902v348c0 3.33301 1.16699 6.16602 3.5 8.49902s5.16602 3.5 8.49902 3.5h117c3.33301 0 6.16602 -1.16699 8.49902 -3.5
s3.5 -5.16602 3.5 -8.49902v-348c0 -3.33301 -1.16699 -6.16602 -3.5 -8.49902s-5.16602 -3.5 -8.49902 -3.5h-117c-3.33301 0 -6.16602 1.16699 -8.49902 3.5z" />
    <glyph glyph-name="section" unicode="&#xa7;" horiz-adv-x="437" 
d="M83.5 -157.5c-34.333 30.333 -51.498 69.8369 -51.498 118.504v17c0 3.33301 1.16699 6.16602 3.5 8.49902s5.16602 3.5 8.49902 3.5h117c3.33301 0 6.16602 -1.16699 8.49902 -3.5s3.5 -5.16602 3.5 -8.49902v-7c0 -15.333 4.5 -28 13.5 -38s20.167 -15 33.5 -15
c14 0 25.5 5 34.5 15s13.5 22.333 13.5 37c0 18.667 -9 34.834 -27 48.501s-45.667 30.5 -83 50.5c-30 16.667 -54.167 33 -72.5 49s-31.833 35 -40.5 57c-9.33301 21.333 -14 45.333 -14 72c0 18 2.16699 34.333 6.5 49s11.5 29 21.5 43c13.333 20 30.333 35.667 51 47
c1.33301 1.33301 2 2.66602 2 3.99902s-0.666992 2.33301 -2 3c-26 21.333 -46 43.666 -60 66.999s-21 50.333 -21 81c0 32 8 60.667 24 86s38.167 45.166 66.5 59.499s61.166 21.5 98.499 21.5c56 0 101.333 -15.833 136 -47.5s52 -73.167 52 -124.5v-11
c0 -3.33301 -1.16699 -6.16602 -3.5 -8.49902s-5.16602 -3.5 -8.49902 -3.5h-117c-3.33301 0 -6.16602 1.16699 -8.49902 3.5s-3.5 5.16602 -3.5 8.49902v4c0 16.667 -4.33301 30.5 -13 41.5s-20 16.5 -34 16.5c-14.667 0 -26.334 -5.33301 -35.001 -16s-13 -23.667 -13 -39
c0 -20.667 6.83301 -37.5 20.5 -50.5s36.5 -27.167 68.5 -42.5c35.333 -18.667 62 -33.834 80 -45.501s33.333 -25.834 46 -42.501c18 -24.667 27 -53.667 27 -87s-6.66699 -62.333 -20 -87c-14 -28 -34.333 -49 -61 -63c-2 -0.666992 -3 -1.66699 -3 -3
s0.666992 -2.66602 2 -3.99902c26.667 -19.333 46.5 -39.833 59.5 -61.5s19.5 -48.5 19.5 -80.5c0 -50.667 -17.5 -91.334 -52.5 -122.001s-80.833 -46 -137.5 -46c-56 0 -101.167 15.167 -135.5 45.5zM263.002 213.004c5.33301 10.667 8 23.668 8 39.001
c0 18 -4.33301 33 -13 45c-4 5.33301 -9.33301 9.66602 -16 12.999s-13.667 5 -21 5c-9.33301 0 -17.333 -2.33301 -24 -7s-11.667 -10.334 -15 -17.001c-6 -9.33301 -9 -22.666 -9 -39.999c0 -16 3 -29 9 -39c7.33301 -16 20.666 -24 39.999 -24
c18.667 0 32.334 8.33301 41.001 25z" />
    <glyph glyph-name="dieresis" unicode="&#xa8;" horiz-adv-x="369" 
d="M219.5 594.5c-15 15 -22.5 33.833 -22.5 56.5c0 23.333 7.33301 42.333 22 57s33.667 22 57 22s42.333 -7.33301 57 -22s22 -33.667 22 -57c0 -22.667 -7.5 -41.5 -22.5 -56.5s-33.833 -22.5 -56.5 -22.5s-41.5 7.5 -56.5 22.5zM35.5 594.5
c-15 15 -22.5 33.833 -22.5 56.5c0 23.333 7.33301 42.333 22 57s33.667 22 57 22s42.333 -7.33301 57 -22s22 -33.667 22 -57c0 -22.667 -7.5 -41.5 -22.5 -56.5s-33.833 -22.5 -56.5 -22.5s-41.5 7.5 -56.5 22.5z" />
    <glyph glyph-name="copyright" unicode="&#xa9;" horiz-adv-x="791" 
d="M210.5 39c-55 31.333 -98.166 74.5 -129.499 129.5s-47 116.5 -47 184.5c0 66.667 15.667 127 47 181s74.5 96.5 129.5 127.5s116.5 46.5 184.5 46.5s129.667 -15.5 185 -46.5s98.666 -73.5 129.999 -127.5s47 -114.333 47 -181c0 -68 -15.667 -129.5 -47 -184.5
s-74.5 -98.167 -129.5 -129.5s-116.833 -47 -185.5 -47c-68 0 -129.5 15.667 -184.5 47zM539.501 106.5c43 24.333 76.667 58.166 101 101.499s36.5 91.666 36.5 144.999c0 52 -12.167 99 -36.5 141s-58 75.167 -101 99.5s-91.167 36.5 -144.5 36.5
s-101.333 -12.167 -144 -36.5s-76.167 -57.5 -100.5 -99.5s-36.5 -89 -36.5 -141c0 -53.333 12.167 -101.666 36.5 -144.999s57.833 -77.166 100.5 -101.499s90.667 -36.5 144 -36.5s101.5 12.167 144.5 36.5zM324.501 206c-18.333 17.333 -27.501 40.665 -27.501 69.998
v147c0 28.667 9.16699 51.5 27.5 68.5s42.5 25.5 72.5 25.5s54.333 -8.5 73 -25.5s28 -39.833 28 -68.5c0 -3.33301 -1.16699 -6.33301 -3.5 -9s-5.16602 -4 -8.49902 -4l-50 -2c-8 0 -12 3.66699 -12 11v9c0 8 -2.5 14.5 -7.5 19.5s-11.5 7.5 -19.5 7.5
s-14.333 -2.5 -19 -7.5s-7 -11.5 -7 -19.5v-158c0 -8 2.33301 -14.5 7 -19.5s11 -7.5 19 -7.5c8.66699 0 15.334 2.5 20.001 7.5s7 11.5 7 19.5v8c0 8 4 12 12 12l50 -2c3.33301 0 6.16602 -1.16699 8.49902 -3.5s3.5 -5.16602 3.5 -8.49902
c0 -29.333 -9.33301 -52.666 -28 -69.999s-43 -26 -73 -26s-54.167 8.66699 -72.5 26z" />
    <glyph glyph-name="ordfeminine" unicode="&#xaa;" horiz-adv-x="292" 
d="M172 566c3.33301 0 4.99609 1.66602 4.99609 4.99902v17c0 12.667 -2.83301 23 -8.5 31s-13.834 12 -24.501 12c-7.33301 0 -13.666 -2 -18.999 -6s-9 -9.33301 -11 -16c-2.66699 -6.66699 -7 -10 -13 -10l-69 3c-3.33301 0 -6.16602 1.16699 -8.49902 3.5
s-3.16602 5.5 -2.49902 9.5c3.33301 27.333 16.166 49.666 38.499 66.999s49.833 26 82.5 26c38 0 68.5 -10 91.5 -30s34.5 -46.667 34.5 -80v-222c0 -3.33301 -1.16699 -6.16602 -3.5 -8.49902s-5.16602 -3.5 -8.49902 -3.5h-67c-3.33301 0 -6.16602 0.833008 -8.49902 2.5
s-3.5 3.83398 -3.5 6.50098v1c0 2 -0.666992 3.16699 -2 3.5s-2.66602 -0.166992 -3.99902 -1.5c-12 -11.333 -29.667 -17 -53 -17c-28 0 -52.667 7.5 -74 22.5s-32 42.167 -32 81.5s11.5 66.333 34.5 81s55.833 22 98.5 22h27zM164.996 441.499
c8 6.33301 12 15.501 12 27.501v21c0 3.33301 -1.66699 5 -5 5h-27c-12 0 -21.667 -2.83301 -29 -8.5s-11 -13.834 -11 -24.501c0 -20 10.333 -30 31 -30c11.333 0 21 3.16699 29 9.5zM15.4961 312.5c2.33301 2.33301 5.16602 3.5 8.49902 3.5h240
c3.33301 0 6.16602 -1.16699 8.49902 -3.5s3.5 -5.16602 3.5 -8.49902v-44c0 -3.33301 -1.16699 -6.16602 -3.5 -8.49902s-5.16602 -3.5 -8.49902 -3.5h-240c-3.33301 0 -6.16602 1.16699 -8.49902 3.5s-3.5 5.16602 -3.5 8.49902v44c0 3.33301 1.16699 6.16602 3.5 8.49902
z" />
    <glyph glyph-name="guillemotleft" unicode="&#xab;" horiz-adv-x="459" 
d="M247 115c0 -5.33301 -3.33301 -8.00098 -10 -8.00098h-97c-6 0 -10.667 3 -14 9l-81 157c-1.33301 4 -2 6.66699 -2 8c0 2.66699 0.666992 5.33398 2 8.00098l81 157c3.33301 6 8 9 14 9h97c4.66699 0 7.66699 -1.33301 9 -4s1 -6 -1 -10l-82 -157
c-0.666992 -2 -0.666992 -4 0 -6l82 -157c1.33301 -2.66699 2 -4.66699 2 -6zM409 114.999c0 -5.33301 -3.33301 -8.00098 -10 -8.00098h-97c-6 0 -10.667 3 -14 9l-81 157c-1.33301 4 -2 6.66699 -2 8c0 2.66699 0.666992 5.33398 2 8.00098l81 157c3.33301 6 8 9 14 9h97
c4.66699 0 7.66699 -1.33301 9 -4s1 -6 -1 -10l-83 -157c-0.666992 -2 -0.666992 -4 0 -6l83 -157c1.33301 -2.66699 2 -4.66699 2 -6z" />
    <glyph glyph-name="logicalnot" unicode="&#xac;" horiz-adv-x="438" 
d="M411.5 358.5c2.33301 -2.33301 3.49902 -5.16504 3.49902 -8.49805v-87v-7h-1v-80c0 -3.33301 -1.16699 -6.16602 -3.5 -8.49902s-5.16602 -3.5 -8.49902 -3.5h-83c-3.33301 0 -6.16602 1.16699 -8.49902 3.5s-3.5 5.16602 -3.5 8.49902v75c0 3.33301 -1.66699 5 -5 5
h-266c-3.33301 0 -6.16602 1.16699 -8.49902 3.5s-3.5 5.16602 -3.5 8.49902v82c0 3.33301 1.16699 6.16602 3.5 8.49902s5.16602 3.5 8.49902 3.5h367c3.33301 0 6.16602 -1.16699 8.49902 -3.5z" />
    <glyph glyph-name="uni00AD" unicode="&#xad;" horiz-adv-x="331" 
d="M27.5 238.5c-2.33301 2.33301 -3.5 5.16602 -3.5 8.49902v97c0 3.33301 1.16699 6.16602 3.5 8.49902s5.16602 3.5 8.49902 3.5h259c3.33301 0 6.16602 -1.16699 8.49902 -3.5s3.5 -5.16602 3.5 -8.49902v-97c0 -3.33301 -1.16699 -6.16602 -3.5 -8.49902
s-5.16602 -3.5 -8.49902 -3.5h-259c-3.33301 0 -6.16602 1.16699 -8.49902 3.5z" />
    <glyph glyph-name="registered" unicode="&#xae;" horiz-adv-x="434" 
d="M321 684c31.333 -17.333 55.833 -41 73.5 -71s26.5 -63.667 26.5 -101c0 -38.667 -8.83301 -73.667 -26.5 -105s-42.167 -55.833 -73.5 -73.5s-66 -26.5 -104 -26.5s-72.5 8.83301 -103.5 26.5s-55.333 42.167 -73 73.5s-26.5 66.333 -26.5 105
c0 37.333 8.83301 71 26.5 101s42 53.667 73 71s65.5 26 103.5 26s72.667 -8.66699 104 -26zM320 407.5c27.333 27.667 41.001 62.5 41.001 104.5c0 26 -6.33301 49.667 -19 71s-30 38.166 -52 50.499s-46.333 18.5 -73 18.5s-51 -6.16699 -73 -18.5
s-39.167 -29.166 -51.5 -50.499s-18.5 -45 -18.5 -71c0 -42.667 13.5 -77.667 40.5 -105s61.167 -41 102.5 -41s75.666 13.833 102.999 41.5zM264.001 497c-2.66699 -0.666992 -3.33398 -2.66602 -2.00098 -5.99902l21 -59c0.666992 -1.33301 1 -3 1 -5
c0 -6 -3.66699 -9 -11 -9h-25c-6.66699 0 -11 3.33301 -13 10l-19 56c-1.33301 2.66699 -3 4 -5 4h-2c-3.33301 0 -5 -1.66699 -5 -5v-53c0 -3.33301 -1.16699 -6.16602 -3.5 -8.49902s-5.16602 -3.5 -8.49902 -3.5h-22c-3.33301 0 -6.16602 1.16699 -8.49902 3.5
s-3.5 5.16602 -3.5 8.49902v161c0 3.33301 1.16699 6.16602 3.5 8.49902s5.16602 3.5 8.49902 3.5h59c17.333 0 31.5 -5.66699 42.5 -17s16.5 -25.333 16.5 -42c0 -22 -8 -37.667 -24 -47zM204.001 558.001v-30c0 -3.33301 1.66699 -5 5 -5h13c6 0 10.833 2 14.5 6
s5.5 8.66699 5.5 14c0 6 -1.83301 10.833 -5.5 14.5s-8.5 5.5 -14.5 5.5h-13c-3.33301 0 -5 -1.66699 -5 -5z" />
    <glyph glyph-name="macron" unicode="&#xaf;" horiz-adv-x="335" 
d="M60.5 584.5c-2.33301 2.33301 -3.5 5.16602 -3.5 8.49902v72c0 3.33301 1.16699 6.16602 3.5 8.49902s5.16602 3.5 8.49902 3.5h196c3.33301 0 6.16602 -1.16699 8.49902 -3.5s3.5 -5.16602 3.5 -8.49902v-72c0 -3.33301 -1.16699 -6.16602 -3.5 -8.49902
s-5.16602 -3.5 -8.49902 -3.5h-196c-3.33301 0 -6.16602 1.16699 -8.49902 3.5z" />
    <glyph glyph-name="degree" unicode="&#xb0;" horiz-adv-x="359" 
d="M95.5 494.5c-25 15 -44.833 35.333 -59.5 61s-22 54.167 -22 85.5c0 30.667 7.33301 58.834 22 84.501s34.5 45.834 59.5 60.501s52.833 22 83.5 22s58.667 -7.33301 84 -22s45.333 -34.834 60 -60.501s22 -53.834 22 -84.501c0 -31.333 -7.33301 -59.833 -22 -85.5
s-34.667 -46 -60 -61s-53.333 -22.5 -84 -22.5s-58.5 7.5 -83.5 22.5zM232.5 585.5c14.333 15 21.5 33.5 21.5 55.5s-7.16699 40.5 -21.5 55.5s-32.166 22.5 -53.499 22.5c-20.667 0 -38.334 -7.5 -53.001 -22.5s-22 -33.5 -22 -55.5s7.33301 -40.5 22 -55.5
s32.334 -22.5 53.001 -22.5c21.333 0 39.166 7.5 53.499 22.5z" />
    <glyph glyph-name="plusminus" unicode="&#xb1;" horiz-adv-x="438" 
d="M411.5 437.5c2.33301 -2.33301 3.5 -5.16602 3.5 -8.49902v-82c0 -3.33301 -1.16699 -6.16602 -3.5 -8.49902s-5.16602 -3.5 -8.49902 -3.5h-126c-3.33301 0 -5 -1.66699 -5 -5v-125c0 -3.33301 -1.16699 -6.16602 -3.5 -8.49902s-5.16602 -3.5 -8.49902 -3.5h-82
c-3.33301 0 -6.16602 1.16699 -8.49902 3.5s-3.5 5.16602 -3.5 8.49902v125c0 3.33301 -1.66699 5 -5 5h-125c-3.33301 0 -6.16602 1.16699 -8.49902 3.5s-3.5 5.16602 -3.5 8.49902v82c0 3.33301 1.16699 6.16602 3.5 8.49902s5.16602 3.5 8.49902 3.5h125
c3.33301 0 5 1.66699 5 5v126c0 3.33301 1.16699 6.16602 3.5 8.49902s5.16602 3.5 8.49902 3.5h82c3.33301 0 6.16602 -1.16699 8.49902 -3.5s3.5 -5.16602 3.5 -8.49902v-126c0 -3.33301 1.66699 -5 5 -5h126c3.33301 0 6.16602 -1.16699 8.49902 -3.5zM27.5 14.5
c-2.33301 2.33301 -3.5 5.16602 -3.5 8.49902v82c0 3.33301 1.16699 6.16602 3.5 8.49902s5.16602 3.5 8.49902 3.5h367c3.33301 0 6.16602 -1.16699 8.49902 -3.5s3.5 -5.16602 3.5 -8.49902v-82c0 -3.33301 -1.16699 -6.16602 -3.5 -8.49902s-5.16602 -3.5 -8.49902 -3.5
h-367c-3.33301 0 -6.16602 1.16699 -8.49902 3.5z" />
    <glyph glyph-name="uni00B2" unicode="&#xb2;" horiz-adv-x="266" 
d="M18.5 419.5c-2.33301 2.33301 -3.50293 5.16309 -3.50293 8.49609v58c0 6 1.66699 11 5 15c18.667 22.667 27.334 33.334 26.001 32.001c39.333 48 66.666 84 81.999 108c20.667 32 31 59.667 31 83c0 12.667 -2.5 22.334 -7.5 29.001s-11.5 10 -19.5 10
s-14.667 -3.33301 -20 -10s-8 -15.334 -8 -26.001v-20c0 -3.33301 -1.16699 -6.16602 -3.5 -8.49902s-5.16602 -3.5 -8.49902 -3.5h-67c-3.33301 0 -6.16602 1.16699 -8.49902 3.5s-3.5 5.16602 -3.5 8.49902v24c1.33301 34.667 12.833 61.667 34.5 81s50.5 29 86.5 29
c35.333 0 63.5 -10 84.5 -30s31.5 -51 31.5 -93c0 -20 -2.33301 -38.167 -7 -54.5s-12 -33.5 -22 -51.5c-12.667 -20.667 -29.334 -45 -50.001 -73l-29 -39c-1.33301 -1.33301 -1.66602 -2.66602 -0.999023 -3.99902s2 -2 4 -2h100c3.33301 0 6.16602 -1.16699 8.49902 -3.5
s3.5 -5.16602 3.5 -8.49902v-54c0 -3.33301 -1.16699 -6.16602 -3.5 -8.49902s-5.16602 -3.5 -8.49902 -3.5h-218c-3.33301 0 -6.16602 1.16699 -8.49902 3.5z" />
    <glyph glyph-name="uni00B3" unicode="&#xb3;" horiz-adv-x="282" 
d="M263 549c0 -17.333 -0.99707 -32 -2.99707 -44c-2 -28.667 -13.167 -51.667 -33.5 -69s-46.5 -26 -78.5 -26c-34 0 -62 9.5 -84 28.5s-33.667 43.5 -35 73.5c-0.666992 6 -1 14.667 -1 26c0 8 4 12 12 12h66c8 0 12 -4 12 -12c0 -4.66699 0.333008 -8.66699 1 -12
c2 -24.667 11.667 -37 29 -37c8 0 14.167 2.5 18.5 7.5s7.16602 12.5 8.49902 22.5c2.66699 18.667 4 32 4 40c0 8.66699 -0.666992 21 -2 37c-3.33301 21.333 -13 32 -29 32c-5.33301 0 -10.333 -1.66699 -15 -5c-3.33301 -2.66699 -6.66602 -4 -9.99902 -4
c-2.66699 0 -5 1.33301 -7 4l-32 34c-2.66699 4 -4 7 -4 9c0 2.66699 1.33301 5.33398 4 8.00098l68 78c3.33301 4 2.33301 6 -3 6h-101c-3.33301 0 -6.16602 1.16699 -8.49902 3.5s-3.5 5.16602 -3.5 8.49902v53c0 3.33301 1.16699 6.16602 3.5 8.49902
s5.16602 3.5 8.49902 3.5h200c3.33301 0 6.16602 -1.16699 8.49902 -3.5s3.5 -5.16602 3.5 -8.49902v-57c0 -6.66699 -1.66699 -11.667 -5 -15l-52 -63c-2.66699 -3.33301 -2.33398 -5.66602 0.999023 -6.99902c16 -6 29.167 -17.833 39.5 -35.5
s16.166 -36.834 17.499 -57.501c1.33301 -17.333 2 -30.333 2 -39z" />
    <glyph glyph-name="acute" unicode="&#xb4;" horiz-adv-x="220" 
d="M20 580c-2 2.66699 -1.66699 6 1 10l59 102c2.66699 5.33301 7.66699 8 15 8h93c6.66699 0 10 -2.33301 10 -7c0 -2 -1 -4.66699 -3 -8l-77 -102c-4 -4.66699 -8.66699 -7 -14 -7h-74c-4.66699 0 -8 1.33301 -10 4z" />
    <glyph glyph-name="uni00B5" unicode="&#xb5;" horiz-adv-x="450" 
d="M274.5 510.5c2.33301 2.33301 5.16406 3.5 8.49707 3.5h117c3.33301 0 6.16602 -1.16699 8.49902 -3.5s3.5 -5.16602 3.5 -8.49902v-490c0 -3.33301 -1.16699 -6.16602 -3.5 -8.49902s-5.16602 -3.5 -8.49902 -3.5h-117c-3.33301 0 -6.16602 1.16699 -8.49902 3.5
s-3.5 5.16602 -3.5 8.49902v17c0 2 -0.666992 3.16699 -2 3.5s-2.66602 -0.5 -3.99902 -2.5c-10 -13.333 -21.667 -22.666 -35 -27.999s-28.666 -8.33301 -45.999 -9c-3.33301 0 -5 -1.66699 -5 -5v-176c0 -3.33301 -1.16699 -6.16602 -3.5 -8.49902
s-5.16602 -3.5 -8.49902 -3.5h-117c-3.33301 0 -6.16602 1.16699 -8.49902 3.5s-3.5 5.16602 -3.5 8.49902v690c0 3.33301 1.16699 6.16602 3.5 8.49902s5.16602 3.5 8.49902 3.5h117c3.33301 0 6.16602 -1.16699 8.49902 -3.5s3.5 -5.16602 3.5 -8.49902v-329
c0 -40 15 -60 45 -60c14.667 0 26.167 5.66699 34.5 17s12.5 26.666 12.5 45.999v326c0 3.33301 1.16699 6.16602 3.5 8.49902z" />
    <glyph glyph-name="paragraph" unicode="&#xb6;" horiz-adv-x="514" 
d="M458 700c3.33301 0 6.16211 -1.16895 8.49512 -3.50195s3.5 -5.16602 3.5 -8.49902v-876c0 -3.33301 -1.16699 -6.16602 -3.5 -8.49902s-5.16602 -3.5 -8.49902 -3.5h-94c-3.33301 0 -6.16602 1.16699 -8.49902 3.5s-3.5 5.16602 -3.5 8.49902v769
c0 3.33301 -1.66699 5 -5 5h-46c-3.33301 0 -5 -1.66699 -5 -5v-769c0 -3.33301 -1.16699 -6.16602 -3.5 -8.49902s-5.16602 -3.5 -8.49902 -3.5h-94c-3.33301 0 -6.16602 1.16699 -8.49902 3.5s-3.5 5.16602 -3.5 8.49902v436c0 3.33301 -1.33301 5.33301 -4 6
c-47.333 9.33301 -84.833 33.833 -112.5 73.5s-41.5 88.834 -41.5 147.501c0 43.333 8 82 24 116s38.833 60.667 68.5 80s63.834 29 102.501 29h243z" />
    <glyph glyph-name="periodcentered" unicode="&#xb7;" horiz-adv-x="225" 
d="M56.5 233.5c-15 15 -22.5 33.833 -22.5 56.5c0 23.333 7.33301 42.333 22 57s33.667 22 57 22s42.333 -7.33301 57 -22s22 -33.667 22 -57c0 -22.667 -7.5 -41.5 -22.5 -56.5s-33.833 -22.5 -56.5 -22.5s-41.5 7.5 -56.5 22.5z" />
    <glyph glyph-name="cedilla" unicode="&#xb8;" horiz-adv-x="151" 
d="M7 -170l6.00098 46c0.666992 8 5.33398 11.333 14.001 10c18 -2.66699 29.333 5.33301 34 24c4 22 -8.66699 47 -38 75c-3.33301 3.33301 -5 6 -5 8c0 4.66699 3.66699 7 11 7h62c6 0 11 -2 15 -6c30.667 -30 46 -62.333 46 -97c0 -9.33301 -1 -18 -3 -26
c-5.33301 -22.667 -15.833 -38.667 -31.5 -48s-33.834 -14 -54.501 -14c-12.667 0 -28.334 2.33301 -47.001 7c-6.66699 2 -9.66699 6.66699 -9 14z" />
    <glyph glyph-name="uni00B9" unicode="&#xb9;" horiz-adv-x="157" 
d="M56 836l70.999 -0.000976562c3.33301 0 6.16602 -1.16699 8.49902 -3.5s3.5 -5.16602 3.5 -8.49902v-396c0 -3.33301 -1.16699 -6.16602 -3.5 -8.49902s-5.16602 -3.5 -8.49902 -3.5h-67c-3.33301 0 -6.16602 1.16699 -8.49902 3.5s-3.5 5.16602 -3.5 8.49902v323
c0 3.33301 -1.66699 4.66602 -5 3.99902l-16 -2h-2c-7.33301 0 -11 4 -11 12v43c0 6.66699 3 11.334 9 14.001l18 10c6.66699 2.66699 11.667 4 15 4z" />
    <glyph glyph-name="ordmasculine" unicode="&#xba;" horiz-adv-x="295" 
d="M54.5 387.5c-22.333 19.667 -33.502 46.834 -33.502 81.501v129c0 32.667 11.333 59.167 34 79.5s53.334 30.5 92.001 30.5s69 -10 91 -30s33 -46.667 33 -80v-129c0 -34.667 -11 -61.834 -33 -81.501s-52.333 -29.5 -91 -29.5c-39.333 0 -70.166 9.83301 -92.499 29.5z
M170.998 447.5c6.66699 7.66699 10 16.832 10 27.499v115c0 12 -3.16699 21.667 -9.5 29s-14.5 11 -24.5 11s-18.333 -3.66699 -25 -11s-10 -17 -10 -29v-115c0 -11.333 3.33301 -20.666 10 -27.999s15 -11 25 -11c9.33301 0 17.333 3.83301 24 11.5zM19.498 251.498
c-2.33301 2.33301 -3.5 5.16602 -3.5 8.49902v44c0 3.33301 1.16699 6.16602 3.5 8.49902s5.16602 3.5 8.49902 3.5h239c3.33301 0 6.16602 -1.16699 8.49902 -3.5s3.5 -5.16602 3.5 -8.49902v-44c0 -3.33301 -1.16699 -6.16602 -3.5 -8.49902s-5.16602 -3.5 -8.49902 -3.5
h-239c-3.33301 0 -6.16602 1.16699 -8.49902 3.5z" />
    <glyph glyph-name="guillemotright" unicode="&#xbb;" horiz-adv-x="459" 
d="M51 111c-1.33301 2.66699 -1 6 1 10l83 157c0.666992 2 0.666992 4 0 6l-83 157c-1.33301 2.66699 -2 4.66699 -2 6c0 5.33301 3.33301 8 10 8h97c6.66699 0 11.334 -3 14.001 -9l81 -157c1.33301 -1.33301 2 -4 2 -8c0 -3.33301 -0.666992 -6 -2 -8l-81 -157
c-2.66699 -6 -7.33398 -9 -14.001 -9h-97c-4.66699 0 -7.66699 1.33301 -9 4zM213 111c-1.33301 2.66699 -1 6 1 10l83 157c0.666992 2 0.666992 4 0 6l-83 157c-1.33301 2.66699 -2 4.66699 -2 6c0 5.33301 3.33301 8 10 8h97c6.66699 0 11.334 -3 14.001 -9l81 -157
c1.33301 -1.33301 2 -4 2 -8c0 -3.33301 -0.666992 -6 -2 -8l-81 -157c-2.66699 -6 -7.33398 -9 -14.001 -9h-97c-4.66699 0 -7.66699 1.33301 -9 4z" />
    <glyph glyph-name="onequarter" unicode="&#xbc;" horiz-adv-x="716" 
d="M56 700l70.999 -0.000976562c3.33301 0 6.16602 -1.16699 8.49902 -3.5s3.5 -5.16602 3.5 -8.49902v-396c0 -3.33301 -1.16699 -6.16602 -3.5 -8.49902s-5.16602 -3.5 -8.49902 -3.5h-67c-3.33301 0 -6.16602 1.16699 -8.49902 3.5s-3.5 5.16602 -3.5 8.49902v323
c0 3.33301 -1.66699 4.66602 -5 3.99902l-16 -2h-2c-7.33301 0 -11 4 -11 12v43c0 6.66699 3 11.334 9 14.001l18 10c6.66699 2.66699 11.667 4 15 4zM61.499 3.49902c-1.66699 2.33301 -1.16699 5.83301 1.5 10.5l407 678c2.66699 5.33301 7.33398 8 14.001 8h75
c4.66699 0 7.83398 -1.16699 9.50098 -3.5s1.16699 -5.83301 -1.5 -10.5l-407 -678c-2.66699 -5.33301 -7.33398 -8 -14.001 -8h-75c-4.66699 0 -7.83398 1.16699 -9.50098 3.5zM704.499 183.499c2.33301 -2.33301 3.5 -5.16699 3.5 -8.5v-58
c0 -3.33301 -1.16699 -6.16602 -3.5 -8.49902s-5.16602 -3.5 -8.49902 -3.5h-12c-3.33301 0 -5 -1.66699 -5 -5v-88c0 -3.33301 -1.16699 -6.16602 -3.5 -8.49902s-5.16602 -3.5 -8.49902 -3.5h-67c-3.33301 0 -6.16602 1.16699 -8.49902 3.5s-3.5 5.16602 -3.5 8.49902v88
c0 3.33301 -1.66699 5 -5 5h-142c-3.33301 0 -6.16602 1.16699 -8.49902 3.5s-3.5 5.16602 -3.5 8.49902v46c0 6 0.666992 11 2 15l77 232c2 6.66699 6.33301 10 13 10h72c4 0 7 -1.33301 9 -4s2.33301 -6 1 -10l-66 -213c-0.666992 -4 0.666016 -6 3.99902 -6h42
c3.33301 0 5 1.66699 5 5v51c0 3.33301 1.16699 6.16602 3.5 8.49902s5.16602 3.5 8.49902 3.5h67c3.33301 0 6.16602 -1.16699 8.49902 -3.5s3.5 -5.16602 3.5 -8.49902v-51c0 -3.33301 1.66699 -5 5 -5h12c3.33301 0 6.16602 -1.16699 8.49902 -3.5z" />
    <glyph glyph-name="onehalf" unicode="&#xbd;" horiz-adv-x="691" 
d="M56 700l70.999 -0.000976562c3.33301 0 6.16602 -1.16699 8.49902 -3.5s3.5 -5.16602 3.5 -8.49902v-396c0 -3.33301 -1.16699 -6.16602 -3.5 -8.49902s-5.16602 -3.5 -8.49902 -3.5h-67c-3.33301 0 -6.16602 1.16699 -8.49902 3.5s-3.5 5.16602 -3.5 8.49902v323
c0 3.33301 -1.66699 4.66602 -5 3.99902l-16 -2h-2c-7.33301 0 -11 4 -11 12v43c0 6.66699 3 11.334 9 14.001l18 10c6.66699 2.66699 11.667 4 15 4zM61.499 3.49902c-1.66699 2.33301 -1.16699 5.83301 1.5 10.5l407 678c2.66699 5.33301 7.33398 8 14.001 8h75
c4.66699 0 7.83398 -1.16699 9.50098 -3.5s1.16699 -5.83301 -1.5 -10.5l-407 -678c-2.66699 -5.33301 -7.33398 -8 -14.001 -8h-75c-4.66699 0 -7.83398 1.16699 -9.50098 3.5zM443.499 3.49902c-2.33301 2.33301 -3.50293 5.16309 -3.50293 8.49609v58
c0 6 1.66699 11 5 15c18.667 22.667 27.334 33.334 26.001 32.001c39.333 48 66.666 84 81.999 108c20.667 32 31 59.667 31 83c0 12.667 -2.5 22.334 -7.5 29.001s-11.5 10 -19.5 10s-14.667 -3.33301 -20 -10s-8 -15.334 -8 -26.001v-20
c0 -3.33301 -1.16699 -6.16602 -3.5 -8.49902s-5.16602 -3.5 -8.49902 -3.5h-67c-3.33301 0 -6.16602 1.16699 -8.49902 3.5s-3.5 5.16602 -3.5 8.49902v24c1.33301 34.667 12.833 61.667 34.5 81s50.5 29 86.5 29c35.333 0 63.5 -10 84.5 -30s31.5 -51 31.5 -93
c0 -20 -2.33301 -38.167 -7 -54.5s-12 -33.5 -22 -51.5c-12.667 -20.667 -29.334 -45 -50.001 -73l-29 -39c-1.33301 -1.33301 -1.66602 -2.66602 -0.999023 -3.99902s2 -2 4 -2h100c3.33301 0 6.16602 -1.16699 8.49902 -3.5s3.5 -5.16602 3.5 -8.49902v-54
c0 -3.33301 -1.16699 -6.16602 -3.5 -8.49902s-5.16602 -3.5 -8.49902 -3.5h-218c-3.33301 0 -6.16602 1.16699 -8.49902 3.5z" />
    <glyph glyph-name="threequarters" unicode="&#xbe;" horiz-adv-x="793" 
d="M263 413c0 -17.333 -0.99707 -32 -2.99707 -44c-2 -28.667 -13.167 -51.667 -33.5 -69s-46.5 -26 -78.5 -26c-34 0 -62 9.5 -84 28.5s-33.667 43.5 -35 73.5c-0.666992 6 -1 14.667 -1 26c0 8 4 12 12 12h66c8 0 12 -4 12 -12c0 -4.66699 0.333008 -8.66699 1 -12
c2 -24.667 11.667 -37 29 -37c8 0 14.167 2.5 18.5 7.5s7.16602 12.5 8.49902 22.5c2.66699 18.667 4 32 4 40c0 8.66699 -0.666992 21 -2 37c-3.33301 21.333 -13 32 -29 32c-5.33301 0 -10.333 -1.66699 -15 -5c-3.33301 -2.66699 -6.66602 -4 -9.99902 -4
c-2.66699 0 -5 1.33301 -7 4l-32 34c-2.66699 4 -4 7 -4 9c0 2.66699 1.33301 5.33398 4 8.00098l68 78c3.33301 4 2.33301 6 -3 6h-101c-3.33301 0 -6.16602 1.16699 -8.49902 3.5s-3.5 5.16602 -3.5 8.49902v53c0 3.33301 1.16699 6.16602 3.5 8.49902
s5.16602 3.5 8.49902 3.5h200c3.33301 0 6.16602 -1.16699 8.49902 -3.5s3.5 -5.16602 3.5 -8.49902v-57c0 -6.66699 -1.66699 -11.667 -5 -15l-52 -63c-2.66699 -3.33301 -2.33398 -5.66602 0.999023 -6.99902c16 -6 29.167 -17.833 39.5 -35.5
s16.166 -36.834 17.499 -57.501c1.33301 -17.333 2 -30.333 2 -39zM138.503 3.5c-1.66699 2.33301 -1.16699 5.83301 1.5 10.5l407 678c2.66699 5.33301 7.33398 8 14.001 8h75c4.66699 0 7.83398 -1.16699 9.50098 -3.5s1.16699 -5.83301 -1.5 -10.5l-407 -678
c-2.66699 -5.33301 -7.33398 -8 -14.001 -8h-75c-4.66699 0 -7.83398 1.16699 -9.50098 3.5zM781.503 183.5c2.33301 -2.33301 3.5 -5.16699 3.5 -8.5v-58c0 -3.33301 -1.16699 -6.16602 -3.5 -8.49902s-5.16602 -3.5 -8.49902 -3.5h-12c-3.33301 0 -5 -1.66699 -5 -5v-88
c0 -3.33301 -1.16699 -6.16602 -3.5 -8.49902s-5.16602 -3.5 -8.49902 -3.5h-67c-3.33301 0 -6.16602 1.16699 -8.49902 3.5s-3.5 5.16602 -3.5 8.49902v88c0 3.33301 -1.66699 5 -5 5h-142c-3.33301 0 -6.16602 1.16699 -8.49902 3.5s-3.5 5.16602 -3.5 8.49902v46
c0 6 0.666992 11 2 15l77 232c2 6.66699 6.33301 10 13 10h72c4 0 7 -1.33301 9 -4s2.33301 -6 1 -10l-66 -213c-0.666992 -4 0.666016 -6 3.99902 -6h42c3.33301 0 5 1.66699 5 5v51c0 3.33301 1.16699 6.16602 3.5 8.49902s5.16602 3.5 8.49902 3.5h67
c3.33301 0 6.16602 -1.16699 8.49902 -3.5s3.5 -5.16602 3.5 -8.49902v-51c0 -3.33301 1.66699 -5 5 -5h12c3.33301 0 6.16602 -1.16699 8.49902 -3.5z" />
    <glyph glyph-name="questiondown" unicode="&#xbf;" horiz-adv-x="437" 
d="M289 480c14.667 -14.667 22 -33.667 22 -57c0 -22.667 -7.33301 -41.334 -22 -56.001s-33.667 -22 -57 -22s-42.333 7.33301 -57 22s-22 33.334 -22 56.001s7.5 41.5 22.5 56.5s33.833 22.5 56.5 22.5c23.333 0 42.333 -7.33301 57 -22zM298.5 274.5
c2.33301 -2.33301 3.50098 -5.16895 3.50098 -8.50195v-32c0 -33.333 -6.83301 -60.166 -20.5 -80.499s-33.5 -41.833 -59.5 -64.5c-21.333 -18.667 -37 -34.834 -47 -48.501s-15 -30.5 -15 -50.5c0 -21.333 5.16699 -38.5 15.5 -51.5s24.166 -19.5 41.499 -19.5
c19.333 0 34.5 6.83301 45.5 20.5s16.5 31.834 16.5 54.501v16c0 7.33301 4 11 12 11l117 -5c3.33301 0 6.16602 -1.16699 8.49902 -3.5s3.5 -5.16602 3.5 -8.49902v-10c0 -40 -8.66699 -75.5 -26 -106.5s-41.666 -55 -72.999 -72s-67.333 -25.5 -108 -25.5
c-59.333 0 -106.666 17.833 -141.999 53.5s-53 82.834 -53 141.501c0 29.333 4.16699 54.5 12.5 75.5s18.333 38.167 30 51.5s26.834 28 45.501 44c19.333 16.667 33.5 31 42.5 43s13.5 26.667 13.5 44v23c0 3.33301 1.16699 6.16602 3.5 8.49902s5.16602 3.5 8.49902 3.5
h116c3.33301 0 6.16602 -1.16699 8.49902 -3.5z" />
    <glyph glyph-name="Agrave" unicode="&#xc0;" horiz-adv-x="482" 
d="M325 11l-15.998 96c0 3.33301 -2 5 -6 5h-127c-4 0 -6 -1.66699 -6 -5l-16 -96c-0.666992 -7.33301 -5 -11 -13 -11h-117c-8.66699 -0 -12 4.33301 -10 13l147 676c1.33301 7.33301 5.66602 11 12.999 11h135c7.33301 0 11.666 -3.66699 12.999 -11l146 -676l1 -4
c0 -6 -3.66699 -9 -11 -9h-120c-8 0 -12.333 3.66699 -13 11zM194.002 221h90.001c3.33301 0 4.66602 1.66699 3.99902 5l-47 273c-0.666992 2 -1.66699 3 -3 3s-2.33301 -1 -3 -3l-45 -273c0 -3.33301 1.33301 -5 4 -5zM287.003 770c0 -5.33301 -3.66797 -8 -11.001 -8h-75
c-5.33301 0 -10 2.33301 -14 7l-76 102c-2 3.33301 -3 6 -3 8c0 4.66699 3.33301 7 10 7h93c6.66699 0 11.334 -2.66699 14.001 -8l60 -102z" />
    <glyph glyph-name="Aacute" unicode="&#xc1;" horiz-adv-x="482" 
d="M325 11l-15.998 96c0 3.33301 -2 5 -6 5h-127c-4 0 -6 -1.66699 -6 -5l-16 -96c-0.666992 -7.33301 -5 -11 -13 -11h-117c-8.66699 -0 -12 4.33301 -10 13l147 676c1.33301 7.33301 5.66602 11 12.999 11h135c7.33301 0 11.666 -3.66699 12.999 -11l146 -676l1 -4
c0 -6 -3.66699 -9 -11 -9h-120c-8 0 -12.333 3.66699 -13 11zM194.002 221h90.001c3.33301 0 4.66602 1.66699 3.99902 5l-47 273c-0.666992 2 -1.66699 3 -3 3s-2.33301 -1 -3 -3l-45 -273c0 -3.33301 1.33301 -5 4 -5zM177.003 766c-2 2.66699 -1.66699 6 1 10l59 102
c2.66699 5.33301 7.66699 8 15 8h93c6.66699 0 10 -2.33301 10 -7c0 -2 -1 -4.66699 -3 -8l-77 -102c-4 -4.66699 -8.66699 -7 -14 -7h-74c-4.66699 0 -8 1.33301 -10 4z" />
    <glyph glyph-name="Acircumflex" unicode="&#xc2;" horiz-adv-x="482" 
d="M325 11l-15.998 96c0 3.33301 -2 5 -6 5h-127c-4 0 -6 -1.66699 -6 -5l-16 -96c-0.666992 -7.33301 -5 -11 -13 -11h-117c-8.66699 -0 -12 4.33301 -10 13l147 676c1.33301 7.33301 5.66602 11 12.999 11h135c7.33301 0 11.666 -3.66699 12.999 -11l146 -676l1 -4
c0 -6 -3.66699 -9 -11 -9h-120c-8 0 -12.333 3.66699 -13 11zM194.002 221h90.001c3.33301 0 4.66602 1.66699 3.99902 5l-47 273c-0.666992 2 -1.66699 3 -3 3s-2.33301 -1 -3 -3l-45 -273c0 -3.33301 1.33301 -5 4 -5zM96.5029 763.5
c-1.66699 2.33301 -1.16602 5.83301 1.50098 10.5l63 104c2.66699 5.33301 7.33398 8 14.001 8h129c6 0 10.667 -2.66699 14 -8l66 -104c1.33301 -4 2 -6.33301 2 -7c0 -4.66699 -3.33301 -7 -10 -7h-88c-6.66699 0 -11.334 3 -14.001 9l-30 56c-2 3.33301 -4 3.33301 -6 0
l-30 -56c-3.33301 -6 -8.33301 -9 -15 -9h-87c-4.66699 0 -7.83398 1.16699 -9.50098 3.5z" />
    <glyph glyph-name="Atilde" unicode="&#xc3;" horiz-adv-x="482" 
d="M325 11l-15.998 96c0 3.33301 -2 5 -6 5h-127c-4 0 -6 -1.66699 -6 -5l-16 -96c-0.666992 -7.33301 -5 -11 -13 -11h-117c-8.66699 -0 -12 4.33301 -10 13l147 676c1.33301 7.33301 5.66602 11 12.999 11h135c7.33301 0 11.666 -3.66699 12.999 -11l146 -676l1 -4
c0 -6 -3.66699 -9 -11 -9h-120c-8 0 -12.333 3.66699 -13 11zM194.002 221h90.001c3.33301 0 4.66602 1.66699 3.99902 5l-47 273c-0.666992 2 -1.66699 3 -3 3s-2.33301 -1 -3 -3l-45 -273c0 -3.33301 1.33301 -5 4 -5zM254.003 790c-6 2.66699 -12.834 6.33301 -20.501 11
s-14.834 7 -21.501 7c-14.667 0 -26.667 -7.33301 -36 -22c-4.66699 -6.66699 -10.334 -8 -17.001 -4l-42 30c-5.33301 4 -7 9.33301 -5 16c8.66699 23.333 20.834 40.666 36.501 51.999s32.834 17 51.501 17c20 0 41.333 -7.66699 64 -23
c1.33301 -1.33301 4.66602 -3.66602 9.99902 -6.99902s10.5 -6 15.5 -8s10.167 -3 15.5 -3c15.333 0 27.333 6.66699 36 20c4.66699 8 10.334 9.66699 17.001 5l40 -28c3.33301 -2 5 -5 5 -9s-1.66699 -8.66699 -5 -14c-11.333 -20 -25.166 -34.667 -41.499 -44
s-32.5 -14 -48.5 -14c-14 0 -32 6 -54 18z" />
    <glyph glyph-name="Adieresis" unicode="&#xc4;" horiz-adv-x="482" 
d="M325 11l-15.998 96c0 3.33301 -2 5 -6 5h-127c-4 0 -6 -1.66699 -6 -5l-16 -96c-0.666992 -7.33301 -5 -11 -13 -11h-117c-8.66699 -0 -12 4.33301 -10 13l147 676c1.33301 7.33301 5.66602 11 12.999 11h135c7.33301 0 11.666 -3.66699 12.999 -11l146 -676l1 -4
c0 -6 -3.66699 -9 -11 -9h-120c-8 0 -12.333 3.66699 -13 11zM194.002 221h90.001c3.33301 0 4.66602 1.66699 3.99902 5l-47 273c-0.666992 2 -1.66699 3 -3 3s-2.33301 -1 -3 -3l-45 -273c0 -3.33301 1.33301 -5 4 -5zM276.503 780.5c-15 15 -22.5 33.833 -22.5 56.5
c0 23.333 7.33301 42.333 22 57s33.667 22 57 22s42.333 -7.33301 57 -22s22 -33.667 22 -57c0 -22.667 -7.5 -41.5 -22.5 -56.5s-33.833 -22.5 -56.5 -22.5s-41.5 7.5 -56.5 22.5zM92.5029 780.5c-15 15 -22.5 33.833 -22.5 56.5c0 23.333 7.33301 42.333 22 57
s33.667 22 57 22s42.333 -7.33301 57 -22s22 -33.667 22 -57c0 -22.667 -7.5 -41.5 -22.5 -56.5s-33.833 -22.5 -56.5 -22.5s-41.5 7.5 -56.5 22.5z" />
    <glyph glyph-name="Aring" unicode="&#xc5;" horiz-adv-x="482" 
d="M325 11l-15.998 96c0 3.33301 -2 5 -6 5h-127c-4 0 -6 -1.66699 -6 -5l-16 -96c-0.666992 -7.33301 -5 -11 -13 -11h-117c-8.66699 -0 -12 4.33301 -10 13l147 676c1.33301 7.33301 5.66602 11 12.999 11h135c7.33301 0 11.666 -3.66699 12.999 -11l146 -676l1 -4
c0 -6 -3.66699 -9 -11 -9h-120c-8 0 -12.333 3.66699 -13 11zM194.002 221h90.001c3.33301 0 4.66602 1.66699 3.99902 5l-47 273c-0.666992 2 -1.66699 3 -3 3s-2.33301 -1 -3 -3l-45 -273c0 -3.33301 1.33301 -5 4 -5zM154.503 784.5
c-23.667 23.667 -35.5 53.167 -35.5 88.5s11.833 64.833 35.5 88.5s52.834 35.5 87.501 35.5s64 -11.833 88 -35.5s36 -53.167 36 -88.5c0 -34.667 -12 -64 -36 -88s-53.333 -36 -88 -36s-63.834 11.833 -87.501 35.5zM277.003 837.5c10 9.66699 15 21.5 15 35.5
c0 14.667 -5 26.834 -15 36.501s-21.667 14.5 -35 14.5s-24.833 -4.83301 -34.5 -14.5s-14.5 -21.834 -14.5 -36.501c0 -14 4.83301 -25.833 14.5 -35.5s21.167 -14.5 34.5 -14.5s25 4.83301 35 14.5z" />
    <glyph glyph-name="AE" unicode="&#xc6;" horiz-adv-x="755" 
d="M724.5 582.5c-2.33301 -2.33301 -5.16699 -3.50488 -8.5 -3.50488h-208c-3.33301 0 -5 -1.66699 -5 -5v-158c0 -3.33301 1.66699 -5 5 -5h119c3.33301 0 6.16602 -1.16699 8.49902 -3.5s3.5 -5.16602 3.5 -8.49902v-97c0 -3.33301 -1.16699 -6.16602 -3.5 -8.49902
s-5.16602 -3.5 -8.49902 -3.5h-119c-3.33301 0 -5 -1.66699 -5 -5v-159c0 -3.33301 1.66699 -5 5 -5h208c3.33301 0 6.16602 -1.16699 8.49902 -3.5s3.5 -5.16602 3.5 -8.49902v-97c0 -3.33301 -1.16699 -6.16602 -3.5 -8.49902s-5.16602 -3.5 -8.49902 -3.5h-343
c-3.33301 0 -6.16602 1.16699 -8.49902 3.5s-3.5 5.16602 -3.5 8.49902v95c0 3.33301 -1.66699 5 -5 5h-149c-2 0 -3.66699 -1.33301 -5 -4l-38 -99c-2 -6 -6.66699 -9 -14 -9h-124c-4.66699 0 -7.66699 1.33301 -9 4s-1.33301 6 0 10l281 677c2 6 6.66699 9 14 9h404
c3.33301 0 6.16602 -1.16699 8.49902 -3.5s3.5 -5.16602 3.5 -8.49902v-97c0 -3.33301 -1.16699 -6.16602 -3.5 -8.49902zM251.999 220.995h104c3.33301 0 5 1.66699 5 5l1 280c0 2.66699 -0.666992 4 -2 4s-2.66602 -1 -3.99902 -3l-108 -280
c-0.666992 -4 0.666016 -6 3.99902 -6z" />
    <glyph glyph-name="Ccedilla" unicode="&#xc7;" horiz-adv-x="464" 
d="M429.5 493.5c-2.33301 -2.33301 -5.16504 -3.50195 -8.49805 -3.50195l-117 -5c-8 0 -12 3.66699 -12 11v26c0 19.333 -5.33301 35 -16 47s-25 18 -43 18c-17.333 0 -31.333 -6 -42 -18s-16 -27.667 -16 -47v-345c0 -19.333 5.33301 -34.833 16 -46.5
s24.667 -17.5 42 -17.5c18 0 32.333 5.83301 43 17.5s16 27.167 16 46.5v27c0 3.33301 1.16699 6.16602 3.5 8.49902s5.16602 3.5 8.49902 3.5l117 -5c3.33301 0 6.16602 -1.16699 8.49902 -3.5s3.5 -5.16602 3.5 -8.49902v-10c0 -50.667 -13.167 -93 -39.5 -127
s-62.5 -55.667 -108.5 -65c-4 -1.33301 -4.66699 -3.33301 -2 -6c24 -26.667 36 -56 36 -88c0 -8.66699 -1 -17.334 -3 -26.001c-5.33301 -22.667 -15.833 -38.667 -31.5 -48s-33.834 -14 -54.501 -14c-17.333 0 -33 2.33301 -47 7c-6 2 -8.66699 6.66699 -8 14l6 46
c0.666992 7.33301 5.33398 10.333 14.001 9c9.33301 -1.33301 17.333 0.833984 24 6.50098s10 14.5 10 26.5c0 21.333 -13.667 45 -41 71l-6 3c-45.333 9.33301 -81.333 30.833 -108 64.5s-40 75.834 -40 126.501v324c0 59.333 18.167 106.666 54.5 141.999
s84.5 53 144.5 53c60.667 0 109.167 -17.667 145.5 -53s54.5 -82.666 54.5 -141.999v-11c0 -3.33301 -1.16699 -6.16602 -3.5 -8.49902z" />
    <glyph glyph-name="Egrave" unicode="&#xc8;" horiz-adv-x="438" 
d="M407.5 582.5c-2.33301 -2.33301 -5.16602 -3.50391 -8.49902 -3.50391h-209c-3.33301 0 -5 -1.66699 -5 -5v-158c0 -3.33301 1.66699 -5 5 -5h120c3.33301 0 6.16602 -1.16699 8.49902 -3.5s3.5 -5.16602 3.5 -8.49902v-97c0 -3.33301 -1.16699 -6.16602 -3.5 -8.49902
s-5.16602 -3.5 -8.49902 -3.5h-120c-3.33301 0 -5 -1.66699 -5 -5v-159c0 -3.33301 1.66699 -5 5 -5h209c3.33301 0 6.16602 -1.16699 8.49902 -3.5s3.5 -5.16602 3.5 -8.49902v-97c0 -3.33301 -1.16699 -6.16602 -3.5 -8.49902s-5.16602 -3.5 -8.49902 -3.5h-343
c-3.33301 0 -6.16602 1.16699 -8.49902 3.5s-3.5 5.16602 -3.5 8.49902v676c0 3.33301 1.16699 6.16602 3.5 8.49902s5.16602 3.5 8.49902 3.5h343c3.33301 0 6.16602 -1.16699 8.49902 -3.5s3.5 -5.16602 3.5 -8.49902v-97c0 -3.33301 -1.16699 -6.16602 -3.5 -8.49902z
M274 769.996c0 -5.33301 -3.66797 -8 -11.001 -8h-75c-5.33301 0 -10 2.33301 -14 7l-76 102c-2 3.33301 -3 6 -3 8c0 4.66699 3.33301 7 10 7h93c6.66699 0 11.334 -2.66699 14.001 -8l60 -102z" />
    <glyph glyph-name="Eacute" unicode="&#xc9;" horiz-adv-x="438" 
d="M407.5 582.5c-2.33301 -2.33301 -5.16602 -3.50391 -8.49902 -3.50391h-209c-3.33301 0 -5 -1.66699 -5 -5v-158c0 -3.33301 1.66699 -5 5 -5h120c3.33301 0 6.16602 -1.16699 8.49902 -3.5s3.5 -5.16602 3.5 -8.49902v-97c0 -3.33301 -1.16699 -6.16602 -3.5 -8.49902
s-5.16602 -3.5 -8.49902 -3.5h-120c-3.33301 0 -5 -1.66699 -5 -5v-159c0 -3.33301 1.66699 -5 5 -5h209c3.33301 0 6.16602 -1.16699 8.49902 -3.5s3.5 -5.16602 3.5 -8.49902v-97c0 -3.33301 -1.16699 -6.16602 -3.5 -8.49902s-5.16602 -3.5 -8.49902 -3.5h-343
c-3.33301 0 -6.16602 1.16699 -8.49902 3.5s-3.5 5.16602 -3.5 8.49902v676c0 3.33301 1.16699 6.16602 3.5 8.49902s5.16602 3.5 8.49902 3.5h343c3.33301 0 6.16602 -1.16699 8.49902 -3.5s3.5 -5.16602 3.5 -8.49902v-97c0 -3.33301 -1.16699 -6.16602 -3.5 -8.49902z
M164 765.996c-2 2.66699 -1.66699 6 1 10l59 102c2.66699 5.33301 7.66699 8 15 8h93c6.66699 0 10 -2.33301 10 -7c0 -2 -1 -4.66699 -3 -8l-77 -102c-4 -4.66699 -8.66699 -7 -14 -7h-74c-4.66699 0 -8 1.33301 -10 4z" />
    <glyph glyph-name="Ecircumflex" unicode="&#xca;" horiz-adv-x="438" 
d="M407.5 582.5c-2.33301 -2.33301 -5.16602 -3.50391 -8.49902 -3.50391h-209c-3.33301 0 -5 -1.66699 -5 -5v-158c0 -3.33301 1.66699 -5 5 -5h120c3.33301 0 6.16602 -1.16699 8.49902 -3.5s3.5 -5.16602 3.5 -8.49902v-97c0 -3.33301 -1.16699 -6.16602 -3.5 -8.49902
s-5.16602 -3.5 -8.49902 -3.5h-120c-3.33301 0 -5 -1.66699 -5 -5v-159c0 -3.33301 1.66699 -5 5 -5h209c3.33301 0 6.16602 -1.16699 8.49902 -3.5s3.5 -5.16602 3.5 -8.49902v-97c0 -3.33301 -1.16699 -6.16602 -3.5 -8.49902s-5.16602 -3.5 -8.49902 -3.5h-343
c-3.33301 0 -6.16602 1.16699 -8.49902 3.5s-3.5 5.16602 -3.5 8.49902v676c0 3.33301 1.16699 6.16602 3.5 8.49902s5.16602 3.5 8.49902 3.5h343c3.33301 0 6.16602 -1.16699 8.49902 -3.5s3.5 -5.16602 3.5 -8.49902v-97c0 -3.33301 -1.16699 -6.16602 -3.5 -8.49902z
M83.5 763.496c-1.66699 2.33301 -1.16602 5.83301 1.50098 10.5l63 104c2.66699 5.33301 7.33398 8 14.001 8h129c6 0 10.667 -2.66699 14 -8l66 -104c1.33301 -4 2 -6.33301 2 -7c0 -4.66699 -3.33301 -7 -10 -7h-88c-6.66699 0 -11.334 3 -14.001 9l-30 56
c-2 3.33301 -4 3.33301 -6 0l-30 -56c-3.33301 -6 -8.33301 -9 -15 -9h-87c-4.66699 0 -7.83398 1.16699 -9.50098 3.5z" />
    <glyph glyph-name="Edieresis" unicode="&#xcb;" horiz-adv-x="438" 
d="M407.5 582.5c-2.33301 -2.33301 -5.16602 -3.50391 -8.49902 -3.50391h-209c-3.33301 0 -5 -1.66699 -5 -5v-158c0 -3.33301 1.66699 -5 5 -5h120c3.33301 0 6.16602 -1.16699 8.49902 -3.5s3.5 -5.16602 3.5 -8.49902v-97c0 -3.33301 -1.16699 -6.16602 -3.5 -8.49902
s-5.16602 -3.5 -8.49902 -3.5h-120c-3.33301 0 -5 -1.66699 -5 -5v-159c0 -3.33301 1.66699 -5 5 -5h209c3.33301 0 6.16602 -1.16699 8.49902 -3.5s3.5 -5.16602 3.5 -8.49902v-97c0 -3.33301 -1.16699 -6.16602 -3.5 -8.49902s-5.16602 -3.5 -8.49902 -3.5h-343
c-3.33301 0 -6.16602 1.16699 -8.49902 3.5s-3.5 5.16602 -3.5 8.49902v676c0 3.33301 1.16699 6.16602 3.5 8.49902s5.16602 3.5 8.49902 3.5h343c3.33301 0 6.16602 -1.16699 8.49902 -3.5s3.5 -5.16602 3.5 -8.49902v-97c0 -3.33301 -1.16699 -6.16602 -3.5 -8.49902z
M263.5 780.496c-15 15 -22.5 33.833 -22.5 56.5c0 23.333 7.33301 42.333 22 57s33.667 22 57 22s42.333 -7.33301 57 -22s22 -33.667 22 -57c0 -22.667 -7.5 -41.5 -22.5 -56.5s-33.833 -22.5 -56.5 -22.5s-41.5 7.5 -56.5 22.5zM79.5 780.496
c-15 15 -22.5 33.833 -22.5 56.5c0 23.333 7.33301 42.333 22 57s33.667 22 57 22s42.333 -7.33301 57 -22s22 -33.667 22 -57c0 -22.667 -7.5 -41.5 -22.5 -56.5s-33.833 -22.5 -56.5 -22.5s-41.5 7.5 -56.5 22.5z" />
    <glyph glyph-name="Igrave" unicode="&#xcc;" horiz-adv-x="230" 
d="M47.5 3.5c-2.33301 2.33301 -3.5 5.16602 -3.5 8.49902v676c0 3.33301 1.16699 6.16602 3.5 8.49902s5.16602 3.5 8.49902 3.5h117c3.33301 0 6.16602 -1.16699 8.49902 -3.5s3.5 -5.16602 3.5 -8.49902v-676c0 -3.33301 -1.16699 -6.16602 -3.5 -8.49902
s-5.16602 -3.5 -8.49902 -3.5h-117c-3.33301 0 -6.16602 1.16699 -8.49902 3.5zM161 770c0 -5.33301 -3.66797 -8 -11.001 -8h-75c-5.33301 0 -10 2.33301 -14 7l-76 102c-2 3.33301 -3 6 -3 8c0 4.66699 3.33301 7 10 7h93c6.66699 0 11.334 -2.66699 14.001 -8l60 -102z
" />
    <glyph glyph-name="Iacute" unicode="&#xcd;" horiz-adv-x="230" 
d="M47.5 3.5c-2.33301 2.33301 -3.5 5.16602 -3.5 8.49902v676c0 3.33301 1.16699 6.16602 3.5 8.49902s5.16602 3.5 8.49902 3.5h117c3.33301 0 6.16602 -1.16699 8.49902 -3.5s3.5 -5.16602 3.5 -8.49902v-676c0 -3.33301 -1.16699 -6.16602 -3.5 -8.49902
s-5.16602 -3.5 -8.49902 -3.5h-117c-3.33301 0 -6.16602 1.16699 -8.49902 3.5zM50 766c-2 2.66699 -1.66699 6 1 10l59 102c2.66699 5.33301 7.66699 8 15 8h93c6.66699 0 10 -2.33301 10 -7c0 -2 -1 -4.66699 -3 -8l-77 -102c-4 -4.66699 -8.66699 -7 -14 -7h-74
c-4.66699 0 -8 1.33301 -10 4z" />
    <glyph glyph-name="Icircumflex" unicode="&#xce;" horiz-adv-x="230" 
d="M47.5 3.5c-2.33301 2.33301 -3.5 5.16602 -3.5 8.49902v676c0 3.33301 1.16699 6.16602 3.5 8.49902s5.16602 3.5 8.49902 3.5h117c3.33301 0 6.16602 -1.16699 8.49902 -3.5s3.5 -5.16602 3.5 -8.49902v-676c0 -3.33301 -1.16699 -6.16602 -3.5 -8.49902
s-5.16602 -3.5 -8.49902 -3.5h-117c-3.33301 0 -6.16602 1.16699 -8.49902 3.5zM-30.5 763.5c-1.66699 2.33301 -1.16602 5.83301 1.50098 10.5l63 104c2.66699 5.33301 7.33398 8 14.001 8h129c6 0 10.667 -2.66699 14 -8l66 -104c1.33301 -4 2 -6.33301 2 -7
c0 -4.66699 -3.33301 -7 -10 -7h-88c-6.66699 0 -11.334 3 -14.001 9l-30 56c-2 3.33301 -4 3.33301 -6 0l-30 -56c-3.33301 -6 -8.33301 -9 -15 -9h-87c-4.66699 0 -7.83398 1.16699 -9.50098 3.5z" />
    <glyph glyph-name="Idieresis" unicode="&#xcf;" horiz-adv-x="230" 
d="M47.5 3.5c-2.33301 2.33301 -3.5 5.16602 -3.5 8.49902v676c0 3.33301 1.16699 6.16602 3.5 8.49902s5.16602 3.5 8.49902 3.5h117c3.33301 0 6.16602 -1.16699 8.49902 -3.5s3.5 -5.16602 3.5 -8.49902v-676c0 -3.33301 -1.16699 -6.16602 -3.5 -8.49902
s-5.16602 -3.5 -8.49902 -3.5h-117c-3.33301 0 -6.16602 1.16699 -8.49902 3.5zM149.5 780.5c-15 15 -22.5 33.833 -22.5 56.5c0 23.333 7.33301 42.333 22 57s33.667 22 57 22s42.333 -7.33301 57 -22s22 -33.667 22 -57c0 -22.667 -7.5 -41.5 -22.5 -56.5
s-33.833 -22.5 -56.5 -22.5s-41.5 7.5 -56.5 22.5zM-34.5 780.5c-15 15 -22.5 33.833 -22.5 56.5c0 23.333 7.33301 42.333 22 57s33.667 22 57 22s42.333 -7.33301 57 -22s22 -33.667 22 -57c0 -22.667 -7.5 -41.5 -22.5 -56.5s-33.833 -22.5 -56.5 -22.5
s-41.5 7.5 -56.5 22.5z" />
    <glyph glyph-name="Eth" unicode="&#xd0;" horiz-adv-x="506" 
d="M414 647c36.667 -35.333 55 -82.3291 55 -140.996v-312c0 -58.667 -18.333 -105.667 -55 -141s-85.334 -53 -146.001 -53h-181c-3.33301 0 -6.16602 1.16699 -8.49902 3.5s-3.5 5.16602 -3.5 8.49902v309c0 3.33301 -1.66699 5 -5 5h-14
c-3.33301 0 -6.16602 1.16699 -8.49902 3.5s-3.5 5.16602 -3.5 8.49902v57c0 3.33301 1.16699 6.16602 3.5 8.49902s5.16602 3.5 8.49902 3.5h14c3.33301 0 5 1.66699 5 5v276c0 3.33301 1.16699 6.16602 3.5 8.49902s5.16602 3.5 8.49902 3.5h181
c60.667 0 109.334 -17.667 146.001 -53zM328 497.004c0 24.667 -5.83398 44.498 -17.501 59.498s-27.167 22.5 -46.5 22.5h-43c-3.33301 0 -5 -1.66699 -5 -5v-162c0 -3.33301 1.66699 -5 5 -5h37c3.33301 0 6.16602 -1.16699 8.49902 -3.5s3.5 -5.16602 3.5 -8.49902v-57
c0 -3.33301 -1.16699 -6.16602 -3.5 -8.49902s-5.16602 -3.5 -8.49902 -3.5h-37c-3.33301 0 -5 -1.66699 -5 -5v-195c0 -3.33301 1.66699 -5 5 -5l44 1c18 0.666992 32.833 8.16699 44.5 22.5s17.834 33.833 18.501 58.5v294z" />
    <glyph glyph-name="Ntilde" unicode="&#xd1;" horiz-adv-x="514" 
d="M333.5 696.5c2.33301 2.33301 5.16602 3.5 8.49902 3.5h116c3.33301 0 6.16602 -1.16699 8.49902 -3.5s3.5 -5.16602 3.5 -8.49902v-676c0 -3.33301 -1.16699 -6.16602 -3.5 -8.49902s-5.16602 -3.5 -8.49902 -3.5h-132c-6.66699 0 -11 3.33301 -13 10l-124 387
c-0.666992 2 -1.83398 2.83301 -3.50098 2.5s-2.5 -1.5 -2.5 -3.5l1 -384c0 -3.33301 -1.16699 -6.16602 -3.5 -8.49902s-5.16602 -3.5 -8.49902 -3.5h-116c-3.33301 0 -6.16602 1.16699 -8.49902 3.5s-3.5 5.16602 -3.5 8.49902v676c0 3.33301 1.16699 6.16602 3.5 8.49902
s5.16602 3.5 8.49902 3.5h131c6.66699 0 11 -3.33301 13 -10l125 -387c0.666992 -2 1.83398 -2.83301 3.50098 -2.5s2.5 1.5 2.5 3.5l-1 384c0 3.33301 1.16699 6.16602 3.5 8.49902zM269 792c-6 2.66699 -12.834 6.33301 -20.501 11s-14.834 7 -21.501 7
c-14.667 0 -26.667 -7.33301 -36 -22c-4.66699 -6.66699 -10.334 -8 -17.001 -4l-42 30c-5.33301 4 -7 9.33301 -5 16c8.66699 23.333 20.834 40.666 36.501 51.999s32.834 17 51.501 17c20 0 41.333 -7.66699 64 -23c1.33301 -1.33301 4.66602 -3.66602 9.99902 -6.99902
s10.5 -6 15.5 -8s10.167 -3 15.5 -3c15.333 0 27.333 6.66699 36 20c4.66699 8 10.334 9.66699 17.001 5l40 -28c3.33301 -2 5 -5 5 -9s-1.66699 -8.66699 -5 -14c-11.333 -20 -25.166 -34.667 -41.499 -44s-32.5 -14 -48.5 -14c-14 0 -32 6 -54 18z" />
    <glyph glyph-name="Ograve" unicode="&#xd2;" horiz-adv-x="473" 
d="M89 46c-36.667 36 -55 84 -55 144v320c0 60 18.333 108 55 144s85.667 54 147 54s110.5 -18 147.5 -54s55.5 -84 55.5 -144v-320c0 -60 -18.5 -108 -55.5 -144s-86.167 -54 -147.5 -54s-110.333 18 -147 54zM281 132.5c11.333 13 17 30.167 17 51.5v332
c0 21.333 -5.66699 38.5 -17 51.5s-26.333 19.5 -45 19.5s-33.5 -6.5 -44.5 -19.5s-16.5 -30.167 -16.5 -51.5v-332c0 -21.333 5.5 -38.5 16.5 -51.5s25.833 -19.5 44.5 -19.5s33.667 6.5 45 19.5zM282 769c0 -5.33301 -3.66797 -8 -11.001 -8h-75
c-5.33301 0 -10 2.33301 -14 7l-76 102c-2 3.33301 -3 6 -3 8c0 4.66699 3.33301 7 10 7h93c6.66699 0 11.334 -2.66699 14.001 -8l60 -102z" />
    <glyph glyph-name="Oacute" unicode="&#xd3;" horiz-adv-x="473" 
d="M89 46c-36.667 36 -55 84 -55 144v320c0 60 18.333 108 55 144s85.667 54 147 54s110.5 -18 147.5 -54s55.5 -84 55.5 -144v-320c0 -60 -18.5 -108 -55.5 -144s-86.167 -54 -147.5 -54s-110.333 18 -147 54zM281 132.5c11.333 13 17 30.167 17 51.5v332
c0 21.333 -5.66699 38.5 -17 51.5s-26.333 19.5 -45 19.5s-33.5 -6.5 -44.5 -19.5s-16.5 -30.167 -16.5 -51.5v-332c0 -21.333 5.5 -38.5 16.5 -51.5s25.833 -19.5 44.5 -19.5s33.667 6.5 45 19.5zM172 765c-2 2.66699 -1.66699 6 1 10l59 102
c2.66699 5.33301 7.66699 8 15 8h93c6.66699 0 10 -2.33301 10 -7c0 -2 -1 -4.66699 -3 -8l-77 -102c-4 -4.66699 -8.66699 -7 -14 -7h-74c-4.66699 0 -8 1.33301 -10 4z" />
    <glyph glyph-name="Ocircumflex" unicode="&#xd4;" horiz-adv-x="473" 
d="M89 46c-36.667 36 -55 84 -55 144v320c0 60 18.333 108 55 144s85.667 54 147 54s110.5 -18 147.5 -54s55.5 -84 55.5 -144v-320c0 -60 -18.5 -108 -55.5 -144s-86.167 -54 -147.5 -54s-110.333 18 -147 54zM281 132.5c11.333 13 17 30.167 17 51.5v332
c0 21.333 -5.66699 38.5 -17 51.5s-26.333 19.5 -45 19.5s-33.5 -6.5 -44.5 -19.5s-16.5 -30.167 -16.5 -51.5v-332c0 -21.333 5.5 -38.5 16.5 -51.5s25.833 -19.5 44.5 -19.5s33.667 6.5 45 19.5zM90.5 762.5c-1.66699 2.33301 -1.16602 5.83301 1.50098 10.5l63 104
c2.66699 5.33301 7.33398 8 14.001 8h129c6 0 10.667 -2.66699 14 -8l66 -104c1.33301 -4 2 -6.33301 2 -7c0 -4.66699 -3.33301 -7 -10 -7h-88c-6.66699 0 -11.334 3 -14.001 9l-30 56c-2 3.33301 -4 3.33301 -6 0l-30 -56c-3.33301 -6 -8.33301 -9 -15 -9h-87
c-4.66699 0 -7.83398 1.16699 -9.50098 3.5z" />
    <glyph glyph-name="Otilde" unicode="&#xd5;" horiz-adv-x="473" 
d="M89 46c-36.667 36 -55 84 -55 144v320c0 60 18.333 108 55 144s85.667 54 147 54s110.5 -18 147.5 -54s55.5 -84 55.5 -144v-320c0 -60 -18.5 -108 -55.5 -144s-86.167 -54 -147.5 -54s-110.333 18 -147 54zM281 132.5c11.333 13 17 30.167 17 51.5v332
c0 21.333 -5.66699 38.5 -17 51.5s-26.333 19.5 -45 19.5s-33.5 -6.5 -44.5 -19.5s-16.5 -30.167 -16.5 -51.5v-332c0 -21.333 5.5 -38.5 16.5 -51.5s25.833 -19.5 44.5 -19.5s33.667 6.5 45 19.5zM249 789c-6 2.66699 -12.834 6.33301 -20.501 11s-14.834 7 -21.501 7
c-14.667 0 -26.667 -7.33301 -36 -22c-4.66699 -6.66699 -10.334 -8 -17.001 -4l-42 30c-5.33301 4 -7 9.33301 -5 16c8.66699 23.333 20.834 40.666 36.501 51.999s32.834 17 51.501 17c20 0 41.333 -7.66699 64 -23c1.33301 -1.33301 4.66602 -3.66602 9.99902 -6.99902
s10.5 -6 15.5 -8s10.167 -3 15.5 -3c15.333 0 27.333 6.66699 36 20c4.66699 8 10.334 9.66699 17.001 5l40 -28c3.33301 -2 5 -5 5 -9s-1.66699 -8.66699 -5 -14c-11.333 -20 -25.166 -34.667 -41.499 -44s-32.5 -14 -48.5 -14c-14 0 -32 6 -54 18z" />
    <glyph glyph-name="Odieresis" unicode="&#xd6;" horiz-adv-x="473" 
d="M89 46c-36.667 36 -55 84 -55 144v320c0 60 18.333 108 55 144s85.667 54 147 54s110.5 -18 147.5 -54s55.5 -84 55.5 -144v-320c0 -60 -18.5 -108 -55.5 -144s-86.167 -54 -147.5 -54s-110.333 18 -147 54zM281 132.5c11.333 13 17 30.167 17 51.5v332
c0 21.333 -5.66699 38.5 -17 51.5s-26.333 19.5 -45 19.5s-33.5 -6.5 -44.5 -19.5s-16.5 -30.167 -16.5 -51.5v-332c0 -21.333 5.5 -38.5 16.5 -51.5s25.833 -19.5 44.5 -19.5s33.667 6.5 45 19.5zM270.5 779.5c-15 15 -22.5 33.833 -22.5 56.5
c0 23.333 7.33301 42.333 22 57s33.667 22 57 22s42.333 -7.33301 57 -22s22 -33.667 22 -57c0 -22.667 -7.5 -41.5 -22.5 -56.5s-33.833 -22.5 -56.5 -22.5s-41.5 7.5 -56.5 22.5zM86.5 779.5c-15 15 -22.5 33.833 -22.5 56.5c0 23.333 7.33301 42.333 22 57
s33.667 22 57 22s42.333 -7.33301 57 -22s22 -33.667 22 -57c0 -22.667 -7.5 -41.5 -22.5 -56.5s-33.833 -22.5 -56.5 -22.5s-41.5 7.5 -56.5 22.5z" />
    <glyph glyph-name="multiply" unicode="&#xd7;" horiz-adv-x="399" 
d="M370 411c0 -2.66699 -1.33301 -5.33398 -4 -8.00098l-88 -88c-1.33301 -1.33301 -2 -2.66602 -2 -3.99902s0.666992 -2.66602 2 -3.99902l89 -89c2.66699 -2 4 -4.66699 4 -8c0 -2.66699 -1.33301 -5.33398 -4 -8.00098l-59 -59
c-2.66699 -2.66699 -5.33398 -4 -8.00098 -4c-1.33301 0 -4 1.33301 -8 4l-89 89c-1.33301 1.33301 -2.66602 2 -3.99902 2s-2.66602 -0.666992 -3.99902 -2l-89 -89c-2.66699 -2.66699 -5.33398 -4 -8.00098 -4c-1.33301 0 -4 1.33301 -8 4l-59 59
c-2.66699 4 -4 6.66699 -4 8c0 2.66699 1.33301 5.33398 4 8.00098l89 89c1.33301 1.33301 2 2.66602 2 3.99902s-0.666992 2.66602 -2 3.99902l-88 88c-2.66699 2.66699 -4 5.33398 -4 8.00098c0 3.33301 1.33301 6.33301 4 9l58 58c2.66699 2.66699 5.33398 4 8.00098 4
c3.33301 0 6 -1.33301 8 -4l89 -89c1.33301 -1.33301 2.66602 -2 3.99902 -2s2.66602 0.666992 3.99902 2l89 89c2.66699 2.66699 5.33398 4 8.00098 4c3.33301 0 6 -1.33301 8 -4l58 -58c2.66699 -2.66699 4 -5.66699 4 -9z" />
    <glyph glyph-name="Oslash" unicode="&#xd8;" horiz-adv-x="554" 
d="M448 692l-33.999 -73.002c-0.666992 -2.66699 -0.666992 -4.66699 0 -6c16 -30 24 -64.333 24 -103v-320c0 -60 -18.5 -108 -55.5 -144s-86.167 -54 -147.5 -54c-36.667 0 -69.667 7 -99 21c-1.33301 0.666992 -2.5 0.666992 -3.5 0s-1.83301 -1.66699 -2.5 -3l-25 -52
c-1.33301 -3.33301 -3.5 -5.66602 -6.5 -6.99902s-6.16699 -0.666016 -9.5 2.00098l-62 39c-6 4 -7.33301 9.33301 -4 16l33 74c0.666992 2.66699 0.666992 4.66699 0 6c-15.333 29.333 -23 63.333 -23 102v320c0 60 18.333 108 55 144s85.667 54 147 54
c36 0 68.333 -6.66699 97 -20c3.33301 -1.33301 5.66602 -0.333008 6.99902 3l24 51c3.33301 7.33301 8.66602 9 15.999 5l64 -39c6.66699 -4 8.33398 -9.33301 5.00098 -16zM297.001 515.998c0 21.333 -5.66699 38.5 -17 51.5s-26.333 19.5 -45 19.5
s-33.5 -6.5 -44.5 -19.5s-16.5 -30.167 -16.5 -51.5v-332c0 -21.333 5.5 -38.5 16.5 -51.5s25.833 -19.5 44.5 -19.5s33.667 6.5 45 19.5s17 30.167 17 51.5v332z" />
    <glyph glyph-name="Ugrave" unicode="&#xd9;" horiz-adv-x="479" 
d="M95.5 48.5c-36.333 37.667 -54.4961 87.834 -54.4961 150.501v489c0 3.33301 1.16699 6.16602 3.5 8.49902s5.16602 3.5 8.49902 3.5h117c3.33301 0 6.16602 -1.16699 8.49902 -3.5s3.5 -5.16602 3.5 -8.49902v-503c0 -21.333 5.33301 -38.666 16 -51.999
s24.667 -20 42 -20s31.166 6.66699 41.499 20s15.5 30.666 15.5 51.999v503c0 3.33301 1.16699 6.16602 3.5 8.49902s5.16602 3.5 8.49902 3.5h117c3.33301 0 6.16602 -1.16699 8.49902 -3.5s3.5 -5.16602 3.5 -8.49902v-489c0 -62.667 -18.167 -112.834 -54.5 -150.501
s-84.166 -56.5 -143.499 -56.5c-60 0 -108.167 18.833 -144.5 56.5zM285.004 770c0 -5.33301 -3.66797 -8 -11.001 -8h-75c-5.33301 0 -10 2.33301 -14 7l-76 102c-2 3.33301 -3 6 -3 8c0 4.66699 3.33301 7 10 7h93c6.66699 0 11.334 -2.66699 14.001 -8l60 -102z" />
    <glyph glyph-name="Uacute" unicode="&#xda;" horiz-adv-x="479" 
d="M95.5 48.5c-36.333 37.667 -54.4961 87.834 -54.4961 150.501v489c0 3.33301 1.16699 6.16602 3.5 8.49902s5.16602 3.5 8.49902 3.5h117c3.33301 0 6.16602 -1.16699 8.49902 -3.5s3.5 -5.16602 3.5 -8.49902v-503c0 -21.333 5.33301 -38.666 16 -51.999
s24.667 -20 42 -20s31.166 6.66699 41.499 20s15.5 30.666 15.5 51.999v503c0 3.33301 1.16699 6.16602 3.5 8.49902s5.16602 3.5 8.49902 3.5h117c3.33301 0 6.16602 -1.16699 8.49902 -3.5s3.5 -5.16602 3.5 -8.49902v-489c0 -62.667 -18.167 -112.834 -54.5 -150.501
s-84.166 -56.5 -143.499 -56.5c-60 0 -108.167 18.833 -144.5 56.5zM175.004 766c-2 2.66699 -1.66699 6 1 10l59 102c2.66699 5.33301 7.66699 8 15 8h93c6.66699 0 10 -2.33301 10 -7c0 -2 -1 -4.66699 -3 -8l-77 -102c-4 -4.66699 -8.66699 -7 -14 -7h-74
c-4.66699 0 -8 1.33301 -10 4z" />
    <glyph glyph-name="Ucircumflex" unicode="&#xdb;" horiz-adv-x="479" 
d="M95.5 48.5c-36.333 37.667 -54.4961 87.834 -54.4961 150.501v489c0 3.33301 1.16699 6.16602 3.5 8.49902s5.16602 3.5 8.49902 3.5h117c3.33301 0 6.16602 -1.16699 8.49902 -3.5s3.5 -5.16602 3.5 -8.49902v-503c0 -21.333 5.33301 -38.666 16 -51.999
s24.667 -20 42 -20s31.166 6.66699 41.499 20s15.5 30.666 15.5 51.999v503c0 3.33301 1.16699 6.16602 3.5 8.49902s5.16602 3.5 8.49902 3.5h117c3.33301 0 6.16602 -1.16699 8.49902 -3.5s3.5 -5.16602 3.5 -8.49902v-489c0 -62.667 -18.167 -112.834 -54.5 -150.501
s-84.166 -56.5 -143.499 -56.5c-60 0 -108.167 18.833 -144.5 56.5zM94.5039 763.5c-1.66699 2.33301 -1.16602 5.83301 1.50098 10.5l63 104c2.66699 5.33301 7.33398 8 14.001 8h129c6 0 10.667 -2.66699 14 -8l66 -104c1.33301 -4 2 -6.33301 2 -7
c0 -4.66699 -3.33301 -7 -10 -7h-88c-6.66699 0 -11.334 3 -14.001 9l-30 56c-2 3.33301 -4 3.33301 -6 0l-30 -56c-3.33301 -6 -8.33301 -9 -15 -9h-87c-4.66699 0 -7.83398 1.16699 -9.50098 3.5z" />
    <glyph glyph-name="Udieresis" unicode="&#xdc;" horiz-adv-x="479" 
d="M95.5 48.5c-36.333 37.667 -54.4961 87.834 -54.4961 150.501v489c0 3.33301 1.16699 6.16602 3.5 8.49902s5.16602 3.5 8.49902 3.5h117c3.33301 0 6.16602 -1.16699 8.49902 -3.5s3.5 -5.16602 3.5 -8.49902v-503c0 -21.333 5.33301 -38.666 16 -51.999
s24.667 -20 42 -20s31.166 6.66699 41.499 20s15.5 30.666 15.5 51.999v503c0 3.33301 1.16699 6.16602 3.5 8.49902s5.16602 3.5 8.49902 3.5h117c3.33301 0 6.16602 -1.16699 8.49902 -3.5s3.5 -5.16602 3.5 -8.49902v-489c0 -62.667 -18.167 -112.834 -54.5 -150.501
s-84.166 -56.5 -143.499 -56.5c-60 0 -108.167 18.833 -144.5 56.5zM274.504 780.5c-15 15 -22.5 33.833 -22.5 56.5c0 23.333 7.33301 42.333 22 57s33.667 22 57 22s42.333 -7.33301 57 -22s22 -33.667 22 -57c0 -22.667 -7.5 -41.5 -22.5 -56.5
s-33.833 -22.5 -56.5 -22.5s-41.5 7.5 -56.5 22.5zM90.5039 780.5c-15 15 -22.5 33.833 -22.5 56.5c0 23.333 7.33301 42.333 22 57s33.667 22 57 22s42.333 -7.33301 57 -22s22 -33.667 22 -57c0 -22.667 -7.5 -41.5 -22.5 -56.5s-33.833 -22.5 -56.5 -22.5
s-41.5 7.5 -56.5 22.5z" />
    <glyph glyph-name="Yacute" unicode="&#xdd;" horiz-adv-x="474" 
d="M169.5 4.5c-2.33301 2.33301 -3.50195 5.16602 -3.50195 8.49902v260l-1 6l-140 407c-0.666992 1.33301 -1 3 -1 5c0 6 3.66699 9 11 9h123c7.33301 0 12 -3.33301 14 -10l62 -239c0.666992 -2 1.66699 -3 3 -3s2.33301 1 3 3l62 239c2 6.66699 6.66699 10 14 10h123
c4 0 7 -1.16699 9 -3.5s2.33301 -5.83301 1 -10.5l-141 -407l-1 -6v-260c0 -3.33301 -1.16699 -6.16602 -3.5 -8.49902s-5.16602 -3.5 -8.49902 -3.5h-117c-3.33301 0 -6.16602 1.16699 -8.49902 3.5zM172.998 766c-2 2.66699 -1.66699 6 1 10l59 102
c2.66699 5.33301 7.66699 8 15 8h93c6.66699 0 10 -2.33301 10 -7c0 -2 -1 -4.66699 -3 -8l-77 -102c-4 -4.66699 -8.66699 -7 -14 -7h-74c-4.66699 0 -8 1.33301 -10 4z" />
    <glyph glyph-name="Thorn" unicode="&#xde;" horiz-adv-x="465" 
d="M354 533.5c28.667 -17.667 50.832 -42.667 66.499 -75s23.5 -69.5 23.5 -111.5c0 -40.667 -7.5 -76.667 -22.5 -108s-36.167 -55.5 -63.5 -72.5s-59 -25.5 -95 -25.5h-74c-3.33301 0 -5 -1.66699 -5 -5v-124c0 -3.33301 -1.16699 -6.16602 -3.5 -8.49902
s-5.16602 -3.5 -8.49902 -3.5h-117c-3.33301 0 -6.16602 1.16699 -8.49902 3.5s-3.5 5.16602 -3.5 8.49902v676c0 3.33301 1.16699 6.16602 3.5 8.49902s5.16602 3.5 8.49902 3.5h117c3.33301 0 6.16602 -1.16699 8.49902 -3.5s3.5 -5.16602 3.5 -8.49902v-123
c0 -3.33301 1.66699 -5 5 -5h67c36.667 0 69.334 -8.83301 98.001 -26.5zM283.998 276.5c12.667 16.333 19 39.167 19 68.5s-6.5 52.333 -19.5 69s-29.833 25 -50.5 25h-44c-3.33301 0 -5 -1.66699 -5 -5v-177c0 -3.33301 1.66699 -5 5 -5h44
c21.333 0 38.333 8.16699 51 24.5z" />
    <glyph glyph-name="germandbls" unicode="&#xdf;" horiz-adv-x="461" 
d="M41.5 4.5c-2.33301 2.33301 -3.50195 5.16992 -3.50195 8.50293v471c0 71.333 16.333 126.5 49 165.5s78.667 58.5 138 58.5c60 0 107.167 -17 141.5 -51s51.833 -80 52.5 -138c0 -63.333 -21.333 -109 -64 -137c-4 -2 -4.33301 -4 -1 -6
c24 -15.333 42.667 -37.833 56 -67.5s20 -64.167 20 -103.5c0 -64.667 -17.833 -115 -53.5 -151s-86.167 -54 -151.5 -54h-5c-3.33301 0 -6.16602 1.16699 -8.49902 3.5s-3.5 5.16602 -3.5 8.49902v96c0 3.33301 1.16699 6.33301 3.5 9s5.16602 4 8.49902 4h5
c20.667 0 37 8.66699 49 26s18 41.666 18 72.999s-5.5 55.666 -16.5 72.999s-26.167 26.333 -45.5 27h-5c-3.33301 0 -6.16602 1.16699 -8.49902 3.5s-3.5 5.16602 -3.5 8.49902v87c0 3.33301 1.16699 6.16602 3.5 8.49902s5.16602 3.5 8.49902 3.5h3
c16.667 0 29.667 6.83301 39 20.5s14 32.834 14 57.501c-0.666992 24.667 -5.83398 44 -15.501 58s-22.5 21 -38.5 21c-15.333 0 -27.166 -7 -35.499 -21s-12.5 -34.333 -12.5 -61v-494c0 -3.33301 -1.16699 -6.16602 -3.5 -8.49902s-5.16602 -3.5 -8.49902 -3.5l-117 1
c-3.33301 0 -6.16602 1.16699 -8.49902 3.5z" />
    <glyph glyph-name="agrave" unicode="&#xe0;" horiz-adv-x="445" 
d="M362 476c35.333 -30.667 52.998 -71 52.998 -121v-343c0 -3.33301 -1.16699 -6.16602 -3.5 -8.49902s-5.16602 -3.5 -8.49902 -3.5h-117c-3.33301 0 -6.16602 1.16699 -8.49902 3.5s-3.5 5.16602 -3.5 8.49902v22c0 2 -0.666992 3.33301 -2 4s-2.66602 0 -3.99902 -2
c-22 -28 -56 -42.667 -102 -44c-38.667 0 -72.167 10.667 -100.5 32s-42.5 62 -42.5 122c0 62 17.167 104.667 51.5 128s83.833 35 148.5 35h46c3.33301 0 5 1.66699 5 5v25c0 18 -4.83301 32.833 -14.5 44.5s-21.834 17.5 -36.501 17.5c-11.333 0 -20.833 -3.5 -28.5 -10.5
s-12.5 -16.833 -14.5 -29.5c-0.666992 -8 -5 -12 -13 -12l-120 1c-8 0 -12 4 -12 12c3.33301 48.667 22.333 87.5 57 116.5s78.667 43.5 132 43.5c56.667 0 102.667 -15.333 138 -46zM255.498 116.5c12.333 10.333 18.501 24.168 18.501 41.501v47
c0 3.33301 -1.66699 5 -5 5h-41c-18 0 -32.5 -5.16699 -43.5 -15.5s-16.5 -24.5 -16.5 -42.5c0 -16.667 4.16699 -29.334 12.5 -38.001s19.5 -13 33.5 -13c15.333 0 29.166 5.16699 41.499 15.5zM267.999 584.002c0 -5.33301 -3.66797 -8 -11.001 -8h-75
c-5.33301 0 -10 2.33301 -14 7l-76 102c-2 3.33301 -3 6 -3 8c0 4.66699 3.33301 7 10 7h93c6.66699 0 11.334 -2.66699 14.001 -8l60 -102z" />
    <glyph glyph-name="aacute" unicode="&#xe1;" horiz-adv-x="445" 
d="M362 476c35.333 -30.667 52.998 -71 52.998 -121v-343c0 -3.33301 -1.16699 -6.16602 -3.5 -8.49902s-5.16602 -3.5 -8.49902 -3.5h-117c-3.33301 0 -6.16602 1.16699 -8.49902 3.5s-3.5 5.16602 -3.5 8.49902v22c0 2 -0.666992 3.33301 -2 4s-2.66602 0 -3.99902 -2
c-22 -28 -56 -42.667 -102 -44c-38.667 0 -72.167 10.667 -100.5 32s-42.5 62 -42.5 122c0 62 17.167 104.667 51.5 128s83.833 35 148.5 35h46c3.33301 0 5 1.66699 5 5v25c0 18 -4.83301 32.833 -14.5 44.5s-21.834 17.5 -36.501 17.5c-11.333 0 -20.833 -3.5 -28.5 -10.5
s-12.5 -16.833 -14.5 -29.5c-0.666992 -8 -5 -12 -13 -12l-120 1c-8 0 -12 4 -12 12c3.33301 48.667 22.333 87.5 57 116.5s78.667 43.5 132 43.5c56.667 0 102.667 -15.333 138 -46zM255.498 116.5c12.333 10.333 18.501 24.168 18.501 41.501v47
c0 3.33301 -1.66699 5 -5 5h-41c-18 0 -32.5 -5.16699 -43.5 -15.5s-16.5 -24.5 -16.5 -42.5c0 -16.667 4.16699 -29.334 12.5 -38.001s19.5 -13 33.5 -13c15.333 0 29.166 5.16699 41.499 15.5zM157.999 580.002c-2 2.66699 -1.66699 6 1 10l59 102
c2.66699 5.33301 7.66699 8 15 8h93c6.66699 0 10 -2.33301 10 -7c0 -2 -1 -4.66699 -3 -8l-77 -102c-4 -4.66699 -8.66699 -7 -14 -7h-74c-4.66699 0 -8 1.33301 -10 4z" />
    <glyph glyph-name="acircumflex" unicode="&#xe2;" horiz-adv-x="445" 
d="M362 476c35.333 -30.667 52.998 -71 52.998 -121v-343c0 -3.33301 -1.16699 -6.16602 -3.5 -8.49902s-5.16602 -3.5 -8.49902 -3.5h-117c-3.33301 0 -6.16602 1.16699 -8.49902 3.5s-3.5 5.16602 -3.5 8.49902v22c0 2 -0.666992 3.33301 -2 4s-2.66602 0 -3.99902 -2
c-22 -28 -56 -42.667 -102 -44c-38.667 0 -72.167 10.667 -100.5 32s-42.5 62 -42.5 122c0 62 17.167 104.667 51.5 128s83.833 35 148.5 35h46c3.33301 0 5 1.66699 5 5v25c0 18 -4.83301 32.833 -14.5 44.5s-21.834 17.5 -36.501 17.5c-11.333 0 -20.833 -3.5 -28.5 -10.5
s-12.5 -16.833 -14.5 -29.5c-0.666992 -8 -5 -12 -13 -12l-120 1c-8 0 -12 4 -12 12c3.33301 48.667 22.333 87.5 57 116.5s78.667 43.5 132 43.5c56.667 0 102.667 -15.333 138 -46zM255.498 116.5c12.333 10.333 18.501 24.168 18.501 41.501v47
c0 3.33301 -1.66699 5 -5 5h-41c-18 0 -32.5 -5.16699 -43.5 -15.5s-16.5 -24.5 -16.5 -42.5c0 -16.667 4.16699 -29.334 12.5 -38.001s19.5 -13 33.5 -13c15.333 0 29.166 5.16699 41.499 15.5zM77.499 577.502c-1.66699 2.33301 -1.16602 5.83301 1.50098 10.5l63 104
c2.66699 5.33301 7.33398 8 14.001 8h129c6 0 10.667 -2.66699 14 -8l66 -104c1.33301 -4 2 -6.33301 2 -7c0 -4.66699 -3.33301 -7 -10 -7h-88c-6.66699 0 -11.334 3 -14.001 9l-30 56c-2 3.33301 -4 3.33301 -6 0l-30 -56c-3.33301 -6 -8.33301 -9 -15 -9h-87
c-4.66699 0 -7.83398 1.16699 -9.50098 3.5z" />
    <glyph glyph-name="atilde" unicode="&#xe3;" horiz-adv-x="445" 
d="M362 476c35.333 -30.667 52.998 -71 52.998 -121v-343c0 -3.33301 -1.16699 -6.16602 -3.5 -8.49902s-5.16602 -3.5 -8.49902 -3.5h-117c-3.33301 0 -6.16602 1.16699 -8.49902 3.5s-3.5 5.16602 -3.5 8.49902v22c0 2 -0.666992 3.33301 -2 4s-2.66602 0 -3.99902 -2
c-22 -28 -56 -42.667 -102 -44c-38.667 0 -72.167 10.667 -100.5 32s-42.5 62 -42.5 122c0 62 17.167 104.667 51.5 128s83.833 35 148.5 35h46c3.33301 0 5 1.66699 5 5v25c0 18 -4.83301 32.833 -14.5 44.5s-21.834 17.5 -36.501 17.5c-11.333 0 -20.833 -3.5 -28.5 -10.5
s-12.5 -16.833 -14.5 -29.5c-0.666992 -8 -5 -12 -13 -12l-120 1c-8 0 -12 4 -12 12c3.33301 48.667 22.333 87.5 57 116.5s78.667 43.5 132 43.5c56.667 0 102.667 -15.333 138 -46zM255.498 116.5c12.333 10.333 18.501 24.168 18.501 41.501v47
c0 3.33301 -1.66699 5 -5 5h-41c-18 0 -32.5 -5.16699 -43.5 -15.5s-16.5 -24.5 -16.5 -42.5c0 -16.667 4.16699 -29.334 12.5 -38.001s19.5 -13 33.5 -13c15.333 0 29.166 5.16699 41.499 15.5zM235.999 604.002c-6 2.66699 -12.834 6.33301 -20.501 11
s-14.834 7 -21.501 7c-14.667 0 -26.667 -7.33301 -36 -22c-4.66699 -6.66699 -10.334 -8 -17.001 -4l-42 30c-5.33301 4 -7 9.33301 -5 16c8.66699 23.333 20.834 40.666 36.501 51.999s32.834 17 51.501 17c20 0 41.333 -7.66699 64 -23
c1.33301 -1.33301 4.66602 -3.66602 9.99902 -6.99902s10.5 -6 15.5 -8s10.167 -3 15.5 -3c15.333 0 27.333 6.66699 36 20c4.66699 8 10.334 9.66699 17.001 5l40 -28c3.33301 -2 5 -5 5 -9s-1.66699 -8.66699 -5 -14c-11.333 -20 -25.166 -34.667 -41.499 -44
s-32.5 -14 -48.5 -14c-14 0 -32 6 -54 18z" />
    <glyph glyph-name="adieresis" unicode="&#xe4;" horiz-adv-x="445" 
d="M362 476c35.333 -30.667 52.998 -71 52.998 -121v-343c0 -3.33301 -1.16699 -6.16602 -3.5 -8.49902s-5.16602 -3.5 -8.49902 -3.5h-117c-3.33301 0 -6.16602 1.16699 -8.49902 3.5s-3.5 5.16602 -3.5 8.49902v22c0 2 -0.666992 3.33301 -2 4s-2.66602 0 -3.99902 -2
c-22 -28 -56 -42.667 -102 -44c-38.667 0 -72.167 10.667 -100.5 32s-42.5 62 -42.5 122c0 62 17.167 104.667 51.5 128s83.833 35 148.5 35h46c3.33301 0 5 1.66699 5 5v25c0 18 -4.83301 32.833 -14.5 44.5s-21.834 17.5 -36.501 17.5c-11.333 0 -20.833 -3.5 -28.5 -10.5
s-12.5 -16.833 -14.5 -29.5c-0.666992 -8 -5 -12 -13 -12l-120 1c-8 0 -12 4 -12 12c3.33301 48.667 22.333 87.5 57 116.5s78.667 43.5 132 43.5c56.667 0 102.667 -15.333 138 -46zM255.498 116.5c12.333 10.333 18.501 24.168 18.501 41.501v47
c0 3.33301 -1.66699 5 -5 5h-41c-18 0 -32.5 -5.16699 -43.5 -15.5s-16.5 -24.5 -16.5 -42.5c0 -16.667 4.16699 -29.334 12.5 -38.001s19.5 -13 33.5 -13c15.333 0 29.166 5.16699 41.499 15.5zM257.499 594.502c-15 15 -22.5 33.833 -22.5 56.5
c0 23.333 7.33301 42.333 22 57s33.667 22 57 22s42.333 -7.33301 57 -22s22 -33.667 22 -57c0 -22.667 -7.5 -41.5 -22.5 -56.5s-33.833 -22.5 -56.5 -22.5s-41.5 7.5 -56.5 22.5zM73.499 594.502c-15 15 -22.5 33.833 -22.5 56.5c0 23.333 7.33301 42.333 22 57
s33.667 22 57 22s42.333 -7.33301 57 -22s22 -33.667 22 -57c0 -22.667 -7.5 -41.5 -22.5 -56.5s-33.833 -22.5 -56.5 -22.5s-41.5 7.5 -56.5 22.5z" />
    <glyph glyph-name="aring" unicode="&#xe5;" horiz-adv-x="445" 
d="M362 476c35.333 -30.667 52.998 -71 52.998 -121v-343c0 -3.33301 -1.16699 -6.16602 -3.5 -8.49902s-5.16602 -3.5 -8.49902 -3.5h-117c-3.33301 0 -6.16602 1.16699 -8.49902 3.5s-3.5 5.16602 -3.5 8.49902v22c0 2 -0.666992 3.33301 -2 4s-2.66602 0 -3.99902 -2
c-22 -28 -56 -42.667 -102 -44c-38.667 0 -72.167 10.667 -100.5 32s-42.5 62 -42.5 122c0 62 17.167 104.667 51.5 128s83.833 35 148.5 35h46c3.33301 0 5 1.66699 5 5v25c0 18 -4.83301 32.833 -14.5 44.5s-21.834 17.5 -36.501 17.5c-11.333 0 -20.833 -3.5 -28.5 -10.5
s-12.5 -16.833 -14.5 -29.5c-0.666992 -8 -5 -12 -13 -12l-120 1c-8 0 -12 4 -12 12c3.33301 48.667 22.333 87.5 57 116.5s78.667 43.5 132 43.5c56.667 0 102.667 -15.333 138 -46zM255.498 116.5c12.333 10.333 18.501 24.168 18.501 41.501v47
c0 3.33301 -1.66699 5 -5 5h-41c-18 0 -32.5 -5.16699 -43.5 -15.5s-16.5 -24.5 -16.5 -42.5c0 -16.667 4.16699 -29.334 12.5 -38.001s19.5 -13 33.5 -13c15.333 0 29.166 5.16699 41.499 15.5zM135.499 598.502c-23.667 23.667 -35.5 53.167 -35.5 88.5
s11.833 64.833 35.5 88.5s52.834 35.5 87.501 35.5s64 -11.833 88 -35.5s36 -53.167 36 -88.5c0 -34.667 -12 -64 -36 -88s-53.333 -36 -88 -36s-63.834 11.833 -87.501 35.5zM257.999 651.502c10 9.66699 15 21.5 15 35.5c0 14.667 -5 26.834 -15 36.501
s-21.667 14.5 -35 14.5s-24.833 -4.83301 -34.5 -14.5s-14.5 -21.834 -14.5 -36.501c0 -14 4.83301 -25.833 14.5 -35.5s21.167 -14.5 34.5 -14.5s25 4.83301 35 14.5z" />
    <glyph glyph-name="ae" unicode="&#xe6;" horiz-adv-x="686" 
d="M68 23c-30 20.667 -44.999 61.666 -44.999 122.999c0 60 16.333 100.833 49 122.5s81 32.5 145 32.5h51c3.33301 0 5 1.66699 5 5v33c0 18.667 -4.5 33.667 -13.5 45s-21.5 17 -37.5 17c-12 0 -22.667 -3.5 -32 -10.5s-15.333 -16.5 -18 -28.5
c-1.33301 -7.33301 -5.33301 -11 -12 -11l-118 3c-8 0 -12 4 -12 12c2.66699 48 21.667 86 57 114s79 42 131 42c25.333 0 47.5 -4 66.5 -12s36.833 -20 53.5 -36c2.66699 -2.66699 5.33398 -2.66699 8.00098 0c32 32 75 48 129 48c55.333 0 99.833 -15.5 133.5 -46.5
s50.5 -71.5 50.5 -121.5v-135c0 -3.33301 -1.16699 -6.16602 -3.5 -8.49902s-5.16602 -3.5 -8.49902 -3.5h-220c-3.33301 0 -5 -1.66699 -5 -5v-31c0 -16 4.5 -29 13.5 -39s20.5 -15 34.5 -15c11.333 0 21.166 3.66699 29.499 11s14.166 16 17.499 26
c3.33301 7.33301 8 10.666 14 9.99902l114 -10c8 -1.33301 11.667 -5.66602 11 -12.999c-4.66699 -47.333 -22 -84 -52 -110s-71 -39 -123 -39c-34.667 0 -64.5 6 -89.5 18s-40.833 25.667 -47.5 41c-0.666992 0.666992 -1.16699 1.5 -1.5 2.5s-0.833008 1.16699 -1.5 0.5
c-6.66699 -16.667 -25.334 -31.167 -56.001 -43.5s-66.667 -18.5 -108 -18.5c-42.667 0 -79 10.333 -109 31zM427.001 300.999l86.001 -0.00195312c3.33301 0 5 1.66699 5 5v38c0 16.667 -4.5 30.334 -13.5 41.001s-20.5 16 -34.5 16
c-14.667 0 -26.334 -5.16699 -35.001 -15.5s-13 -24.166 -13 -41.499v-38c0 -3.33301 1.66699 -5 5 -5zM255.002 110.997c12 9.33301 18.001 22 18.001 38v52c0 3.33301 -1.66699 5 -5 5h-41c-18.667 0 -33.334 -5 -44.001 -15s-16 -24 -16 -42
c0 -17.333 4.33301 -30.333 13 -39s20 -13 34 -13c15.333 0 29 4.66699 41 14z" />
    <glyph glyph-name="ccedilla" unicode="&#xe7;" horiz-adv-x="434" 
d="M405.5 333.5c-2.33301 -2.33301 -5.16699 -3.5 -8.5 -3.5l-117 -5c-8 0 -12 4 -12 12v12c0 14.667 -4.5 27 -13.5 37s-20.5 15 -34.5 15c-14.667 0 -26.334 -5.33301 -35.001 -16s-13 -24.667 -13 -42v-172c0 -17.333 4.33301 -31.333 13 -42s20.334 -16 35.001 -16
c14 0 25.5 5.16699 34.5 15.5s13.5 22.5 13.5 36.5v13c0 3.33301 1.16699 6.16602 3.5 8.49902s5.16602 3.5 8.49902 3.5l117 -1c3.33301 0 6.16602 -1.16699 8.49902 -3.5s3.5 -5.16602 3.5 -8.49902v-23c0 -41.333 -11.833 -75.833 -35.5 -103.5
s-57.167 -45.834 -100.5 -54.501c-4 -1.33301 -4.66699 -3.33301 -2 -6c23.333 -27.333 35 -56.333 35 -87c0 -9.33301 -1 -18 -3 -26c-5.33301 -22.667 -15.833 -38.667 -31.5 -48s-33.834 -14 -54.501 -14c-17.333 0 -33 2.33301 -47 7c-6.66699 2 -9.66699 6.66699 -9 14
l6 46c0.666992 7.33301 5.33398 10.333 14.001 9c8 -1.33301 15 0.166992 21 4.5s10.333 11.166 13 20.499c4 21.333 -9.33301 47.333 -40 78l-5 3c-44 8 -78.167 26.167 -102.5 54.5s-36.5 64.5 -36.5 108.5v194c0 50.667 16.833 91.334 50.5 122.001s79.834 46 138.501 46
s104.834 -15 138.501 -45s50.5 -69 50.5 -117v-18c0 -3.33301 -1.16699 -6.16602 -3.5 -8.49902z" />
    <glyph glyph-name="egrave" unicode="&#xe8;" horiz-adv-x="436" 
d="M405.5 216.5c-2.33301 -2.33301 -5.16797 -3.50293 -8.50098 -3.50293h-220c-3.33301 0 -5 -1.66699 -5 -5v-37c0 -16.667 4.5 -30.5 13.5 -41.5s20.5 -16.5 34.5 -16.5c12.667 0 23 4.16699 31 12.5s13.333 18.833 16 31.5c2 6.66699 6.33301 10 13 10l115 -6
c3.33301 0 6.16602 -1.16699 8.49902 -3.5s3.16602 -5.5 2.49902 -9.5c-4.66699 -51.333 -22.5 -90.166 -53.5 -116.499s-75.167 -39.5 -132.5 -39.5c-59.333 0 -105.666 14.833 -138.999 44.5s-50 70.834 -50 123.501v194c0 50.667 16.833 91.334 50.5 122.001
s79.834 46 138.501 46s104.834 -15.333 138.501 -46s50.5 -71.334 50.5 -122.001v-129c0 -3.33301 -1.16699 -6.16602 -3.5 -8.49902zM185.498 384.997c-9 -10.667 -13.5 -24.334 -13.5 -41.001v-39c0 -3.33301 1.66699 -5 5 -5h86c3.33301 0 5 1.66699 5 5v39
c0 16.667 -4.5 30.334 -13.5 41.001s-20.5 16 -34.5 16s-25.5 -5.33301 -34.5 -16zM263.998 583.997c0 -5.33301 -3.66797 -8 -11.001 -8h-75c-5.33301 0 -10 2.33301 -14 7l-76 102c-2 3.33301 -3 6 -3 8c0 4.66699 3.33301 7 10 7h93c6.66699 0 11.334 -2.66699 14.001 -8
l60 -102z" />
    <glyph glyph-name="eacute" unicode="&#xe9;" horiz-adv-x="436" 
d="M405.5 216.5c-2.33301 -2.33301 -5.16797 -3.50293 -8.50098 -3.50293h-220c-3.33301 0 -5 -1.66699 -5 -5v-37c0 -16.667 4.5 -30.5 13.5 -41.5s20.5 -16.5 34.5 -16.5c12.667 0 23 4.16699 31 12.5s13.333 18.833 16 31.5c2 6.66699 6.33301 10 13 10l115 -6
c3.33301 0 6.16602 -1.16699 8.49902 -3.5s3.16602 -5.5 2.49902 -9.5c-4.66699 -51.333 -22.5 -90.166 -53.5 -116.499s-75.167 -39.5 -132.5 -39.5c-59.333 0 -105.666 14.833 -138.999 44.5s-50 70.834 -50 123.501v194c0 50.667 16.833 91.334 50.5 122.001
s79.834 46 138.501 46s104.834 -15.333 138.501 -46s50.5 -71.334 50.5 -122.001v-129c0 -3.33301 -1.16699 -6.16602 -3.5 -8.49902zM185.498 384.997c-9 -10.667 -13.5 -24.334 -13.5 -41.001v-39c0 -3.33301 1.66699 -5 5 -5h86c3.33301 0 5 1.66699 5 5v39
c0 16.667 -4.5 30.334 -13.5 41.001s-20.5 16 -34.5 16s-25.5 -5.33301 -34.5 -16zM153.998 579.997c-2 2.66699 -1.66699 6 1 10l59 102c2.66699 5.33301 7.66699 8 15 8h93c6.66699 0 10 -2.33301 10 -7c0 -2 -1 -4.66699 -3 -8l-77 -102c-4 -4.66699 -8.66699 -7 -14 -7
h-74c-4.66699 0 -8 1.33301 -10 4z" />
    <glyph glyph-name="ecircumflex" unicode="&#xea;" horiz-adv-x="436" 
d="M405.5 216.5c-2.33301 -2.33301 -5.16797 -3.50293 -8.50098 -3.50293h-220c-3.33301 0 -5 -1.66699 -5 -5v-37c0 -16.667 4.5 -30.5 13.5 -41.5s20.5 -16.5 34.5 -16.5c12.667 0 23 4.16699 31 12.5s13.333 18.833 16 31.5c2 6.66699 6.33301 10 13 10l115 -6
c3.33301 0 6.16602 -1.16699 8.49902 -3.5s3.16602 -5.5 2.49902 -9.5c-4.66699 -51.333 -22.5 -90.166 -53.5 -116.499s-75.167 -39.5 -132.5 -39.5c-59.333 0 -105.666 14.833 -138.999 44.5s-50 70.834 -50 123.501v194c0 50.667 16.833 91.334 50.5 122.001
s79.834 46 138.501 46s104.834 -15.333 138.501 -46s50.5 -71.334 50.5 -122.001v-129c0 -3.33301 -1.16699 -6.16602 -3.5 -8.49902zM185.498 384.997c-9 -10.667 -13.5 -24.334 -13.5 -41.001v-39c0 -3.33301 1.66699 -5 5 -5h86c3.33301 0 5 1.66699 5 5v39
c0 16.667 -4.5 30.334 -13.5 41.001s-20.5 16 -34.5 16s-25.5 -5.33301 -34.5 -16zM73.498 577.497c-1.66699 2.33301 -1.16602 5.83301 1.50098 10.5l63 104c2.66699 5.33301 7.33398 8 14.001 8h129c6 0 10.667 -2.66699 14 -8l66 -104c1.33301 -4 2 -6.33301 2 -7
c0 -4.66699 -3.33301 -7 -10 -7h-88c-6.66699 0 -11.334 3 -14.001 9l-30 56c-2 3.33301 -4 3.33301 -6 0l-30 -56c-3.33301 -6 -8.33301 -9 -15 -9h-87c-4.66699 0 -7.83398 1.16699 -9.50098 3.5z" />
    <glyph glyph-name="edieresis" unicode="&#xeb;" horiz-adv-x="436" 
d="M405.5 216.5c-2.33301 -2.33301 -5.16797 -3.50293 -8.50098 -3.50293h-220c-3.33301 0 -5 -1.66699 -5 -5v-37c0 -16.667 4.5 -30.5 13.5 -41.5s20.5 -16.5 34.5 -16.5c12.667 0 23 4.16699 31 12.5s13.333 18.833 16 31.5c2 6.66699 6.33301 10 13 10l115 -6
c3.33301 0 6.16602 -1.16699 8.49902 -3.5s3.16602 -5.5 2.49902 -9.5c-4.66699 -51.333 -22.5 -90.166 -53.5 -116.499s-75.167 -39.5 -132.5 -39.5c-59.333 0 -105.666 14.833 -138.999 44.5s-50 70.834 -50 123.501v194c0 50.667 16.833 91.334 50.5 122.001
s79.834 46 138.501 46s104.834 -15.333 138.501 -46s50.5 -71.334 50.5 -122.001v-129c0 -3.33301 -1.16699 -6.16602 -3.5 -8.49902zM185.498 384.997c-9 -10.667 -13.5 -24.334 -13.5 -41.001v-39c0 -3.33301 1.66699 -5 5 -5h86c3.33301 0 5 1.66699 5 5v39
c0 16.667 -4.5 30.334 -13.5 41.001s-20.5 16 -34.5 16s-25.5 -5.33301 -34.5 -16zM253.498 594.497c-15 15 -22.5 33.833 -22.5 56.5c0 23.333 7.33301 42.333 22 57s33.667 22 57 22s42.333 -7.33301 57 -22s22 -33.667 22 -57c0 -22.667 -7.5 -41.5 -22.5 -56.5
s-33.833 -22.5 -56.5 -22.5s-41.5 7.5 -56.5 22.5zM69.498 594.497c-15 15 -22.5 33.833 -22.5 56.5c0 23.333 7.33301 42.333 22 57s33.667 22 57 22s42.333 -7.33301 57 -22s22 -33.667 22 -57c0 -22.667 -7.5 -41.5 -22.5 -56.5s-33.833 -22.5 -56.5 -22.5
s-41.5 7.5 -56.5 22.5z" />
    <glyph glyph-name="igrave" unicode="&#xec;" horiz-adv-x="190" 
d="M27.5 3.5c-2.33301 2.33301 -3.5 5.16602 -3.5 8.49902v490c0 3.33301 1.16699 6.16602 3.5 8.49902s5.16602 3.5 8.49902 3.5h117c3.33301 0 6.16602 -1.16699 8.49902 -3.5s3.5 -5.16602 3.5 -8.49902v-490c0 -3.33301 -1.16699 -6.16602 -3.5 -8.49902
s-5.16602 -3.5 -8.49902 -3.5h-117c-3.33301 0 -6.16602 1.16699 -8.49902 3.5zM141 584c0 -5.33301 -3.66797 -8 -11.001 -8h-75c-5.33301 0 -10 2.33301 -14 7l-76 102c-2 3.33301 -3 6 -3 8c0 4.66699 3.33301 7 10 7h93c6.66699 0 11.334 -2.66699 14.001 -8l60 -102z
" />
    <glyph glyph-name="iacute" unicode="&#xed;" horiz-adv-x="190" 
d="M27.5 3.5c-2.33301 2.33301 -3.5 5.16602 -3.5 8.49902v490c0 3.33301 1.16699 6.16602 3.5 8.49902s5.16602 3.5 8.49902 3.5h117c3.33301 0 6.16602 -1.16699 8.49902 -3.5s3.5 -5.16602 3.5 -8.49902v-490c0 -3.33301 -1.16699 -6.16602 -3.5 -8.49902
s-5.16602 -3.5 -8.49902 -3.5h-117c-3.33301 0 -6.16602 1.16699 -8.49902 3.5zM30 580c-2 2.66699 -1.66699 6 1 10l59 102c2.66699 5.33301 7.66699 8 15 8h93c6.66699 0 10 -2.33301 10 -7c0 -2 -1 -4.66699 -3 -8l-77 -102c-4 -4.66699 -8.66699 -7 -14 -7h-74
c-4.66699 0 -8 1.33301 -10 4z" />
    <glyph glyph-name="icircumflex" unicode="&#xee;" horiz-adv-x="190" 
d="M27.5 3.5c-2.33301 2.33301 -3.5 5.16602 -3.5 8.49902v490c0 3.33301 1.16699 6.16602 3.5 8.49902s5.16602 3.5 8.49902 3.5h117c3.33301 0 6.16602 -1.16699 8.49902 -3.5s3.5 -5.16602 3.5 -8.49902v-490c0 -3.33301 -1.16699 -6.16602 -3.5 -8.49902
s-5.16602 -3.5 -8.49902 -3.5h-117c-3.33301 0 -6.16602 1.16699 -8.49902 3.5zM-50.5 577.5c-1.66699 2.33301 -1.16602 5.83301 1.50098 10.5l63 104c2.66699 5.33301 7.33398 8 14.001 8h129c6 0 10.667 -2.66699 14 -8l66 -104c1.33301 -4 2 -6.33301 2 -7
c0 -4.66699 -3.33301 -7 -10 -7h-88c-6.66699 0 -11.334 3 -14.001 9l-30 56c-2 3.33301 -4 3.33301 -6 0l-30 -56c-3.33301 -6 -8.33301 -9 -15 -9h-87c-4.66699 0 -7.83398 1.16699 -9.50098 3.5z" />
    <glyph glyph-name="idieresis" unicode="&#xef;" horiz-adv-x="190" 
d="M27.5 3.5c-2.33301 2.33301 -3.5 5.16602 -3.5 8.49902v490c0 3.33301 1.16699 6.16602 3.5 8.49902s5.16602 3.5 8.49902 3.5h117c3.33301 0 6.16602 -1.16699 8.49902 -3.5s3.5 -5.16602 3.5 -8.49902v-490c0 -3.33301 -1.16699 -6.16602 -3.5 -8.49902
s-5.16602 -3.5 -8.49902 -3.5h-117c-3.33301 0 -6.16602 1.16699 -8.49902 3.5zM129.5 594.5c-15 15 -22.5 33.833 -22.5 56.5c0 23.333 7.33301 42.333 22 57s33.667 22 57 22s42.333 -7.33301 57 -22s22 -33.667 22 -57c0 -22.667 -7.5 -41.5 -22.5 -56.5
s-33.833 -22.5 -56.5 -22.5s-41.5 7.5 -56.5 22.5zM-54.5 594.5c-15 15 -22.5 33.833 -22.5 56.5c0 23.333 7.33301 42.333 22 57s33.667 22 57 22s42.333 -7.33301 57 -22s22 -33.667 22 -57c0 -22.667 -7.5 -41.5 -22.5 -56.5s-33.833 -22.5 -56.5 -22.5
s-41.5 7.5 -56.5 22.5z" />
    <glyph glyph-name="eth" unicode="&#xf0;" horiz-adv-x="449" 
d="M415 606c0 -5.33301 -3.00098 -8.99902 -9.00098 -10.999l-54 -14c-4 -1.33301 -5 -3.33301 -3 -6c20.667 -39.333 36.167 -79 46.5 -119s15.833 -83.333 16.5 -130v-166c0 -52 -16.833 -93 -50.5 -123s-80.5 -45 -140.5 -45c-59.333 0 -105.833 15 -139.5 45
s-50.5 71 -50.5 123v166c0 32.667 7.33301 61.667 22 87s34.667 45.166 60 59.499s53.333 21.5 84 21.5c26 0 45.333 -5.66699 58 -17c2.66699 -2 3.66699 -1.33301 3 2c-6.66699 22 -16 44.667 -28 68c-1.33301 3.33301 -3.33301 4.33301 -6 3l-76 -19l-4 -1
c-5.33301 0 -9 3.33301 -11 10l-9 35l-1 4c0 5.33301 3.33301 9 10 11l57 15c4 1.33301 5 3.33301 3 6c-16 26 -33 50.667 -51 74c-2 3.33301 -3 6 -3 8c0 4.66699 3.33301 7 10 7h110c6.66699 0 11.334 -2.33301 14.001 -7l37 -52c0.666992 -1.33301 1.5 -2.33301 2.5 -3
s2.16699 -0.666992 3.5 0l75 19l4 1c5.33301 0 9 -3.33301 11 -10l8 -38zM256.999 356.001c-9.33301 10.667 -21.333 16 -36 16s-26.5 -5.33301 -35.5 -16s-13.5 -24.334 -13.5 -41.001v-144c0 -17.333 4.5 -31.333 13.5 -42s20.833 -16 35.5 -16s26.667 5.5 36 16.5
s14 24.833 14 41.5v144c0 16.667 -4.66699 30.334 -14 41.001z" />
    <glyph glyph-name="ntilde" unicode="&#xf1;" 
d="M163 601c-4 -8 -9.33203 -9.33398 -15.999 -4.00098l-39 29c-5.33301 4 -7 9.33301 -5 16c7.33301 22.667 18.5 39.834 33.5 51.501s31.5 17.5 49.5 17.5c19.333 0 39.666 -7.66699 60.999 -23c8.66699 -6 15.667 -10.5 21 -13.5s11.333 -4.5 18 -4.5
c14.667 0 26 6.66699 34 20c5.33301 7.33301 11 8.66602 17 3.99902l37 -27c6 -4 7.66699 -9.33301 5 -16c-10.667 -22.667 -24.167 -39.167 -40.5 -49.5s-32.833 -15.5 -49.5 -15.5c-8.66699 0 -16.834 1.5 -24.501 4.5s-16.834 7.5 -27.501 13.5
c-4.66699 2.66699 -10.667 6.33398 -18 11.001s-14.666 7 -21.999 7c-13.333 0 -24.666 -7 -33.999 -21zM379.001 476.999c22.667 -30 33.9971 -72 33.9971 -126v-339c0 -3.33301 -1.16699 -6.16602 -3.5 -8.49902s-5.16602 -3.5 -8.49902 -3.5h-117
c-3.33301 0 -6.16602 1.16699 -8.49902 3.5s-3.5 5.16602 -3.5 8.49902v328c0 19.333 -3.83301 34.333 -11.5 45s-18.834 16 -33.501 16c-15.333 0 -27.166 -5.5 -35.499 -16.5s-12.5 -26.5 -12.5 -46.5v-326c0 -3.33301 -1.16699 -6.16602 -3.5 -8.49902
s-5.16602 -3.5 -8.49902 -3.5h-117c-3.33301 0 -6.16602 1.16699 -8.49902 3.5s-3.5 5.16602 -3.5 8.49902v490c0 3.33301 1.16699 6.16602 3.5 8.49902s5.16602 3.5 8.49902 3.5h117c3.33301 0 6.16602 -1.16699 8.49902 -3.5s3.5 -5.16602 3.5 -8.49902v-19
c0 -2 0.833008 -3 2.5 -3s3.83398 1.33301 6.50098 4c21.333 25.333 51 38 89 38c45.333 0 79.333 -15 102 -45z" />
    <glyph glyph-name="ograve" unicode="&#xf2;" horiz-adv-x="442" 
d="M81.5 37c-33.667 30 -50.5 71 -50.5 123v194c0 50.667 17 91.334 51 122.001s80.333 46 139 46c59.333 0 106 -15.333 140 -46s51 -71.334 51 -122.001v-194c0 -52 -16.833 -93 -50.5 -123s-80.5 -45 -140.5 -45c-59.333 0 -105.833 15 -139.5 45zM257 130
c9.33301 10.667 14 24.334 14 41.001v173c0 16.667 -4.66699 30.334 -14 41.001s-21.333 16 -36 16s-26.5 -5.33301 -35.5 -16s-13.5 -24.334 -13.5 -41.001v-173c0 -16.667 4.5 -30.334 13.5 -41.001s20.833 -16 35.5 -16s26.667 5.33301 36 16zM267 584
c0 -5.33301 -3.66797 -8 -11.001 -8h-75c-5.33301 0 -10 2.33301 -14 7l-76 102c-2 3.33301 -3 6 -3 8c0 4.66699 3.33301 7 10 7h93c6.66699 0 11.334 -2.66699 14.001 -8l60 -102z" />
    <glyph glyph-name="oacute" unicode="&#xf3;" horiz-adv-x="442" 
d="M81.5 37c-33.667 30 -50.5 71 -50.5 123v194c0 50.667 17 91.334 51 122.001s80.333 46 139 46c59.333 0 106 -15.333 140 -46s51 -71.334 51 -122.001v-194c0 -52 -16.833 -93 -50.5 -123s-80.5 -45 -140.5 -45c-59.333 0 -105.833 15 -139.5 45zM257 130
c9.33301 10.667 14 24.334 14 41.001v173c0 16.667 -4.66699 30.334 -14 41.001s-21.333 16 -36 16s-26.5 -5.33301 -35.5 -16s-13.5 -24.334 -13.5 -41.001v-173c0 -16.667 4.5 -30.334 13.5 -41.001s20.833 -16 35.5 -16s26.667 5.33301 36 16zM157 580
c-2 2.66699 -1.66699 6 1 10l59 102c2.66699 5.33301 7.66699 8 15 8h93c6.66699 0 10 -2.33301 10 -7c0 -2 -1 -4.66699 -3 -8l-77 -102c-4 -4.66699 -8.66699 -7 -14 -7h-74c-4.66699 0 -8 1.33301 -10 4z" />
    <glyph glyph-name="ocircumflex" unicode="&#xf4;" horiz-adv-x="442" 
d="M81.5 37c-33.667 30 -50.5 71 -50.5 123v194c0 50.667 17 91.334 51 122.001s80.333 46 139 46c59.333 0 106 -15.333 140 -46s51 -71.334 51 -122.001v-194c0 -52 -16.833 -93 -50.5 -123s-80.5 -45 -140.5 -45c-59.333 0 -105.833 15 -139.5 45zM257 130
c9.33301 10.667 14 24.334 14 41.001v173c0 16.667 -4.66699 30.334 -14 41.001s-21.333 16 -36 16s-26.5 -5.33301 -35.5 -16s-13.5 -24.334 -13.5 -41.001v-173c0 -16.667 4.5 -30.334 13.5 -41.001s20.833 -16 35.5 -16s26.667 5.33301 36 16zM76.5 577.5
c-1.66699 2.33301 -1.16602 5.83301 1.50098 10.5l63 104c2.66699 5.33301 7.33398 8 14.001 8h129c6 0 10.667 -2.66699 14 -8l66 -104c1.33301 -4 2 -6.33301 2 -7c0 -4.66699 -3.33301 -7 -10 -7h-88c-6.66699 0 -11.334 3 -14.001 9l-30 56c-2 3.33301 -4 3.33301 -6 0
l-30 -56c-3.33301 -6 -8.33301 -9 -15 -9h-87c-4.66699 0 -7.83398 1.16699 -9.50098 3.5z" />
    <glyph glyph-name="otilde" unicode="&#xf5;" horiz-adv-x="442" 
d="M81.5 37c-33.667 30 -50.5 71 -50.5 123v194c0 50.667 17 91.334 51 122.001s80.333 46 139 46c59.333 0 106 -15.333 140 -46s51 -71.334 51 -122.001v-194c0 -52 -16.833 -93 -50.5 -123s-80.5 -45 -140.5 -45c-59.333 0 -105.833 15 -139.5 45zM257 130
c9.33301 10.667 14 24.334 14 41.001v173c0 16.667 -4.66699 30.334 -14 41.001s-21.333 16 -36 16s-26.5 -5.33301 -35.5 -16s-13.5 -24.334 -13.5 -41.001v-173c0 -16.667 4.5 -30.334 13.5 -41.001s20.833 -16 35.5 -16s26.667 5.33301 36 16zM235 604
c-6 2.66699 -12.834 6.33301 -20.501 11s-14.834 7 -21.501 7c-14.667 0 -26.667 -7.33301 -36 -22c-4.66699 -6.66699 -10.334 -8 -17.001 -4l-42 30c-5.33301 4 -7 9.33301 -5 16c8.66699 23.333 20.834 40.666 36.501 51.999s32.834 17 51.501 17
c20 0 41.333 -7.66699 64 -23c1.33301 -1.33301 4.66602 -3.66602 9.99902 -6.99902s10.5 -6 15.5 -8s10.167 -3 15.5 -3c15.333 0 27.333 6.66699 36 20c4.66699 8 10.334 9.66699 17.001 5l40 -28c3.33301 -2 5 -5 5 -9s-1.66699 -8.66699 -5 -14
c-11.333 -20 -25.166 -34.667 -41.499 -44s-32.5 -14 -48.5 -14c-14 0 -32 6 -54 18z" />
    <glyph glyph-name="odieresis" unicode="&#xf6;" horiz-adv-x="442" 
d="M81.5 37c-33.667 30 -50.5 71 -50.5 123v194c0 50.667 17 91.334 51 122.001s80.333 46 139 46c59.333 0 106 -15.333 140 -46s51 -71.334 51 -122.001v-194c0 -52 -16.833 -93 -50.5 -123s-80.5 -45 -140.5 -45c-59.333 0 -105.833 15 -139.5 45zM257 130
c9.33301 10.667 14 24.334 14 41.001v173c0 16.667 -4.66699 30.334 -14 41.001s-21.333 16 -36 16s-26.5 -5.33301 -35.5 -16s-13.5 -24.334 -13.5 -41.001v-173c0 -16.667 4.5 -30.334 13.5 -41.001s20.833 -16 35.5 -16s26.667 5.33301 36 16zM256.5 594.5
c-15 15 -22.5 33.833 -22.5 56.5c0 23.333 7.33301 42.333 22 57s33.667 22 57 22s42.333 -7.33301 57 -22s22 -33.667 22 -57c0 -22.667 -7.5 -41.5 -22.5 -56.5s-33.833 -22.5 -56.5 -22.5s-41.5 7.5 -56.5 22.5zM72.5 594.5c-15 15 -22.5 33.833 -22.5 56.5
c0 23.333 7.33301 42.333 22 57s33.667 22 57 22s42.333 -7.33301 57 -22s22 -33.667 22 -57c0 -22.667 -7.5 -41.5 -22.5 -56.5s-33.833 -22.5 -56.5 -22.5s-41.5 7.5 -56.5 22.5z" />
    <glyph glyph-name="divide" unicode="&#xf7;" horiz-adv-x="438" 
d="M171.5 432.5c-13.667 13.667 -20.5 29.834 -20.5 48.501s6.83301 34.667 20.5 48s29.834 20 48.501 20s34.667 -6.66699 48 -20s20 -29.333 20 -48s-6.66699 -34.834 -20 -48.501s-29.333 -20.5 -48 -20.5s-34.834 6.83301 -48.501 20.5zM27.5 261.5
c-2.33301 2.33301 -3.5 5.16602 -3.5 8.49902v82c0 3.33301 1.16699 6.16602 3.5 8.49902s5.16602 3.5 8.49902 3.5h367c3.33301 0 6.16602 -1.16699 8.49902 -3.5s3.5 -5.16602 3.5 -8.49902v-82c0 -3.33301 -1.16699 -6.16602 -3.5 -8.49902s-5.16602 -3.5 -8.49902 -3.5
h-367c-3.33301 0 -6.16602 1.16699 -8.49902 3.5zM171.5 98.5c-13.667 13.667 -20.5 29.834 -20.5 48.501s6.83301 34.667 20.5 48s29.834 20 48.501 20s34.667 -6.66699 48 -20s20 -29.333 20 -48s-6.66699 -34.834 -20 -48.501s-29.333 -20.5 -48 -20.5
s-34.834 6.83301 -48.501 20.5z" />
    <glyph glyph-name="oslash" unicode="&#xf8;" horiz-adv-x="457" 
d="M420 499l-28.999 -56c-0.666992 -2.66699 -0.666992 -4.66699 0 -6c12.667 -24.667 19 -52.334 19 -83.001v-194c0 -52 -16.833 -93 -50.5 -123s-80.5 -45 -140.5 -45c-22.667 0 -45.334 2.66699 -68.001 8c-2.66699 1.33301 -4.66699 0.333008 -6 -3l-21 -42
c-1.33301 -3.33301 -3.66602 -5.5 -6.99902 -6.5s-6.66602 -0.5 -9.99902 1.5l-75 46c-6.66699 4 -8.33398 9.33301 -5.00098 16l26 49c0.666992 2.66699 0.666992 5 0 7c-16 26 -24 56.667 -24 92v194c0 50.667 17 91.334 51 122.001s80.333 46 139 46
c26.667 0 52 -3.66699 76 -11c3.33301 -1.33301 5.33301 -0.333008 6 3l22 43c1.33301 3.33301 3.66602 5.33301 6.99902 6s6.66602 0 9.99902 -2l75 -46c6.66699 -4 8.33398 -9.33301 5.00098 -16zM255.001 385c-9.33301 10.667 -21.333 16 -36 16
s-26.5 -5.33301 -35.5 -16s-13.5 -24.334 -13.5 -41.001v-173c0 -16.667 4.5 -30.334 13.5 -41.001s20.833 -16 35.5 -16s26.667 5.33301 36 16s14 24.334 14 41.001v173c0 16.667 -4.66699 30.334 -14 41.001z" />
    <glyph glyph-name="ugrave" unicode="&#xf9;" 
d="M271.5 510.5c2.33301 2.33301 5.16504 3.5 8.49805 3.5h117c3.33301 0 6.16602 -1.16699 8.49902 -3.5s3.5 -5.16602 3.5 -8.49902v-490c0 -3.33301 -1.16699 -6.16602 -3.5 -8.49902s-5.16602 -3.5 -8.49902 -3.5h-117c-3.33301 0 -6.16602 1.16699 -8.49902 3.5
s-3.5 5.16602 -3.5 8.49902v17c0 2 -0.666992 3.33301 -2 4s-2.66602 0 -3.99902 -2c-10 -14 -22.5 -23.833 -37.5 -29.5s-32.5 -8.5 -52.5 -8.5c-40 0 -73 12.167 -99 36.5s-39 61.833 -39 112.5v360c0 3.33301 1.16699 6.16602 3.5 8.49902s5.16602 3.5 8.49902 3.5h117
c3.33301 0 6.16602 -1.16699 8.49902 -3.5s3.5 -5.16602 3.5 -8.49902v-329c0 -19.333 3.83301 -34.166 11.5 -44.499s18.834 -15.5 33.501 -15.5s26.334 5.66699 35.001 17s13 26.666 13 45.999v326c0 3.33301 1.16699 6.16602 3.5 8.49902zM265.999 584
c0 -5.33301 -3.66797 -8 -11.001 -8h-75c-5.33301 0 -10 2.33301 -14 7l-76 102c-2 3.33301 -3 6 -3 8c0 4.66699 3.33301 7 10 7h93c6.66699 0 11.334 -2.66699 14.001 -8l60 -102z" />
    <glyph glyph-name="uacute" unicode="&#xfa;" 
d="M271.5 510.5c2.33301 2.33301 5.16504 3.5 8.49805 3.5h117c3.33301 0 6.16602 -1.16699 8.49902 -3.5s3.5 -5.16602 3.5 -8.49902v-490c0 -3.33301 -1.16699 -6.16602 -3.5 -8.49902s-5.16602 -3.5 -8.49902 -3.5h-117c-3.33301 0 -6.16602 1.16699 -8.49902 3.5
s-3.5 5.16602 -3.5 8.49902v17c0 2 -0.666992 3.33301 -2 4s-2.66602 0 -3.99902 -2c-10 -14 -22.5 -23.833 -37.5 -29.5s-32.5 -8.5 -52.5 -8.5c-40 0 -73 12.167 -99 36.5s-39 61.833 -39 112.5v360c0 3.33301 1.16699 6.16602 3.5 8.49902s5.16602 3.5 8.49902 3.5h117
c3.33301 0 6.16602 -1.16699 8.49902 -3.5s3.5 -5.16602 3.5 -8.49902v-329c0 -19.333 3.83301 -34.166 11.5 -44.499s18.834 -15.5 33.501 -15.5s26.334 5.66699 35.001 17s13 26.666 13 45.999v326c0 3.33301 1.16699 6.16602 3.5 8.49902zM155.999 580
c-2 2.66699 -1.66699 6 1 10l59 102c2.66699 5.33301 7.66699 8 15 8h93c6.66699 0 10 -2.33301 10 -7c0 -2 -1 -4.66699 -3 -8l-77 -102c-4 -4.66699 -8.66699 -7 -14 -7h-74c-4.66699 0 -8 1.33301 -10 4z" />
    <glyph glyph-name="ucircumflex" unicode="&#xfb;" 
d="M271.5 510.5c2.33301 2.33301 5.16504 3.5 8.49805 3.5h117c3.33301 0 6.16602 -1.16699 8.49902 -3.5s3.5 -5.16602 3.5 -8.49902v-490c0 -3.33301 -1.16699 -6.16602 -3.5 -8.49902s-5.16602 -3.5 -8.49902 -3.5h-117c-3.33301 0 -6.16602 1.16699 -8.49902 3.5
s-3.5 5.16602 -3.5 8.49902v17c0 2 -0.666992 3.33301 -2 4s-2.66602 0 -3.99902 -2c-10 -14 -22.5 -23.833 -37.5 -29.5s-32.5 -8.5 -52.5 -8.5c-40 0 -73 12.167 -99 36.5s-39 61.833 -39 112.5v360c0 3.33301 1.16699 6.16602 3.5 8.49902s5.16602 3.5 8.49902 3.5h117
c3.33301 0 6.16602 -1.16699 8.49902 -3.5s3.5 -5.16602 3.5 -8.49902v-329c0 -19.333 3.83301 -34.166 11.5 -44.499s18.834 -15.5 33.501 -15.5s26.334 5.66699 35.001 17s13 26.666 13 45.999v326c0 3.33301 1.16699 6.16602 3.5 8.49902zM75.499 577.5
c-1.66699 2.33301 -1.16602 5.83301 1.50098 10.5l63 104c2.66699 5.33301 7.33398 8 14.001 8h129c6 0 10.667 -2.66699 14 -8l66 -104c1.33301 -4 2 -6.33301 2 -7c0 -4.66699 -3.33301 -7 -10 -7h-88c-6.66699 0 -11.334 3 -14.001 9l-30 56c-2 3.33301 -4 3.33301 -6 0
l-30 -56c-3.33301 -6 -8.33301 -9 -15 -9h-87c-4.66699 0 -7.83398 1.16699 -9.50098 3.5z" />
    <glyph glyph-name="udieresis" unicode="&#xfc;" 
d="M271.5 510.5c2.33301 2.33301 5.16504 3.5 8.49805 3.5h117c3.33301 0 6.16602 -1.16699 8.49902 -3.5s3.5 -5.16602 3.5 -8.49902v-490c0 -3.33301 -1.16699 -6.16602 -3.5 -8.49902s-5.16602 -3.5 -8.49902 -3.5h-117c-3.33301 0 -6.16602 1.16699 -8.49902 3.5
s-3.5 5.16602 -3.5 8.49902v17c0 2 -0.666992 3.33301 -2 4s-2.66602 0 -3.99902 -2c-10 -14 -22.5 -23.833 -37.5 -29.5s-32.5 -8.5 -52.5 -8.5c-40 0 -73 12.167 -99 36.5s-39 61.833 -39 112.5v360c0 3.33301 1.16699 6.16602 3.5 8.49902s5.16602 3.5 8.49902 3.5h117
c3.33301 0 6.16602 -1.16699 8.49902 -3.5s3.5 -5.16602 3.5 -8.49902v-329c0 -19.333 3.83301 -34.166 11.5 -44.499s18.834 -15.5 33.501 -15.5s26.334 5.66699 35.001 17s13 26.666 13 45.999v326c0 3.33301 1.16699 6.16602 3.5 8.49902zM255.499 594.5
c-15 15 -22.5 33.833 -22.5 56.5c0 23.333 7.33301 42.333 22 57s33.667 22 57 22s42.333 -7.33301 57 -22s22 -33.667 22 -57c0 -22.667 -7.5 -41.5 -22.5 -56.5s-33.833 -22.5 -56.5 -22.5s-41.5 7.5 -56.5 22.5zM71.499 594.5c-15 15 -22.5 33.833 -22.5 56.5
c0 23.333 7.33301 42.333 22 57s33.667 22 57 22s42.333 -7.33301 57 -22s22 -33.667 22 -57c0 -22.667 -7.5 -41.5 -22.5 -56.5s-33.833 -22.5 -56.5 -22.5s-41.5 7.5 -56.5 22.5z" />
    <glyph glyph-name="yacute" unicode="&#xfd;" horiz-adv-x="422" 
d="M34 -195.5c-1.33301 2.33301 -2.00195 5.16602 -2.00195 8.49902v92c0 8 3 12 9 12c34.667 0.666992 59.334 6.16699 74.001 16.5s23 31.5 25 63.5l-1 6l-126 499v4c0 6 3.66699 9 11 9h126c8 0 12.333 -3.66699 13 -11l46 -297c0.666992 -2.66699 1.66699 -4 3 -4
s2.33301 1.33301 3 4l44 297c0.666992 7.33301 5 11 13 11l126 -2c9.33301 0 13 -4.33301 11 -13l-132 -519c-13.333 -48.667 -27.5 -85.167 -42.5 -109.5s-37 -42.166 -66 -53.499s-70.833 -17 -125.5 -17h-5c-1.33301 0 -2.66602 1.16699 -3.99902 3.5zM145.998 580
c-2 2.66699 -1.66699 6 1 10l59 102c2.66699 5.33301 7.66699 8 15 8h93c6.66699 0 10 -2.33301 10 -7c0 -2 -1 -4.66699 -3 -8l-77 -102c-4 -4.66699 -8.66699 -7 -14 -7h-74c-4.66699 0 -8 1.33301 -10 4z" />
    <glyph glyph-name="thorn" unicode="&#xfe;" horiz-adv-x="442" 
d="M377.5 478.5c23 -29 34.499 -70.499 34.499 -124.499v-194c0 -52.667 -11.333 -93.834 -34 -123.501s-57 -44.5 -103 -44.5c-42.667 0 -74 17 -94 51c-1.33301 2 -2.66602 2.83301 -3.99902 2.5s-2 -1.83301 -2 -4.5v-229c0 -3.33301 -1.16699 -6.16602 -3.5 -8.49902
s-5.16602 -3.5 -8.49902 -3.5h-117c-3.33301 0 -6.16602 1.16699 -8.49902 3.5s-3.5 5.16602 -3.5 8.49902v876c0 3.33301 1.16699 6.16602 3.5 8.49902s5.16602 3.5 8.49902 3.5h117c3.33301 0 6.16602 -1.16699 8.49902 -3.5s3.5 -5.16602 3.5 -8.49902v-217
c0 -1.33301 0.666992 -2 2 -2c2 0 4.33301 2.33301 7 7c20.667 30.667 51 46 91 46c45.333 0 79.5 -14.5 102.5 -43.5zM257.999 385.001c-8.66699 10.667 -20.334 16 -35.001 16c-14 0 -25.333 -5.33301 -34 -16s-13 -24.667 -13 -42v-172c0 -17.333 4.33301 -31.333 13 -42
s20 -16 34 -16c14.667 0 26.334 5.33301 35.001 16s13 24.667 13 42v172c0 17.333 -4.33301 31.333 -13 42z" />
    <glyph glyph-name="ydieresis" unicode="&#xff;" horiz-adv-x="422" 
d="M34 -195.5c-1.33301 2.33301 -2.00195 5.16602 -2.00195 8.49902v92c0 8 3 12 9 12c34.667 0.666992 59.334 6.16699 74.001 16.5s23 31.5 25 63.5l-1 6l-126 499v4c0 6 3.66699 9 11 9h126c8 0 12.333 -3.66699 13 -11l46 -297c0.666992 -2.66699 1.66699 -4 3 -4
s2.33301 1.33301 3 4l44 297c0.666992 7.33301 5 11 13 11l126 -2c9.33301 0 13 -4.33301 11 -13l-132 -519c-13.333 -48.667 -27.5 -85.167 -42.5 -109.5s-37 -42.166 -66 -53.499s-70.833 -17 -125.5 -17h-5c-1.33301 0 -2.66602 1.16699 -3.99902 3.5zM245.498 594.5
c-15 15 -22.5 33.833 -22.5 56.5c0 23.333 7.33301 42.333 22 57s33.667 22 57 22s42.333 -7.33301 57 -22s22 -33.667 22 -57c0 -22.667 -7.5 -41.5 -22.5 -56.5s-33.833 -22.5 -56.5 -22.5s-41.5 7.5 -56.5 22.5zM61.498 594.5c-15 15 -22.5 33.833 -22.5 56.5
c0 23.333 7.33301 42.333 22 57s33.667 22 57 22s42.333 -7.33301 57 -22s22 -33.667 22 -57c0 -22.667 -7.5 -41.5 -22.5 -56.5s-33.833 -22.5 -56.5 -22.5s-41.5 7.5 -56.5 22.5z" />
    <glyph glyph-name="Amacron" unicode="&#x100;" horiz-adv-x="482" 
d="M325 11l-15.998 96c0 3.33301 -2 5 -6 5h-127c-4 0 -6 -1.66699 -6 -5l-16 -96c-0.666992 -7.33301 -5 -11 -13 -11h-117c-8.66699 -0 -12 4.33301 -10 13l147 676c1.33301 7.33301 5.66602 11 12.999 11h135c7.33301 0 11.666 -3.66699 12.999 -11l146 -676l1 -4
c0 -6 -3.66699 -9 -11 -9h-120c-8 0 -12.333 3.66699 -13 11zM194.002 221h90.001c3.33301 0 4.66602 1.66699 3.99902 5l-47 273c-0.666992 2 -1.66699 3 -3 3s-2.33301 -1 -3 -3l-45 -273c0 -3.33301 1.33301 -5 4 -5zM130.503 770.5
c-2.33301 2.33301 -3.5 5.16602 -3.5 8.49902v72c0 3.33301 1.16699 6.16602 3.5 8.49902s5.16602 3.5 8.49902 3.5h196c3.33301 0 6.16602 -1.16699 8.49902 -3.5s3.5 -5.16602 3.5 -8.49902v-72c0 -3.33301 -1.16699 -6.16602 -3.5 -8.49902s-5.16602 -3.5 -8.49902 -3.5
h-196c-3.33301 0 -6.16602 1.16699 -8.49902 3.5z" />
    <glyph glyph-name="amacron" unicode="&#x101;" horiz-adv-x="445" 
d="M362 476c35.333 -30.667 52.998 -71 52.998 -121v-343c0 -3.33301 -1.16699 -6.16602 -3.5 -8.49902s-5.16602 -3.5 -8.49902 -3.5h-117c-3.33301 0 -6.16602 1.16699 -8.49902 3.5s-3.5 5.16602 -3.5 8.49902v22c0 2 -0.666992 3.33301 -2 4s-2.66602 0 -3.99902 -2
c-22 -28 -56 -42.667 -102 -44c-38.667 0 -72.167 10.667 -100.5 32s-42.5 62 -42.5 122c0 62 17.167 104.667 51.5 128s83.833 35 148.5 35h46c3.33301 0 5 1.66699 5 5v25c0 18 -4.83301 32.833 -14.5 44.5s-21.834 17.5 -36.501 17.5c-11.333 0 -20.833 -3.5 -28.5 -10.5
s-12.5 -16.833 -14.5 -29.5c-0.666992 -8 -5 -12 -13 -12l-120 1c-8 0 -12 4 -12 12c3.33301 48.667 22.333 87.5 57 116.5s78.667 43.5 132 43.5c56.667 0 102.667 -15.333 138 -46zM255.498 116.5c12.333 10.333 18.501 24.168 18.501 41.501v47
c0 3.33301 -1.66699 5 -5 5h-41c-18 0 -32.5 -5.16699 -43.5 -15.5s-16.5 -24.5 -16.5 -42.5c0 -16.667 4.16699 -29.334 12.5 -38.001s19.5 -13 33.5 -13c15.333 0 29.166 5.16699 41.499 15.5zM112.499 584.502c-2.33301 2.33301 -3.5 5.16602 -3.5 8.49902v72
c0 3.33301 1.16699 6.16602 3.5 8.49902s5.16602 3.5 8.49902 3.5h196c3.33301 0 6.16602 -1.16699 8.49902 -3.5s3.5 -5.16602 3.5 -8.49902v-72c0 -3.33301 -1.16699 -6.16602 -3.5 -8.49902s-5.16602 -3.5 -8.49902 -3.5h-196c-3.33301 0 -6.16602 1.16699 -8.49902 3.5z
" />
    <glyph glyph-name="Abreve" unicode="&#x102;" horiz-adv-x="482" 
d="M325 11l-15.998 96c0 3.33301 -2 5 -6 5h-127c-4 0 -6 -1.66699 -6 -5l-16 -96c-0.666992 -7.33301 -5 -11 -13 -11h-117c-8.66699 -0 -12 4.33301 -10 13l147 676c1.33301 7.33301 5.66602 11 12.999 11h135c7.33301 0 11.666 -3.66699 12.999 -11l146 -676l1 -4
c0 -6 -3.66699 -9 -11 -9h-120c-8 0 -12.333 3.66699 -13 11zM194.002 221h90.001c3.33301 0 4.66602 1.66699 3.99902 5l-47 273c-0.666992 2 -1.66699 3 -3 3s-2.33301 -1 -3 -3l-45 -273c0 -3.33301 1.33301 -5 4 -5zM158.503 764c-21.667 19.333 -33.832 45 -36.499 77
v2c0 6.66699 3.66699 10 11 10h50c8 0 12.333 -4 13 -12c2 -13.333 7 -24 15 -32s18 -12 30 -12s22.167 4 30.5 12s13.5 18.667 15.5 32c1.33301 8 5.66602 12 12.999 12h50c8 0 12 -4 12 -12c-3.33301 -32 -15.833 -57.667 -37.5 -77s-49.5 -29 -83.5 -29
c-33.333 0 -60.833 9.66699 -82.5 29z" />
    <glyph glyph-name="abreve" unicode="&#x103;" horiz-adv-x="445" 
d="M362 476c35.333 -30.667 52.998 -71 52.998 -121v-343c0 -3.33301 -1.16699 -6.16602 -3.5 -8.49902s-5.16602 -3.5 -8.49902 -3.5h-117c-3.33301 0 -6.16602 1.16699 -8.49902 3.5s-3.5 5.16602 -3.5 8.49902v22c0 2 -0.666992 3.33301 -2 4s-2.66602 0 -3.99902 -2
c-22 -28 -56 -42.667 -102 -44c-38.667 0 -72.167 10.667 -100.5 32s-42.5 62 -42.5 122c0 62 17.167 104.667 51.5 128s83.833 35 148.5 35h46c3.33301 0 5 1.66699 5 5v25c0 18 -4.83301 32.833 -14.5 44.5s-21.834 17.5 -36.501 17.5c-11.333 0 -20.833 -3.5 -28.5 -10.5
s-12.5 -16.833 -14.5 -29.5c-0.666992 -8 -5 -12 -13 -12l-120 1c-8 0 -12 4 -12 12c3.33301 48.667 22.333 87.5 57 116.5s78.667 43.5 132 43.5c56.667 0 102.667 -15.333 138 -46zM255.498 116.5c12.333 10.333 18.501 24.168 18.501 41.501v47
c0 3.33301 -1.66699 5 -5 5h-41c-18 0 -32.5 -5.16699 -43.5 -15.5s-16.5 -24.5 -16.5 -42.5c0 -16.667 4.16699 -29.334 12.5 -38.001s19.5 -13 33.5 -13c15.333 0 29.166 5.16699 41.499 15.5zM139.499 578.002c-21.667 19.333 -33.832 45 -36.499 77v2
c0 6.66699 3.66699 10 11 10h50c8 0 12.333 -4 13 -12c2 -13.333 7 -24 15 -32s18 -12 30 -12s22.167 4 30.5 12s13.5 18.667 15.5 32c1.33301 8 5.66602 12 12.999 12h50c8 0 12 -4 12 -12c-3.33301 -32 -15.833 -57.667 -37.5 -77s-49.5 -29 -83.5 -29
c-33.333 0 -60.833 9.66699 -82.5 29z" />
    <glyph glyph-name="Aogonek" unicode="&#x104;" horiz-adv-x="482" 
d="M325 11l-15.998 96c0 3.33301 -2 5 -6 5h-127c-4 0 -6 -1.66699 -6 -5l-16 -96c-0.666992 -7.33301 -5 -11 -13 -11h-117c-8.66699 -0 -12 4.33301 -10 13l147 676c1.33301 7.33301 5.66602 11 12.999 11h135c7.33301 0 11.666 -3.66699 12.999 -11l146 -676l1 -4
c0 -6 -3.66699 -9 -11 -9h-120c-8 0 -12.333 3.66699 -13 11zM194.002 221h90.001c3.33301 0 4.66602 1.66699 3.99902 5l-47 273c-0.666992 2 -1.66699 3 -3 3s-2.33301 -1 -3 -3l-45 -273c0 -3.33301 1.33301 -5 4 -5zM470.003 -174c0 -4.66699 -2.66797 -8 -8.00098 -10
c-18.667 -4.66699 -34.667 -7 -48 -7c-25.333 0 -46.5 6.66699 -63.5 20s-25.5 36 -25.5 68c0 34.667 15.333 67 46 97c4 4 9 6 15 6h63c6.66699 0 10 -2 10 -6c0 -2.66699 -1.66699 -5.66699 -5 -9c-25.333 -24 -38 -46.333 -38 -67c0 -12 3.33301 -20.667 10 -26
s14.667 -7.33301 24 -6h3c6.66699 0 10.334 -3.33301 11.001 -10l6 -46v-4z" />
    <glyph glyph-name="aogonek" unicode="&#x105;" horiz-adv-x="445" 
d="M407 -6c-32 -28 -48 -53.3311 -48 -75.998c0 -12 3.33301 -20.667 10 -26s15 -7.33301 25 -6h3c6.66699 0 10.334 -3.33301 11.001 -10l6 -46v-3c0 -5.33301 -3 -9 -9 -11c-18.667 -4.66699 -34.334 -7 -47.001 -7c-25.333 0 -46.5 6.66699 -63.5 20s-25.5 36 -25.5 68
c0 34 15 66.333 45 97c1.33301 1.33301 1.66602 2.66602 0.999023 3.99902s-2 2 -4 2h-25c-3.33301 0 -6.16602 1.16699 -8.49902 3.5s-3.5 5.16602 -3.5 8.49902v22c0 2 -0.666992 3.33301 -2 4s-2.66602 0 -3.99902 -2c-22 -28 -56 -42.667 -102 -44
c-38.667 0 -72.167 10.667 -100.5 32s-42.5 62 -42.5 122c0 62 17.167 104.667 51.5 128s83.833 35 148.5 35h46c3.33301 0 5 1.66699 5 5v25c0 18 -4.83301 32.833 -14.5 44.5s-21.834 17.5 -36.501 17.5c-11.333 0 -20.833 -3.5 -28.5 -10.5s-12.5 -16.833 -14.5 -29.5
c-0.666992 -8 -5 -12 -13 -12l-120 1c-8 0 -12 4 -12 12c3.33301 48.667 22.333 87.5 57 116.5s78.667 43.5 132 43.5c56.667 0 102.667 -15.333 138 -46s53 -71 53 -121v-355zM255.5 116.502c12.333 10.333 18.501 24.168 18.501 41.501v47c0 3.33301 -1.66699 5 -5 5h-41
c-18 0 -32.5 -5.16699 -43.5 -15.5s-16.5 -24.5 -16.5 -42.5c0 -16.667 4.16699 -29.334 12.5 -38.001s19.5 -13 33.5 -13c15.333 0 29.166 5.16699 41.499 15.5z" />
    <glyph glyph-name="Cacute" unicode="&#x106;" horiz-adv-x="464" 
d="M88.5 45.5c-36.333 35.667 -54.499 83.499 -54.499 143.499v324c0 59.333 18.167 106.666 54.5 141.999s84.5 53 144.5 53c60.667 0 109.167 -17.667 145.5 -53s54.5 -82.666 54.5 -141.999v-11c0 -3.33301 -1.16699 -6.16602 -3.5 -8.49902s-5.16602 -3.5 -8.49902 -3.5
l-117 -5c-8 0 -12 3.66699 -12 11v26c0 19.333 -5.33301 35 -16 47s-25 18 -43 18c-17.333 0 -31.333 -6 -42 -18s-16 -27.667 -16 -47v-345c0 -19.333 5.33301 -34.833 16 -46.5s24.667 -17.5 42 -17.5c18 0 32.333 5.83301 43 17.5s16 27.167 16 46.5v27
c0 3.33301 1.16699 6.16602 3.5 8.49902s5.16602 3.5 8.49902 3.5l117 -5c3.33301 0 6.16602 -1.16699 8.49902 -3.5s3.5 -5.16602 3.5 -8.49902v-10c0 -60 -18.333 -107.833 -55 -143.5s-85 -53.5 -145 -53.5s-108.167 17.833 -144.5 53.5zM169.001 765.999
c-2 2.66699 -1.66699 6 1 10l59 102c2.66699 5.33301 7.66699 8 15 8h93c6.66699 0 10 -2.33301 10 -7c0 -2 -1 -4.66699 -3 -8l-77 -102c-4 -4.66699 -8.66699 -7 -14 -7h-74c-4.66699 0 -8 1.33301 -10 4z" />
    <glyph glyph-name="cacute" unicode="&#x107;" horiz-adv-x="434" 
d="M81.5 37c-33.667 30 -50.499 70.9971 -50.499 122.997v194c0 50.667 16.833 91.334 50.5 122.001s79.834 46 138.501 46s104.834 -15 138.501 -45s50.5 -69 50.5 -117v-18c0 -3.33301 -1.16699 -6.16602 -3.5 -8.49902s-5.16602 -3.5 -8.49902 -3.5l-117 -5
c-8 0 -12 4 -12 12v12c0 14.667 -4.5 27 -13.5 37s-20.5 15 -34.5 15c-14.667 0 -26.334 -5.33301 -35.001 -16s-13 -24.667 -13 -42v-172c0 -17.333 4.33301 -31.333 13 -42s20.334 -16 35.001 -16c14 0 25.5 5.16699 34.5 15.5s13.5 22.5 13.5 36.5v13
c0 3.33301 1.16699 6.16602 3.5 8.49902s5.16602 3.5 8.49902 3.5l117 -1c3.33301 0 6.16602 -1.16699 8.49902 -3.5s3.5 -5.16602 3.5 -8.49902v-23c0 -49.333 -16.833 -88.666 -50.5 -117.999s-79.834 -44 -138.501 -44s-104.834 15 -138.501 45zM155.001 579.997
c-2 2.66699 -1.66699 6 1 10l59 102c2.66699 5.33301 7.66699 8 15 8h93c6.66699 0 10 -2.33301 10 -7c0 -2 -1 -4.66699 -3 -8l-77 -102c-4 -4.66699 -8.66699 -7 -14 -7h-74c-4.66699 0 -8 1.33301 -10 4z" />
    <glyph glyph-name="Ccircumflex" unicode="&#x108;" horiz-adv-x="464" 
d="M88.5 45.5c-36.333 35.667 -54.499 83.499 -54.499 143.499v324c0 59.333 18.167 106.666 54.5 141.999s84.5 53 144.5 53c60.667 0 109.167 -17.667 145.5 -53s54.5 -82.666 54.5 -141.999v-11c0 -3.33301 -1.16699 -6.16602 -3.5 -8.49902s-5.16602 -3.5 -8.49902 -3.5
l-117 -5c-8 0 -12 3.66699 -12 11v26c0 19.333 -5.33301 35 -16 47s-25 18 -43 18c-17.333 0 -31.333 -6 -42 -18s-16 -27.667 -16 -47v-345c0 -19.333 5.33301 -34.833 16 -46.5s24.667 -17.5 42 -17.5c18 0 32.333 5.83301 43 17.5s16 27.167 16 46.5v27
c0 3.33301 1.16699 6.16602 3.5 8.49902s5.16602 3.5 8.49902 3.5l117 -5c3.33301 0 6.16602 -1.16699 8.49902 -3.5s3.5 -5.16602 3.5 -8.49902v-10c0 -60 -18.333 -107.833 -55 -143.5s-85 -53.5 -145 -53.5s-108.167 17.833 -144.5 53.5zM88.501 763.499
c-1.66699 2.33301 -1.16602 5.83301 1.50098 10.5l63 104c2.66699 5.33301 7.33398 8 14.001 8h129c6 0 10.667 -2.66699 14 -8l66 -104c1.33301 -4 2 -6.33301 2 -7c0 -4.66699 -3.33301 -7 -10 -7h-88c-6.66699 0 -11.334 3 -14.001 9l-30 56c-2 3.33301 -4 3.33301 -6 0
l-30 -56c-3.33301 -6 -8.33301 -9 -15 -9h-87c-4.66699 0 -7.83398 1.16699 -9.50098 3.5z" />
    <glyph glyph-name="ccircumflex" unicode="&#x109;" horiz-adv-x="434" 
d="M81.5 37c-33.667 30 -50.499 70.9971 -50.499 122.997v194c0 50.667 16.833 91.334 50.5 122.001s79.834 46 138.501 46s104.834 -15 138.501 -45s50.5 -69 50.5 -117v-18c0 -3.33301 -1.16699 -6.16602 -3.5 -8.49902s-5.16602 -3.5 -8.49902 -3.5l-117 -5
c-8 0 -12 4 -12 12v12c0 14.667 -4.5 27 -13.5 37s-20.5 15 -34.5 15c-14.667 0 -26.334 -5.33301 -35.001 -16s-13 -24.667 -13 -42v-172c0 -17.333 4.33301 -31.333 13 -42s20.334 -16 35.001 -16c14 0 25.5 5.16699 34.5 15.5s13.5 22.5 13.5 36.5v13
c0 3.33301 1.16699 6.16602 3.5 8.49902s5.16602 3.5 8.49902 3.5l117 -1c3.33301 0 6.16602 -1.16699 8.49902 -3.5s3.5 -5.16602 3.5 -8.49902v-23c0 -49.333 -16.833 -88.666 -50.5 -117.999s-79.834 -44 -138.501 -44s-104.834 15 -138.501 45zM74.501 577.497
c-1.66699 2.33301 -1.16602 5.83301 1.50098 10.5l63 104c2.66699 5.33301 7.33398 8 14.001 8h129c6 0 10.667 -2.66699 14 -8l66 -104c1.33301 -4 2 -6.33301 2 -7c0 -4.66699 -3.33301 -7 -10 -7h-88c-6.66699 0 -11.334 3 -14.001 9l-30 56c-2 3.33301 -4 3.33301 -6 0
l-30 -56c-3.33301 -6 -8.33301 -9 -15 -9h-87c-4.66699 0 -7.83398 1.16699 -9.50098 3.5z" />
    <glyph glyph-name="Cdotaccent" unicode="&#x10a;" horiz-adv-x="464" 
d="M88.5 45.5c-36.333 35.667 -54.499 83.499 -54.499 143.499v324c0 59.333 18.167 106.666 54.5 141.999s84.5 53 144.5 53c60.667 0 109.167 -17.667 145.5 -53s54.5 -82.666 54.5 -141.999v-11c0 -3.33301 -1.16699 -6.16602 -3.5 -8.49902s-5.16602 -3.5 -8.49902 -3.5
l-117 -5c-8 0 -12 3.66699 -12 11v26c0 19.333 -5.33301 35 -16 47s-25 18 -43 18c-17.333 0 -31.333 -6 -42 -18s-16 -27.667 -16 -47v-345c0 -19.333 5.33301 -34.833 16 -46.5s24.667 -17.5 42 -17.5c18 0 32.333 5.83301 43 17.5s16 27.167 16 46.5v27
c0 3.33301 1.16699 6.16602 3.5 8.49902s5.16602 3.5 8.49902 3.5l117 -5c3.33301 0 6.16602 -1.16699 8.49902 -3.5s3.5 -5.16602 3.5 -8.49902v-10c0 -60 -18.333 -107.833 -55 -143.5s-85 -53.5 -145 -53.5s-108.167 17.833 -144.5 53.5zM177.501 780.499
c-15 15 -22.5 33.833 -22.5 56.5c0 23.333 7.33301 42.333 22 57s33.667 22 57 22s42.333 -7.33301 57 -22s22 -33.667 22 -57c0 -22.667 -7.5 -41.5 -22.5 -56.5s-33.833 -22.5 -56.5 -22.5s-41.5 7.5 -56.5 22.5z" />
    <glyph glyph-name="cdotaccent" unicode="&#x10b;" horiz-adv-x="434" 
d="M81.5 37c-33.667 30 -50.499 70.9971 -50.499 122.997v194c0 50.667 16.833 91.334 50.5 122.001s79.834 46 138.501 46s104.834 -15 138.501 -45s50.5 -69 50.5 -117v-18c0 -3.33301 -1.16699 -6.16602 -3.5 -8.49902s-5.16602 -3.5 -8.49902 -3.5l-117 -5
c-8 0 -12 4 -12 12v12c0 14.667 -4.5 27 -13.5 37s-20.5 15 -34.5 15c-14.667 0 -26.334 -5.33301 -35.001 -16s-13 -24.667 -13 -42v-172c0 -17.333 4.33301 -31.333 13 -42s20.334 -16 35.001 -16c14 0 25.5 5.16699 34.5 15.5s13.5 22.5 13.5 36.5v13
c0 3.33301 1.16699 6.16602 3.5 8.49902s5.16602 3.5 8.49902 3.5l117 -1c3.33301 0 6.16602 -1.16699 8.49902 -3.5s3.5 -5.16602 3.5 -8.49902v-23c0 -49.333 -16.833 -88.666 -50.5 -117.999s-79.834 -44 -138.501 -44s-104.834 15 -138.501 45zM163.501 594.497
c-15 15 -22.5 33.833 -22.5 56.5c0 23.333 7.33301 42.333 22 57s33.667 22 57 22s42.333 -7.33301 57 -22s22 -33.667 22 -57c0 -22.667 -7.5 -41.5 -22.5 -56.5s-33.833 -22.5 -56.5 -22.5s-41.5 7.5 -56.5 22.5z" />
    <glyph glyph-name="Ccaron" unicode="&#x10c;" horiz-adv-x="464" 
d="M88.5 45.5c-36.333 35.667 -54.499 83.499 -54.499 143.499v324c0 59.333 18.167 106.666 54.5 141.999s84.5 53 144.5 53c60.667 0 109.167 -17.667 145.5 -53s54.5 -82.666 54.5 -141.999v-11c0 -3.33301 -1.16699 -6.16602 -3.5 -8.49902s-5.16602 -3.5 -8.49902 -3.5
l-117 -5c-8 0 -12 3.66699 -12 11v26c0 19.333 -5.33301 35 -16 47s-25 18 -43 18c-17.333 0 -31.333 -6 -42 -18s-16 -27.667 -16 -47v-345c0 -19.333 5.33301 -34.833 16 -46.5s24.667 -17.5 42 -17.5c18 0 32.333 5.83301 43 17.5s16 27.167 16 46.5v27
c0 3.33301 1.16699 6.16602 3.5 8.49902s5.16602 3.5 8.49902 3.5l117 -5c3.33301 0 6.16602 -1.16699 8.49902 -3.5s3.5 -5.16602 3.5 -8.49902v-10c0 -60 -18.333 -107.833 -55 -143.5s-85 -53.5 -145 -53.5s-108.167 17.833 -144.5 53.5zM93.001 878.999
c0 4.66699 3.33301 7 10 7h87c7.33301 0 12.333 -3 15 -9l30 -56c2 -2.66699 4 -2.66699 6 0l30 56c3.33301 6 8 9 14 9h88c4.66699 0 7.83398 -1.16699 9.50098 -3.5s1.16699 -5.83301 -1.5 -10.5l-66 -104c-3.33301 -5.33301 -8 -8 -14 -8h-129
c-6.66699 0 -11.334 2.66699 -14.001 8l-63 104c-1.33301 4 -2 6.33301 -2 7z" />
    <glyph glyph-name="ccaron" unicode="&#x10d;" horiz-adv-x="434" 
d="M81.5 37c-33.667 30 -50.499 70.9971 -50.499 122.997v194c0 50.667 16.833 91.334 50.5 122.001s79.834 46 138.501 46s104.834 -15 138.501 -45s50.5 -69 50.5 -117v-18c0 -3.33301 -1.16699 -6.16602 -3.5 -8.49902s-5.16602 -3.5 -8.49902 -3.5l-117 -5
c-8 0 -12 4 -12 12v12c0 14.667 -4.5 27 -13.5 37s-20.5 15 -34.5 15c-14.667 0 -26.334 -5.33301 -35.001 -16s-13 -24.667 -13 -42v-172c0 -17.333 4.33301 -31.333 13 -42s20.334 -16 35.001 -16c14 0 25.5 5.16699 34.5 15.5s13.5 22.5 13.5 36.5v13
c0 3.33301 1.16699 6.16602 3.5 8.49902s5.16602 3.5 8.49902 3.5l117 -1c3.33301 0 6.16602 -1.16699 8.49902 -3.5s3.5 -5.16602 3.5 -8.49902v-23c0 -49.333 -16.833 -88.666 -50.5 -117.999s-79.834 -44 -138.501 -44s-104.834 15 -138.501 45zM79.001 692.997
c0 4.66699 3.33301 7 10 7h87c7.33301 0 12.333 -3 15 -9l30 -56c2 -2.66699 4 -2.66699 6 0l30 56c3.33301 6 8 9 14 9h88c4.66699 0 7.83398 -1.16699 9.50098 -3.5s1.16699 -5.83301 -1.5 -10.5l-66 -104c-3.33301 -5.33301 -8 -8 -14 -8h-129
c-6.66699 0 -11.334 2.66699 -14.001 8l-63 104c-1.33301 4 -2 6.33301 -2 7z" />
    <glyph glyph-name="Dcaron" unicode="&#x10e;" horiz-adv-x="476" 
d="M47.5 3.5c-2.33301 2.33301 -3.5 5.16797 -3.5 8.50098v676c0 3.33301 1.16699 6.16602 3.5 8.49902s5.16602 3.5 8.49902 3.5h181c60.667 0 109.334 -17.667 146.001 -53s55 -82.333 55 -141v-312c0 -58.667 -18.333 -105.667 -55 -141s-85.334 -53 -146.001 -53h-181
c-3.33301 0 -6.16602 1.16699 -8.49902 3.5zM190 121.002l44.999 0.999023c18 0.666992 32.667 8.33398 44 23.001s17.333 34 18 58v294c0 25.333 -5.66699 45.333 -17 60s-26.666 22 -45.999 22h-44c-3.33301 0 -5 -1.66699 -5 -5v-448c0 -3.33301 1.66699 -5 5 -5z
M89.999 878.001c0 4.66699 3.33301 7 10 7h87c7.33301 0 12.333 -3 15 -9l30 -56c2 -2.66699 4 -2.66699 6 0l30 56c3.33301 6 8 9 14 9h88c4.66699 0 7.83398 -1.16699 9.50098 -3.5s1.16699 -5.83301 -1.5 -10.5l-66 -104c-3.33301 -5.33301 -8 -8 -14 -8h-129
c-6.66699 0 -11.334 2.66699 -14.001 8l-63 104c-1.33301 4 -2 6.33301 -2 7z" />
    <glyph glyph-name="dcaron" unicode="&#x10f;" horiz-adv-x="445" 
d="M269.5 696.5c2.33301 2.33301 5.16602 3.5 8.49902 3.5h117c3.33301 0 6.16602 -1.16699 8.49902 -3.5s3.5 -5.16602 3.5 -8.49902v-676c0 -3.33301 -1.16699 -6.16602 -3.5 -8.49902s-5.16602 -3.5 -8.49902 -3.5h-117c-3.33301 0 -6.16602 1.16699 -8.49902 3.5
s-3.5 5.16602 -3.5 8.49902v16c0 2 -0.666992 3.16699 -2 3.5s-2.66602 -0.166992 -3.99902 -1.5c-22.667 -25.333 -52.667 -38 -90 -38c-46 0 -80.667 14.833 -104 44.5s-35 70.834 -35 123.501v194c0 54 11.833 95.5 35.5 124.5s58.167 43.5 103.5 43.5
c14.667 0 30 -2.83301 46 -8.5s30.667 -15.834 44 -30.501c1.33301 -1.33301 2.66602 -1.83301 3.99902 -1.5s2 1.5 2 3.5v203c0 3.33301 1.16699 6.16602 3.5 8.49902zM250 125c8.66699 8 14 18.6689 16 32.002v200c-2 13.333 -7.33301 24 -16 32s-19 12 -31 12
c-14 0 -25.333 -5.33301 -34 -16s-13 -24.334 -13 -41.001v-174c0 -16.667 4.33301 -30.334 13 -41.001s20 -16 34 -16c12 0 22.333 4 31 12zM448 580.002c-2 2.66699 -1.66699 6 1 10l59 102c2.66699 5.33301 7.66699 8 15 8h93c6.66699 0 10 -2.33301 10 -7
c0 -2 -1 -4.66699 -3 -8l-77 -102c-4 -4.66699 -8.66699 -7 -14 -7h-74c-4.66699 0 -8 1.33301 -10 4z" />
    <glyph glyph-name="Dcroat" unicode="&#x110;" horiz-adv-x="506" 
d="M414 647c36.667 -35.333 55 -82.3291 55 -140.996v-312c0 -58.667 -18.333 -105.667 -55 -141s-85.334 -53 -146.001 -53h-181c-3.33301 0 -6.16602 1.16699 -8.49902 3.5s-3.5 5.16602 -3.5 8.49902v309c0 3.33301 -1.66699 5 -5 5h-14
c-3.33301 0 -6.16602 1.16699 -8.49902 3.5s-3.5 5.16602 -3.5 8.49902v57c0 3.33301 1.16699 6.16602 3.5 8.49902s5.16602 3.5 8.49902 3.5h14c3.33301 0 5 1.66699 5 5v276c0 3.33301 1.16699 6.16602 3.5 8.49902s5.16602 3.5 8.49902 3.5h181
c60.667 0 109.334 -17.667 146.001 -53zM328 497.004c0 24.667 -5.83398 44.498 -17.501 59.498s-27.167 22.5 -46.5 22.5h-43c-3.33301 0 -5 -1.66699 -5 -5v-162c0 -3.33301 1.66699 -5 5 -5h37c3.33301 0 6.16602 -1.16699 8.49902 -3.5s3.5 -5.16602 3.5 -8.49902v-57
c0 -3.33301 -1.16699 -6.16602 -3.5 -8.49902s-5.16602 -3.5 -8.49902 -3.5h-37c-3.33301 0 -5 -1.66699 -5 -5v-195c0 -3.33301 1.66699 -5 5 -5l44 1c18 0.666992 32.833 8.16699 44.5 22.5s17.834 33.833 18.501 58.5v294z" />
    <glyph glyph-name="dcroat" unicode="&#x111;" horiz-adv-x="445" 
d="M444.5 636.5c2.33301 -2.33301 3.5 -5.16602 3.5 -8.49902v-61c0 -3.33301 -1.16699 -6.16602 -3.5 -8.49902s-5.16602 -3.5 -8.49902 -3.5h-24c-3.33301 0 -5 -1.66699 -5 -5v-538c0 -3.33301 -1.16699 -6.16602 -3.5 -8.49902s-5.16602 -3.5 -8.49902 -3.5h-117
c-3.33301 0 -6.16602 1.16699 -8.49902 3.5s-3.5 5.16602 -3.5 8.49902v16c0 2 -0.666992 3.16699 -2 3.5s-2.66602 -0.166992 -3.99902 -1.5c-22.667 -25.333 -52.667 -38 -90 -38c-46 0 -80.667 14.833 -104 44.5s-35 70.834 -35 123.501v194c0 54 11.833 95.5 35.5 124.5
s58.167 43.5 103.5 43.5c14.667 0 30 -2.83301 46 -8.5s30.667 -15.834 44 -30.501c1.33301 -1.33301 2.66602 -1.83301 3.99902 -1.5s2 1.5 2 3.5v65c0 3.33301 -1.66699 5 -5 5h-87c-3.33301 0 -6.16602 1.16699 -8.49902 3.5s-3.5 5.16602 -3.5 8.49902v61
c0 3.33301 1.16699 6.16602 3.5 8.49902s5.16602 3.5 8.49902 3.5h87c3.33301 0 5 1.66699 5 5v43c0 3.33301 1.16699 6.16602 3.5 8.49902s5.16602 3.5 8.49902 3.5h117c3.33301 0 6.16602 -1.16699 8.49902 -3.5s3.5 -5.16602 3.5 -8.49902v-43
c0 -3.33301 1.66699 -5 5 -5h24c3.33301 0 6.16602 -1.16699 8.49902 -3.5zM250 125c8.66699 8 14 18.6689 16 32.002v200c-2 13.333 -7.33301 24 -16 32s-19 12 -31 12c-14 0 -25.333 -5.33301 -34 -16s-13 -24.334 -13 -41.001v-174c0 -16.667 4.33301 -30.334 13 -41.001
s20 -16 34 -16c12 0 22.333 4 31 12z" />
    <glyph glyph-name="Emacron" unicode="&#x112;" horiz-adv-x="438" 
d="M407.5 582.5c-2.33301 -2.33301 -5.16602 -3.50391 -8.49902 -3.50391h-209c-3.33301 0 -5 -1.66699 -5 -5v-158c0 -3.33301 1.66699 -5 5 -5h120c3.33301 0 6.16602 -1.16699 8.49902 -3.5s3.5 -5.16602 3.5 -8.49902v-97c0 -3.33301 -1.16699 -6.16602 -3.5 -8.49902
s-5.16602 -3.5 -8.49902 -3.5h-120c-3.33301 0 -5 -1.66699 -5 -5v-159c0 -3.33301 1.66699 -5 5 -5h209c3.33301 0 6.16602 -1.16699 8.49902 -3.5s3.5 -5.16602 3.5 -8.49902v-97c0 -3.33301 -1.16699 -6.16602 -3.5 -8.49902s-5.16602 -3.5 -8.49902 -3.5h-343
c-3.33301 0 -6.16602 1.16699 -8.49902 3.5s-3.5 5.16602 -3.5 8.49902v676c0 3.33301 1.16699 6.16602 3.5 8.49902s5.16602 3.5 8.49902 3.5h343c3.33301 0 6.16602 -1.16699 8.49902 -3.5s3.5 -5.16602 3.5 -8.49902v-97c0 -3.33301 -1.16699 -6.16602 -3.5 -8.49902z
M117.5 770.496c-2.33301 2.33301 -3.5 5.16602 -3.5 8.49902v72c0 3.33301 1.16699 6.16602 3.5 8.49902s5.16602 3.5 8.49902 3.5h196c3.33301 0 6.16602 -1.16699 8.49902 -3.5s3.5 -5.16602 3.5 -8.49902v-72c0 -3.33301 -1.16699 -6.16602 -3.5 -8.49902
s-5.16602 -3.5 -8.49902 -3.5h-196c-3.33301 0 -6.16602 1.16699 -8.49902 3.5z" />
    <glyph glyph-name="emacron" unicode="&#x113;" horiz-adv-x="436" 
d="M405.5 216.5c-2.33301 -2.33301 -5.16797 -3.50293 -8.50098 -3.50293h-220c-3.33301 0 -5 -1.66699 -5 -5v-37c0 -16.667 4.5 -30.5 13.5 -41.5s20.5 -16.5 34.5 -16.5c12.667 0 23 4.16699 31 12.5s13.333 18.833 16 31.5c2 6.66699 6.33301 10 13 10l115 -6
c3.33301 0 6.16602 -1.16699 8.49902 -3.5s3.16602 -5.5 2.49902 -9.5c-4.66699 -51.333 -22.5 -90.166 -53.5 -116.499s-75.167 -39.5 -132.5 -39.5c-59.333 0 -105.666 14.833 -138.999 44.5s-50 70.834 -50 123.501v194c0 50.667 16.833 91.334 50.5 122.001
s79.834 46 138.501 46s104.834 -15.333 138.501 -46s50.5 -71.334 50.5 -122.001v-129c0 -3.33301 -1.16699 -6.16602 -3.5 -8.49902zM185.498 384.997c-9 -10.667 -13.5 -24.334 -13.5 -41.001v-39c0 -3.33301 1.66699 -5 5 -5h86c3.33301 0 5 1.66699 5 5v39
c0 16.667 -4.5 30.334 -13.5 41.001s-20.5 16 -34.5 16s-25.5 -5.33301 -34.5 -16zM107.498 596.497c-2.33301 2.33301 -3.5 5.16602 -3.5 8.49902v72c0 3.33301 1.16699 6.16602 3.5 8.49902s5.16602 3.5 8.49902 3.5h196c3.33301 0 6.16602 -1.16699 8.49902 -3.5
s3.5 -5.16602 3.5 -8.49902v-72c0 -3.33301 -1.16699 -6.16602 -3.5 -8.49902s-5.16602 -3.5 -8.49902 -3.5h-196c-3.33301 0 -6.16602 1.16699 -8.49902 3.5z" />
    <glyph glyph-name="Edotaccent" unicode="&#x116;" horiz-adv-x="438" 
d="M407.5 582.5c-2.33301 -2.33301 -5.16602 -3.50391 -8.49902 -3.50391h-209c-3.33301 0 -5 -1.66699 -5 -5v-158c0 -3.33301 1.66699 -5 5 -5h120c3.33301 0 6.16602 -1.16699 8.49902 -3.5s3.5 -5.16602 3.5 -8.49902v-97c0 -3.33301 -1.16699 -6.16602 -3.5 -8.49902
s-5.16602 -3.5 -8.49902 -3.5h-120c-3.33301 0 -5 -1.66699 -5 -5v-159c0 -3.33301 1.66699 -5 5 -5h209c3.33301 0 6.16602 -1.16699 8.49902 -3.5s3.5 -5.16602 3.5 -8.49902v-97c0 -3.33301 -1.16699 -6.16602 -3.5 -8.49902s-5.16602 -3.5 -8.49902 -3.5h-343
c-3.33301 0 -6.16602 1.16699 -8.49902 3.5s-3.5 5.16602 -3.5 8.49902v676c0 3.33301 1.16699 6.16602 3.5 8.49902s5.16602 3.5 8.49902 3.5h343c3.33301 0 6.16602 -1.16699 8.49902 -3.5s3.5 -5.16602 3.5 -8.49902v-97c0 -3.33301 -1.16699 -6.16602 -3.5 -8.49902z
M172.5 780.496c-15 15 -22.5 33.833 -22.5 56.5c0 23.333 7.33301 42.333 22 57s33.667 22 57 22s42.333 -7.33301 57 -22s22 -33.667 22 -57c0 -22.667 -7.5 -41.5 -22.5 -56.5s-33.833 -22.5 -56.5 -22.5s-41.5 7.5 -56.5 22.5z" />
    <glyph glyph-name="edotaccent" unicode="&#x117;" horiz-adv-x="436" 
d="M405.5 216.5c-2.33301 -2.33301 -5.16797 -3.50293 -8.50098 -3.50293h-220c-3.33301 0 -5 -1.66699 -5 -5v-37c0 -16.667 4.5 -30.5 13.5 -41.5s20.5 -16.5 34.5 -16.5c12.667 0 23 4.16699 31 12.5s13.333 18.833 16 31.5c2 6.66699 6.33301 10 13 10l115 -6
c3.33301 0 6.16602 -1.16699 8.49902 -3.5s3.16602 -5.5 2.49902 -9.5c-4.66699 -51.333 -22.5 -90.166 -53.5 -116.499s-75.167 -39.5 -132.5 -39.5c-59.333 0 -105.666 14.833 -138.999 44.5s-50 70.834 -50 123.501v194c0 50.667 16.833 91.334 50.5 122.001
s79.834 46 138.501 46s104.834 -15.333 138.501 -46s50.5 -71.334 50.5 -122.001v-129c0 -3.33301 -1.16699 -6.16602 -3.5 -8.49902zM185.498 384.997c-9 -10.667 -13.5 -24.334 -13.5 -41.001v-39c0 -3.33301 1.66699 -5 5 -5h86c3.33301 0 5 1.66699 5 5v39
c0 16.667 -4.5 30.334 -13.5 41.001s-20.5 16 -34.5 16s-25.5 -5.33301 -34.5 -16zM162.498 594.497c-15 15 -22.5 33.833 -22.5 56.5c0 23.333 7.33301 42.333 22 57s33.667 22 57 22s42.333 -7.33301 57 -22s22 -33.667 22 -57c0 -22.667 -7.5 -41.5 -22.5 -56.5
s-33.833 -22.5 -56.5 -22.5s-41.5 7.5 -56.5 22.5z" />
    </font>
</defs>
</svg>
